osu file format v14

[General]
AudioFilename: audio.mp3
AudioLeadIn: 0
PreviewTime: 5888
Countdown: 0
SampleSet: Soft
StackLeniency: 0.1
Mode: 0
LetterboxInBreaks: 0
WidescreenStoryboard: 1

[Editor]
Bookmarks: 30520,36810,63544,69713,85197,100681,102617
DistanceSpacing: 1.08
BeatDivisor: 8
GridSize: 4
TimelineZoom: 2.6

[Metadata]
Title:GENSHIN IMPACT (Cut Ver.)
TitleUnicode:GENSHIN IMPACT (Cut Ver.)
Artist:MARRY ME, BELLAMY
ArtistUnicode:MARRY ME, BELLAMY
Creator:Gordon123
Version:COLLAB PRIMOGEMS
Source:
Tags:video game electronic russian русский Zhongli Hu Tao гемы примогемы Bakari riffy -Space- [_Space_] despacito1 Kelp1e Cris- Геншин Импакт Spayyce
BeatmapID:3301586
BeatmapSetID:1587242

[Difficulty]
HPDrainRate:6
CircleSize:4
OverallDifficulty:8
ApproachRate:9.4
SliderMultiplier:2.1
SliderTickRate:1

[Events]
//Background and Video events
0,0,"zhongli.jpg",0,0
Video,0,"video.flv"
//Break Periods
//Storyboard Layer 0 (Background)
//Storyboard Layer 1 (Fail)
//Storyboard Layer 2 (Pass)
//Storyboard Layer 3 (Foreground)
//Storyboard Layer 4 (Overlay)
//Storyboard Sound Samples

[TimingPoints]
6009,483.870967741935,4,2,1,80,1,0
6009,-76.9230769230769,4,2,1,80,0,1
7521,-76.9230769230769,4,2,1,5,0,1
7581,-76.9230769230769,4,2,1,80,0,1
7642,-76.9230769230769,4,2,1,5,0,1
7702,-222.222222222221,4,2,1,80,0,1
7883,-222.222222222221,4,2,1,5,0,1
7944,-76.9230769230769,4,2,1,80,0,1
9456,-76.9230769230769,4,2,1,5,0,1
9517,-76.9230769230769,4,2,1,80,0,1
9577,-76.9230769230769,4,2,1,5,0,1
9638,-200,4,2,1,80,0,1
9879,-76.9230769230769,4,2,1,80,0,1
10605,-62.5,4,2,1,80,0,1
11089,-76.9230769230769,4,2,1,80,0,1
11392,-76.9230769230769,4,2,1,5,0,1
11452,-76.9230769230769,4,2,1,80,0,1
11513,-76.9230769230769,4,2,1,5,0,1
11573,-200,4,2,1,80,0,1
11754,-200,4,2,1,5,0,1
11815,-76.9230769230769,4,2,1,80,0,1
13327,-76.9230769230769,4,2,1,5,0,1
13388,-76.9230769230769,4,2,1,80,0,1
13448,-76.9230769230769,4,2,1,5,0,1
13508,-76.9230769230769,4,2,1,80,0,1
15263,-76.9230769230769,4,2,1,5,0,1
15323,-76.9230769230769,4,2,1,80,0,1
15383,-76.9230769230769,4,2,1,5,0,1
15444,-222.222222222221,4,2,1,80,0,1
15686,-76.9230769230769,4,2,1,80,0,1
17198,-76.9230769230769,4,2,1,5,0,1
17258,-76.9230769230769,4,2,1,80,0,1
17319,-76.9230769230769,4,2,1,5,0,1
17379,-250,4,2,1,80,0,1
17440,-76.9230769230769,4,2,1,5,0,1
17500,-76.9230769230769,4,2,1,80,0,1
19133,-76.9230769230769,4,2,1,5,0,1
19194,-76.9230769230769,4,2,1,80,0,1
19254,-76.9230769230769,4,2,1,5,0,1
19315,-200,4,2,1,80,0,1
19557,-83.3333333333333,4,2,1,80,0,1
21069,-83.3333333333333,4,2,1,5,0,1
21129,-83.3333333333333,4,2,1,80,0,1
21190,-83.3333333333333,4,2,1,5,0,1
21250,-83.3333333333333,4,2,1,80,0,1
21492,-100,4,2,1,50,0,0
23488,-100,4,2,1,70,0,0
23549,-100,4,2,1,50,0,0
23609,-100,4,2,1,40,0,0
23670,-100,4,2,1,20,0,0
23912,-100,4,2,1,50,0,0
25424,-100,4,2,1,70,0,0
25484,-100,4,2,1,50,0,0
25545,-100,4,2,1,40,0,0
25605,-100,4,2,1,20,0,0
25847,-100,4,2,1,50,0,0
27359,-100,4,2,1,70,0,0
27420,-100,4,2,1,50,0,0
27480,-100,4,2,1,40,0,0
27541,-100,4,2,1,20,0,0
27783,-100,4,2,1,50,0,0
29295,-100,4,2,1,70,0,0
29355,-100,4,2,1,50,0,0
29416,-100,4,2,1,40,0,0
29476,-100,4,2,1,20,0,0
29718,-100,4,2,1,50,0,0
31230,-100,4,2,1,70,0,0
31291,-100,4,2,1,50,0,0
31351,-100,4,2,1,40,0,0
31412,-100,4,2,1,20,0,0
31654,-100,4,2,1,50,0,0
33166,-100,4,2,1,70,0,0
33226,-100,4,2,1,50,0,0
33287,-100,4,2,1,40,0,0
33347,-100,4,2,1,20,0,0
33589,-100,4,2,1,50,0,0
35101,-100,4,2,1,70,0,0
35162,-100,4,2,1,60,0,0
35222,-100,4,2,1,40,0,0
35283,-100,4,2,1,20,0,0
35525,-100,4,2,1,50,0,0
36976,-90.9090909090909,4,2,1,60,0,0
38972,-90.9090909090909,4,2,1,60,0,0
39033,-90.9090909090909,4,2,1,60,0,0
39093,-90.9090909090909,4,2,1,40,0,0
39154,-90.9090909090909,4,2,1,20,0,0
39396,-90.9090909090909,4,2,1,60,0,0
42843,-90.9090909090909,4,2,1,60,0,0
42904,-90.9090909090909,4,2,1,60,0,0
42964,-90.9090909090909,4,2,1,40,0,0
43025,-90.9090909090909,4,2,1,20,0,0
43267,-90.9090909090909,4,2,1,60,0,0
46714,-90.9090909090909,4,2,1,60,0,0
46775,-90.9090909090909,4,2,1,60,0,0
46835,-90.9090909090909,4,2,1,40,0,0
46896,-90.9090909090909,4,2,1,20,0,0
47138,-90.9090909090909,4,2,1,60,0,0
48589,-90.9090909090909,4,2,1,60,0,0
50585,-90.9090909090909,4,2,1,60,0,0
50646,-90.9090909090909,4,2,1,60,0,0
50706,-90.9090909090909,4,2,1,40,0,0
50767,-90.9090909090909,4,2,1,20,0,0
51008,-90.9090909090909,4,2,1,60,0,0
52460,-125,4,2,1,50,0,0
55726,-90.9090909090909,4,2,1,75,0,0
56331,-76.9230769230769,4,2,1,80,0,1
57843,-76.9230769230769,4,2,1,5,0,1
57904,-76.9230769230769,4,2,1,80,0,1
57964,-76.9230769230769,4,2,1,5,0,1
58025,-250,4,2,1,80,0,1
58206,-250,4,2,1,5,0,1
58267,-76.9230769230769,4,2,1,80,0,1
59779,-76.9230769230769,4,2,1,5,0,1
59839,-76.9230769230769,4,2,1,80,0,1
59900,-76.9230769230769,4,2,1,5,0,1
59960,-76.9230769230769,4,2,1,80,0,1
60202,-58.8235294117647,4,2,1,80,0,1
60444,-76.9230769230769,4,2,1,80,0,1
61714,-76.9230769230769,4,2,1,5,0,1
61775,-76.9230769230769,4,2,1,80,0,1
61835,-76.9230769230769,4,2,1,5,0,1
61896,-250,4,2,1,80,0,1
62077,-250,4,2,1,5,0,1
62138,-76.9230769230769,4,2,1,80,0,1
63650,-76.9230769230769,4,2,1,5,0,1
63710,-76.9230769230769,4,2,1,80,0,1
63771,-76.9230769230769,4,2,1,5,0,1
63831,-76.9230769230769,4,2,1,80,0,1
65585,-76.9230769230769,4,2,1,5,0,1
65646,-76.9230769230769,4,2,1,80,0,1
65706,-76.9230769230769,4,2,1,5,0,1
65767,-222.222222222221,4,2,1,80,0,1
65948,-222.222222222221,4,2,1,5,0,1
66008,-66.6666666666667,4,2,1,80,0,1
67521,-66.6666666666667,4,2,1,5,0,1
67581,-66.6666666666667,4,2,1,80,0,1
67642,-66.6666666666667,4,2,1,5,0,1
67702,-222.222222222221,4,2,1,80,0,1
67944,-66.6666666666667,4,2,1,80,0,1
69456,-66.6666666666667,4,2,1,5,0,1
69517,-66.6666666666667,4,2,1,80,0,1
69577,-66.6666666666667,4,2,1,5,0,1
69638,-133.333333333333,4,2,1,80,0,1
69819,-133.333333333333,4,2,1,5,0,1
69879,-66.6666666666667,4,2,1,80,0,1
71815,-100,4,2,1,70,0,0
73750,-55.5555555555556,4,2,1,80,0,1
73992,-45.4545454545455,4,2,1,80,0,1
74718,-66.6666666666667,4,2,1,80,0,1
75202,-45.4545454545455,4,2,1,80,0,1
75444,-45.4545454545455,4,2,1,80,0,1
75625,-45.4545454545455,4,2,1,5,0,1
75686,-40,4,2,1,80,0,1
75928,-50,4,2,1,80,0,1
76170,-45.4545454545455,4,2,1,80,0,1
76412,-58.8235294117647,4,2,1,80,0,1
76593,-58.8235294117647,4,2,1,5,0,1
76654,-45.4545454545455,4,2,1,80,0,1
76896,-66.6666666666667,4,2,1,80,0,1
77138,-50,4,2,1,80,0,1
77198,-50,4,2,1,5,0,1
77258,-50,4,2,1,80,0,1
77319,-50,4,2,1,5,0,1
77379,-133.333333333333,4,2,1,80,0,1
77561,-133.333333333333,4,2,1,5,0,1
77621,-40,4,2,1,80,0,1
77863,-66.6666666666667,4,2,1,80,0,1
78105,-45.4545454545455,4,2,1,80,0,1
78529,-45.4545454545455,4,2,1,5,0,1
78589,-66.6666666666667,4,2,1,80,0,1
79133,-66.6666666666667,4,2,1,5,0,1
79194,-66.6666666666667,4,2,1,80,0,1
79254,-66.6666666666667,4,2,1,5,0,1
79315,-66.6666666666667,4,2,1,80,0,1
79557,-45.4545454545455,4,2,1,80,0,1
79799,-66.6666666666667,4,2,1,80,0,1
80041,-50,4,2,1,80,0,1
80283,-50,4,2,1,80,0,1
80646,-100,4,2,1,80,0,1
80767,-100,4,2,1,80,0,1
81008,-66.6666666666667,4,2,1,80,0,1
81492,-33.3333333333333,4,2,1,80,0,1
81734,-66.6666666666667,4,2,1,80,0,1
81976,-50,4,2,1,80,0,1
82218,-100,4,2,1,80,0,1
82400,-100,4,2,1,5,0,1
82460,-100,4,2,1,80,0,1
82823,-66.6666666666667,4,2,1,80,0,1
82944,-45.4545454545455,4,2,1,80,0,1
83428,-33.3333333333333,4,2,1,80,0,1
83609,-33.3333333333333,4,2,1,5,0,1
83670,-66.6666666666667,4,2,1,80,0,1
84093,-66.6666666666667,4,2,1,5,0,1
84154,-66.6666666666667,4,2,1,80,0,1
84396,-50,4,2,1,80,0,1
84577,-50,4,2,1,5,0,1
84638,-50,4,2,1,80,0,1
86331,-76.9230769230769,4,2,1,80,0,1
86513,-76.9230769230769,4,2,1,5,0,1
86573,-76.9230769230769,4,2,1,80,0,1
86754,-83.3333333333333,4,2,1,80,0,1
86815,-50,4,2,1,80,0,1
86875,-50,4,2,1,5,0,1
86936,-50,4,2,1,80,0,1
86996,-50,4,2,1,5,0,1
87057,-55.5555555555556,4,2,1,80,0,1
87299,-55.5555555555556,4,2,1,70,0,0
88206,-55.5555555555556,4,2,1,5,0,0
88267,-55.5555555555556,4,2,1,70,0,0
88811,-55.5555555555556,4,2,1,5,0,0
88871,-55.5555555555556,4,2,1,70,0,0
88932,-55.5555555555556,4,2,1,5,0,0
88992,-200,4,2,1,70,0,0
89174,-200,4,2,1,5,0,0
89234,-55.5555555555556,4,2,1,70,0,0
89718,-62.5,4,2,1,70,0,0
90746,-62.5,4,2,1,5,0,0
90807,-62.5,4,2,1,70,0,0
90867,-62.5,4,2,1,5,0,0
90928,-62.5,4,2,1,70,0,0
91109,-55.5555555555556,4,2,1,70,0,0
91654,-62.5,4,2,1,70,0,0
92077,-62.5,4,2,1,5,0,0
92138,-62.5,4,2,1,70,0,0
92682,-62.5,4,2,1,5,0,0
92742,-62.5,4,2,1,70,0,0
92803,-62.5,4,2,1,5,0,0
92863,-200,4,2,1,70,0,0
93045,-200,4,2,1,5,0,0
93105,-55.5555555555556,4,2,1,70,0,0
93589,-62.5,4,2,1,100,0,0
94013,-62.5,4,2,1,5,0,0
94073,-62.5,4,2,1,70,0,0
94617,-62.5,4,2,1,5,0,0
94678,-62.5,4,2,1,70,0,0
94738,-62.5,4,2,1,5,0,0
94799,-62.5,4,2,1,70,0,0
95041,-55.5555555555556,4,2,1,70,0,0
95525,-62.5,4,2,1,70,0,0
95948,-62.5,4,2,1,5,0,0
96008,-62.5,4,2,1,70,0,0
96553,-62.5,4,2,1,5,0,0
96613,-62.5,4,2,1,70,0,0
96674,-62.5,4,2,1,5,0,0
96734,-200,4,2,1,70,0,0
96916,-200,4,2,1,5,0,0
96976,-55.5555555555556,4,2,1,70,0,0
97460,-62.5,4,2,1,70,0,0
98488,-62.5,4,2,1,5,0,0
98549,-62.5,4,2,1,70,0,0
98609,-62.5,4,2,1,5,0,0
98670,-62.5,4,2,1,70,0,0
98912,-55.5555555555556,4,2,1,70,0,0
99396,-62.5,4,2,1,70,0,0
99819,-62.5,4,2,1,5,0,0
99879,-62.5,4,2,1,70,0,0
100424,-62.5,4,2,1,5,0,0
100484,-62.5,4,2,1,70,0,0
100545,-62.5,4,2,1,5,0,0
100605,-62.5,4,2,1,70,0,0
102541,-62.5,4,2,1,50,0,0

[Colours]
Combo1 : 170,85,0
Combo2 : 168,168,213
Combo3 : 255,181,125
Combo4 : 255,223,138

[HitObjects]
58,206,6009,6,0,P|96:230|140:233,1,68.2499968757631,4|0,0:0|0:0,0:0:0:0:
258,176,6250,2,0,P|214:182|180:214,1,68.2499968757631,2|0,0:0|0:0,0:0:0:0:
192,351,6492,2,0,L|185:283,1,68.2499968757631,0|0,1:0|0:0,0:0:0:0:
327,231,6734,2,0,L|320:299,1,68.2499968757631,2|0,0:0|0:0,0:0:0:0:
273,364,6976,1,2,0:0:0:0:
273,364,7218,1,2,0:0:0:0:
412,182,7460,2,0,L|357:167,1,34.1249984378815,2|0,1:2|0:0,0:0:0:0:
325,109,7581,2,0,L|291:101,1,34.1249984378815,2|0,0:0|0:0,0:0:0:0:
234,45,7702,6,0,L|196:36,1,35.4374989185334,2|0,0:0|0:0,0:0:0:0:
188,37,7944,6,0,P|164:78|171:124,1,68.2499968757631,4|0,0:0|0:0,0:0:0:0:
204,215,8186,2,0,P|223:169|218:125,1,68.2499968757631,2|0,0:0|0:0,0:0:0:0:
23,25,8428,2,0,P|55:108|73:173,1,136.499993751526,0|0,1:0|0:0,0:0:0:0:
66,167,8791,1,2,0:0:0:0:
0,384,8912,2,0,P|42:318|114:324,1,136.499993751526,2|0,0:0|0:0,0:0:0:0:
101,326,9275,1,0,0:0:0:0:
108,336,9396,2,0,L|152:326,1,34.1249984378815,2|0,1:2|0:0,0:0:0:0:
224,352,9517,2,0,L|257:348,1,34.1249984378815,2|0,0:0|0:0,0:0:0:0:
342,371,9638,5,2,0:0:0:0:
337,380,9758,1,0,0:0:0:0:
205,271,9879,6,0,L|183:185,1,68.2499968757631,4|0,0:0|0:0,0:0:0:0:
328,81,10121,2,0,P|297:67|263:71,1,68.2499968757631,2|0,0:0|0:0,0:0:0:0:
141,142,10363,2,0,P|171:127|205:131,1,68.2499968757631,0|0,1:0|0:0,0:0:0:0:
287,232,10605,2,0,P|276:204|288:136,1,84,2|0,0:0|0:0,0:0:0:0:
328,81,10847,1,2,0:0:0:0:
394,242,11089,2,0,P|370:222|354:174,1,68.2499968757631,2|0,0:0|0:0,0:0:0:0:
500,204,11331,2,0,L|467:194,1,34.1249984378815,2|0,1:2|0:0,0:0:0:0:
406,118,11452,2,0,L|439:111,1,34.1249984378815,2|0,0:0|0:0,0:0:0:0:
512,42,11573,6,0,L|470:31,1,39.375,2|0,0:0|0:0,0:0:0:0:
394,320,11815,6,0,P|449:342|460:282,1,136.499993751526,4|0,0:0|0:0,0:0:0:0:
451,278,12178,1,0,0:0:0:0:
346,182,12299,2,0,L|187:172,1,136.499993751526,0|0,1:0|0:0,0:0:0:0:
244,263,12662,1,0,0:0:0:0:
129,344,12783,2,0,P|162:324|200:343,1,68.2499968757631,2|0,0:0|0:0,0:0:0:0:
39,305,13025,2,0,P|71:252|49:228,1,102.374995313645
40,222,13267,2,0,L|45:189,1,34.1249984378815,2|0,1:2|0:0,0:0:0:0:
116,128,13388,2,0,L|121:163,1,34.1249984378815,2|0,0:0|0:0,0:0:0:0:
244,263,13508,5,2,0:0:0:0:
152,234,13629,1,2,0:0:0:0:
296,325,13750,6,0,P|317:296|321:238,1,68.2499968757631,4|0,0:0|0:0,0:0:0:0:
408,147,13992,2,0,P|375:182|382:217,1,68.2499968757631
468,287,14234,2,0,P|429:279|386:276,1,68.2499968757631,0|0,1:0|0:0,0:0:0:0:
292,187,14476,2,0,L|278:110,1,68.2499968757631
283,25,14718,1,2,0:0:0:0:
290,21,14960,1,2,0:0:0:0:
231,236,15202,2,0,L|220:269,1,34.1249984378815,2|0,1:2|0:0,0:0:0:0:
193,340,15323,2,0,L|180:372,1,34.1249984378815,2|0,0:0|0:0,0:0:0:0:
107,351,15444,6,0,L|122:315,1,35.4374989185334,2|0,0:0|0:0,0:0:0:0:
144,244,15686,6,0,B|112:228|79:248|79:248|48:267|9:252,1,136.499993751526,4|2,0:0|0:0,0:0:0:0:
40,180,16049,1,0,0:0:0:0:
168,108,16170,2,0,L|175:176,1,68.2499968757631,0|0,1:0|0:0,0:0:0:0:
43,29,16412,2,0,P|78:29|96:62,1,68.2499968757631
245,67,16654,2,0,L|330:46,1,68.2499968757631,2|0,0:0|0:0,0:0:0:0:
395,59,16896,1,0,0:0:0:0:
453,0,17017,1,0,0:0:0:0:
429,135,17138,2,0,L|441:175,1,34.1249984378815,2|0,1:2|0:0,0:0:0:0:
500,224,17258,2,0,L|495:276,1,34.1249984378815,2|0,0:0|0:0,0:0:0:0:
450,323,17379,5,2,0:0:0:0:
418,247,17500,1,2,0:0:0:0:
418,247,17621,6,0,P|375:271|344:211,1,102.374995313645,4|0,0:0|0:0,0:0:0:0:
256,209,17863,2,0,P|264:180|313:160,1,68.2499968757631,2|0,0:0|0:0,0:0:0:0:
376,89,18105,2,0,L|376:170,1,68.2499968757631,0|0,1:0|0:0,0:0:0:0:
277,356,18347,2,0,L|267:258,1,68.2499968757631,2|0,0:0|0:0,0:0:0:0:
341,230,18589,1,2,0:0:0:0:
191,303,18831,1,2,0:0:0:0:
424,256,19073,2,0,L|459:266,1,34.1249984378815,2|0,1:2|0:0,0:0:0:0:
256,209,19194,2,0,L|213:200,1,34.1249984378815,2|0,0:0|0:0,0:0:0:0:
388,324,19315,6,0,P|370:330|352:338,1,39.375,2|0,0:0|0:0,0:0:0:0:
495,152,19557,5,2,0:0:0:0:
475,326,19799,1,0,0:0:0:0:
394,133,20041,1,2,0:0:0:0:
379,28,20283,1,0,0:0:0:0:
304,177,20525,1,2,0:0:0:0:
316,256,20767,1,0,0:0:0:0:
378,140,20888,5,0,0:0:0:0:
434,201,21008,1,2,0:0:0:0:
398,272,21129,1,0,0:0:0:0:
316,256,21250,1,0,0:0:0:0:
304,177,21371,1,0,0:0:0:0:
207,202,21492,6,0,L|84:236,1,105,0|0,3:0|0:0,0:0:0:0:
104,246,21976,1,0,3:0:0:0:
144,339,22218,1,0,0:0:0:0:
17,218,22460,1,2,3:2:0:0:
58,147,22702,1,0,0:0:0:0:
59,342,22944,1,0,3:0:0:0:
138,151,23186,1,2,3:2:0:0:
229,336,23428,6,0,L|260:339,4,26.25,2|2|0|0|0,0:0|0:0|0:0|0:0|0:0,0:0:0:0:
219,343,23912,1,0,3:0:0:0:
392,331,24396,1,0,3:0:0:0:
322,292,24638,1,2,0:0:0:0:
485,323,24879,1,0,3:0:0:0:
256,209,25121,1,2,3:2:0:0:
394,249,25363,6,0,L|385:217,4,26.25,2|2|0|0|0,0:0|0:0|0:0|0:0|0:0,0:0:0:0:
368,145,25847,1,0,3:0:0:0:
430,93,26331,1,0,3:0:0:0:
295,107,26573,1,2,0:0:0:0:
404,328,26815,1,0,3:0:0:0:
377,181,27057,1,2,3:2:0:0:
358,44,27299,6,0,L|352:6,4,26.25,2|2|0|0|0,0:0|0:0|0:0|0:0|0:0,0:0:0:0:
438,91,27783,1,0,3:0:0:0:
287,108,28267,1,0,3:0:0:0:
488,152,28508,1,2,0:0:0:0:
285,124,28750,1,2,3:2:0:0:
453,85,28992,1,2,0:0:0:0:
331,247,29234,6,0,L|309:280,4,26.25,2|2|0|0|0,0:0|0:0|0:0|0:0|0:0,0:0:0:0:
267,331,29718,1,0,3:0:0:0:
359,336,29960,1,2,0:0:0:0:
240,243,30202,1,0,3:0:0:0:
406,263,30444,1,0,0:0:0:0:
290,173,30686,1,0,3:0:0:0:
375,187,30928,1,0,0:0:0:0:
344,116,31170,2,0,L|353:79,4,26.25,2|2|0|0|0,0:0|0:0|0:0|0:0|0:0,0:0:0:0:
367,17,31654,5,0,3:0:0:0:
190,133,32138,1,0,3:0:0:0:
279,50,32379,1,2,0:0:0:0:
267,132,32621,1,0,3:0:0:0:
139,0,32863,1,0,3:0:0:0:
92,65,33105,6,0,L|66:101,4,26.25,2|2|0|0|0,0:0|0:0|0:0|0:0|0:0,0:0:0:0:
33,145,33589,1,0,3:0:0:0:
139,0,33831,1,2,0:0:0:0:
111,250,34073,1,0,3:0:0:0:
33,145,34315,1,0,0:0:0:0:
92,65,34557,2,0,P|124:93|139:155,1,105,0|0,3:0|0:0,0:0:0:0:
111,250,35041,2,0,L|101:282,4,26.25,2|2|0|0|0,0:0|0:0|0:0|0:0|0:0,0:0:0:0:
122,361,35525,1,0,3:0:0:0:
122,361,36250,5,2,0:0:0:0:
122,361,36492,1,2,0:0:0:0:
122,361,36734,1,2,0:0:0:0:
42,311,36976,6,0,P|71:281|103:279,1,57.7500017623902,4|0,0:0|0:0,0:0:0:0:
166,268,37218,2,0,L|238:264,1,57.7500017623902,2|0,0:0|0:0,0:0:0:0:
342,229,37460,2,0,P|315:186|251:202,1,115.50000352478,2|0,1:2|0:0,0:0:0:0:
258,384,37944,2,0,P|295:358|292:285,1,115.50000352478,2|0,0:0|0:0,0:0:0:0:
247,196,38428,1,0,1:2:0:0:
247,196,38670,1,0,0:0:0:0:
376,297,38912,6,0,L|401:315,4,28.8750008811951,2|2|0|0|0,0:0|0:0|0:0|0:0|0:0,0:0:0:0:
247,196,39396,1,0,1:2:0:0:
51,50,39638,2,0,P|106:80|110:91,1,57.7500017623902
167,0,39879,1,2,0:0:0:0:
0,177,40121,2,0,L|58:164,1,57.7500017623902,2|0,0:0|0:0,0:0:0:0:
247,196,40363,2,0,L|188:183,1,57.7500017623902,2|0,1:2|0:0,0:0:0:0:
129,143,40605,1,0,0:0:0:0:
419,38,40847,6,0,P|467:84|458:146,1,115.50000352478,4|0,0:0|0:0,0:0:0:0:
364,375,41331,2,0,P|347:320|369:269,1,115.50000352478,0|0,1:2|0:0,0:0:0:0:
422,208,41694,1,0,0:0:0:0:
420,195,41815,2,0,L|344:186,1,57.7500017623902,2|0,0:0|0:0,0:0:0:0:
282,171,42057,2,0,L|200:157,1,57.7500017623902
142,151,42299,6,0,P|116:162|107:63,1,173.250005287171,2|0,1:2|0:0,0:0:0:0:
172,67,42783,2,0,L|189:90,4,28.8750008811951,2|2|0|0|0,0:0|0:0|0:0|0:0|0:0,0:0:0:0:
102,238,43267,1,0,1:2:0:0:
110,252,43508,2,0,L|188:245,1,57.7500017623902
281,237,43750,1,2,0:0:0:0:
96,344,43992,1,0,0:0:0:0:
10,313,44234,1,0,1:0:0:0:
188,326,44476,2,0,L|252:333,1,57.7500017623902,2|0,0:0|0:0,0:0:0:0:
455,227,44718,6,0,P|422:247|415:275,1,57.7500017623902,4|0,0:0|0:0,0:0:0:0:
354,353,44960,2,0,L|410:339,1,57.7500017623902
455,227,45202,2,0,P|495:268|471:336,1,115.50000352478,0|0,1:2|0:0,0:0:0:0:
313,286,45686,2,0,P|273:245|297:177,1,115.50000352478,2|0,0:0|0:0,0:0:0:0:
512,23,46170,2,0,B|492:100|386:32|384:150,1,173.250005287171,0|0,1:2|0:0,0:0:0:0:
361,196,46654,6,0,L|343:240,4,28.8750008811951,2|2|0|0|0,0:0|0:0|0:0|0:0|0:0,0:0:0:0:
386,124,47138,1,0,1:2:0:0:
315,74,47379,2,0,L|261:42,1,57.7500017623902
269,34,47621,1,2,0:0:0:0:
163,139,47863,2,0,L|106:149,1,57.7500017623902,2|0,0:0|0:0,0:0:0:0:
124,22,48105,2,0,P|146:18|176:48,1,57.7500017623902,2|0,1:2|0:0,0:0:0:0:
237,204,48347,2,0,L|298:180,1,57.7500017623902,2|0,0:0|0:0,0:0:0:0:
449,115,48589,6,0,P|395:152|416:209,2,115.50000352478,4|0|0,0:0|0:0|1:2,0:0:0:0:
495,270,49315,1,0,0:0:0:0:
265,44,49557,2,0,P|255:98|255:164,1,115.50000352478,2|0,0:0|0:0,0:0:0:0:
292,316,50041,1,0,1:2:0:0:
381,181,50283,1,0,0:0:0:0:
498,291,50525,6,0,L|506:333,4,28.8750008811951,2|2|0|0|0,0:0|0:0|0:0|0:0|0:0,0:0:0:0:
387,172,51008,1,0,1:0:0:0:
441,384,51250,2,0,P|402:372|385:341,1,57.7500017623902
312,340,51492,2,0,P|325:306|361:291,1,57.7500017623902,2|0,0:0|0:0,0:0:0:0:
349,291,51734,2,0,L|216:270,2,115.50000352478,2|2|0,0:0|0:0|0:0,0:0:0:0:
356,287,52460,5,2,0:0:0:0:
178,206,52944,1,2,0:0:0:0:
173,212,53186,1,2,0:0:0:0:
5,322,53912,1,2,0:0:0:0:
10,316,54033,1,2,0:0:0:0:
15,309,54154,1,2,0:0:0:0:
15,309,54396,6,0,B|86:293|70:334|144:312,1,126,8|0,0:3|0:0,0:0:0:0:
185,256,54879,2,0,L|194:226,5,21
211,326,55242,1,8,2:3:0:0:
269,189,55484,1,0,0:0:0:0:
208,336,55605,1,8,2:3:0:0:
361,302,55726,6,0,L|347:245,2,57.7500017623902,2|0|0,0:0|0:0|0:0,0:0:0:0:
446,254,56089,1,0,0:0:0:0:
448,349,56210,1,0,0:0:0:0:
409,170,56331,6,0,L|440:78,1,68.2499968757631,4|0,0:0|0:0,0:0:0:0:
512,100,56573,2,0,P|504:67|481:43,1,68.2499968757631,2|0,0:0|0:0,0:0:0:0:
339,9,56815,2,0,L|358:89,1,68.2499968757631,0|0,1:0|0:0,0:0:0:0:
311,155,57057,2,0,P|287:130|280:98,1,68.2499968757631,2|0,0:0|0:0,0:0:0:0:
282,87,57299,1,2,0:0:0:0:
491,172,57541,1,2,0:0:0:0:
175,25,57783,2,0,L|164:57,1,34.1249984378815,2|0,1:2|0:0,0:0:0:0:
281,79,57904,2,0,L|266:48,1,34.1249984378815,2|0,0:0|0:0,0:0:0:0:
152,178,58025,6,0,L|142:141,1,31.5,2|0,0:0|0:0,0:0:0:0:
67,22,58267,6,0,L|85:106,1,68.2499968757631,4|0,0:0|0:0,0:0:0:0:
123,329,58508,2,0,L|127:259,1,68.2499968757631
152,178,58750,2,0,P|194:181|245:266,1,136.499993751526,0|0,1:0|0:0,0:0:0:0:
212,343,59113,1,0,0:0:0:0:
127,261,59234,2,0,B|56:254|73:306|-5:291,1,136.499993751526,2|0,0:0|0:0,0:0:0:0:
206,334,59597,1,0,0:0:0:0:
16,217,59718,2,0,L|20:183,1,34.1249984378815,2|0,1:2|0:0,0:0:0:0:
50,111,59839,2,0,L|45:74,1,34.1249984378815,2|0,0:0|0:0,0:0:0:0:
103,19,59960,5,2,0:0:0:0:
106,29,60081,1,2,0:0:0:0:
151,116,60202,6,0,P|204:137|215:179,1,89.2500017023087,4|0,0:0|0:0,0:0:0:0:
204,246,60444,2,0,P|233:254|267:222,1,68.2499968757631,2|0,0:0|0:0,0:0:0:0:
376,100,60686,2,0,P|346:113|326:157,1,68.2499968757631,0|0,1:0|0:0,0:0:0:0:
453,274,60928,2,0,P|435:237|328:254,1,136.499993751526,2|0,0:0|0:0,0:0:0:0:
351,243,61291,1,0,0:0:0:0:
473,166,61412,2,0,L|454:98,1,68.2499968757631,2|0,0:0|0:0,0:0:0:0:
476,0,61654,2,0,L|480:33,1,34.1249984378815,2|0,1:2|0:0,0:0:0:0:
407,33,61775,2,0,L|403:0,1,34.1249984378815,2|0,0:0|0:0,0:0:0:0:
329,27,61896,6,0,P|313:30|306:43,1,31.5,2|0,0:0|0:0,0:0:0:0:
250,96,62138,6,0,P|202:96|179:66,1,68.2499968757631,4|0,0:0|0:0,0:0:0:0:
97,11,62379,2,0,L|73:98,1,68.2499968757631
347,164,62621,2,0,B|271:145|289:196|206:174,1,136.499993751526,0|0,1:0|0:0,0:0:0:0:
126,138,62984,1,0,0:0:0:0:
50,248,63105,2,0,L|43:180,1,68.2499968757631,2|0,0:0|0:0,0:0:0:0:
214,176,63347,2,0,L|206:261,1,68.2499968757631
93,346,63589,2,0,L|99:312,1,34.1249984378815,2|0,1:2|0:0,0:0:0:0:
282,277,63710,2,0,L|291:310,1,34.1249984378815,2|0,0:0|0:0,0:0:0:0:
232,371,63831,5,2,0:0:0:0:
129,229,63952,1,2,0:0:0:0:
171,305,64073,6,0,P|199:284|212:248,1,68.2499968757631,4|0,0:0|0:0,0:0:0:0:
293,188,64315,2,0,L|361:200,1,68.2499968757631
512,255,64557,2,0,L|444:267,1,68.2499968757631,0|0,1:0|0:0,0:0:0:0:
428,129,64799,2,0,P|435:96|456:68,1,68.2499968757631,2|0,0:0|0:0,0:0:0:0:
378,2,65041,1,2,0:0:0:0:
383,3,65283,1,0,0:0:0:0:
302,39,65525,2,0,L|251:49,1,34.1249984378815,2|0,1:2|0:0,0:0:0:0:
216,108,65646,2,0,L|181:116,1,34.1249984378815,2|0,0:0|0:0,0:0:0:0:
130,174,65767,6,0,L|95:185,1,35.4374989185334,2|0,0:0|0:0,0:0:0:0:
32,319,66008,6,0,P|19:248|25:148,1,157.500006008148,4|0,0:0|0:0,0:0:0:0:
28,154,66371,1,0,0:0:0:0:
117,318,66492,2,0,P|174:321|192:345,1,78.7500030040742,0|0,1:0|0:0,0:0:0:0:
198,346,66734,2,0,P|258:358|289:326,1,78.7500030040742
472,343,66976,2,0,L|395:322,1,78.7500030040742,2|0,0:0|0:0,0:0:0:0:
323,289,67218,1,0,0:0:0:0:
385,239,67339,1,0,0:0:0:0:
343,164,67460,2,0,P|325:154|300:152,1,39.3750015020371,2|0,1:2|0:0,0:0:0:0:
212,221,67581,2,0,P|238:217|259:207,1,39.3750015020371,2|0,0:0|0:0,0:0:0:0:
269,75,67702,5,2,0:0:0:0:
213,142,67823,1,2,0:0:0:0:
213,142,67944,6,0,P|185:116|147:118,1,78.7500030040742,4|0,0:0|0:0,0:0:0:0:
59,130,68186,2,0,P|59:87|96:54,1,78.7500030040742
270,0,68428,2,0,P|278:23|265:81,1,78.7500030040742,0|0,1:0|0:0,0:0:0:0:
166,283,68670,2,0,L|155:192,1,78.7500030040742
146,118,68912,1,2,0:0:0:0:
146,118,69154,1,0,0:0:0:0:
190,357,69396,2,0,P|217:348|233:335,1,39.3750015020371,2|0,1:2|0:0,0:0:0:0:
297,177,69517,2,0,P|282:201|278:221,1,39.3750015020371,2|0,0:0|0:0,0:0:0:0:
322,302,69638,6,0,L|384:310,1,59.0625022530557,2|0,0:0|0:0,0:0:0:0:
393,311,69879,6,0,P|471:253|443:215,3,157.500006008148,4|0|0|0,0:0|0:0|1:0|0:0,0:0:0:0:
480,370,70847,1,2,0:0:0:0:
427,143,71089,1,0,0:0:0:0:
453,222,71210,5,2,0:0:0:0:
452,241,71331,1,2,0:0:0:0:
452,261,71452,1,2,0:0:0:0:
451,281,71573,1,2,0:0:0:0:
451,300,71694,1,2,0:0:0:0:
256,192,71815,12,2,73267,0:0:0:0:
11,14,73750,6,0,P|63:41|75:75,1,94.499997116089,4|0,0:0|0:0,0:0:0:0:
151,11,73992,2,0,P|92:55|76:107,1,115.50000352478,2|0,0:0|0:0,0:0:0:0:
0,92,74234,2,0,B|24:155|92:137|57:112|123:96|169:178,1,173.250005287171,0|0,1:0|0:0,0:0:0:0:
151,153,74476,6,0,P|177:192|96:175,1,173.250005287171
95,208,74718,2,0,P|183:198|268:191,1,157.500006008148,2|0,0:0|0:0,0:0:0:0:
401,163,75081,1,0,0:0:0:0:
386,17,75202,6,0,P|372:-1|366:52,1,115.50000352478,2|0,1:2|0:0,0:0:0:0:
401,163,75444,2,2,P|417:104|390:156,1,173.250005287171
258,56,75686,6,0,P|354:85|402:214,1,196.875,4|0,0:0|0:0,0:0:0:0:
482,212,75928,2,0,P|513:154|514:113,1,105,2|0,0:0|0:0,0:0:0:0:
320,231,76170,2,0,P|319:175|271:128,1,115.50000352478,0|0,1:0|0:0,0:0:0:0:
191,100,76412,2,0,P|158:94|103:168,1,133.875002553463,2|0,0:0|0:0,0:0:0:0:
108,158,76654,2,0,P|137:178|147:265,1,115.50000352478
41,381,76896,2,0,P|68:345|100:336,1,78.7500030040742,2|0,0:0|0:0,0:0:0:0:
190,340,77138,2,0,P|237:322|241:286,1,52.5,2|0,1:2|0:0,0:0:0:0:
143,250,77258,2,0,P|128:234|132:253,1,52.5,2|0,0:0|0:0,0:0:0:0:
246,323,77379,6,0,P|266:317|250:327,1,59.0625022530557,2|0,0:0|0:0,0:0:0:0:
106,340,77621,6,0,P|217:351|326:377,1,196.875,4|0,0:0|0:0,0:0:0:0:
308,375,77863,2,0,P|343:366|342:303,1,78.7500030040742
489,332,78105,2,0,P|420:296|446:227,1,115.50000352478,0|0,1:0|0:0,0:0:0:0:
444,104,78347,2,0,P|489:142|481:258,1,173.250005287171,2|0,0:0|0:0,0:0:0:0:
410,263,78589,2,0,P|348:254|308:249,1,78.7500030040742
190,137,78831,2,0,P|255:157|264:198,1,78.7500030040742,2|0,0:0|0:0,0:0:0:0:
270,174,79073,2,0,L|257:224,1,39.3750015020371,2|0,1:2|0:0,0:0:0:0:
140,314,79194,2,0,L|126:262,1,39.3750015020371,2|0,0:0|0:0,0:0:0:0:
107,194,79315,5,2,0:0:0:0:
230,294,79436,1,2,0:0:0:0:
41,57,79557,6,0,P|97:96|97:213,1,173.250005287171,4|0,0:0|0:0,0:0:0:0:
48,241,79799,2,0,P|33:209|46:151,1,78.7500030040742,2|0,0:0|0:0,0:0:0:0:
158,38,80041,2,0,P|228:53|341:79,1,157.5,0|0,1:0|0:0,0:0:0:0:
488,21,80283,2,0,P|410:32|398:129,1,157.5,2|0,0:0|0:0,0:0:0:0:
453,144,80525,1,0,0:0:0:0:
459,150,80646,2,0,P|462:121|472:108,1,26.25,2|0,0:0|0:0,0:0:0:0:
386,47,80767,2,0,P|389:71|384:102,1,52.5,2|0,0:0|0:0,0:0:0:0:
270,220,81008,2,0,P|309:223|342:202,1,78.7500030040742,2|0,1:2|0:0,0:0:0:0:
477,236,81250,6,0,P|438:250|479:241,1,118.125004506111,2|0,0:0|0:0,0:0:0:0:
496,244,81492,6,0,P|372:227|193:211,1,236.250009012223,4|0,0:0|0:0,0:0:0:0:
252,211,81734,2,0,P|216:228|197:263,1,78.7500030040742,2|0,0:0|0:0,0:0:0:0:
351,389,81976,2,0,P|301:337|239:333,1,105,0|0,1:0|0:0,0:0:0:0:
117,261,82218,2,0,P|96:252|117:265,1,78.75,2|0,0:0|0:0,0:0:0:0:
123,264,82460,1,2,0:0:0:0:
18,89,82702,1,2,0:0:0:0:
24,95,82823,1,0,0:0:0:0:
29,102,82944,2,0,P|72:113|112:182,1,115.50000352478,2|0,1:2|0:0,0:0:0:0:
120,27,83186,5,2,0:0:0:0:
272,251,83428,6,0,P|208:202|236:56,1,236.250009012223,4|0,0:0|0:0,0:0:0:0:
342,101,83670,2,0,P|315:142|271:155,1,78.7500030040742,2|0,0:0|0:0,0:0:0:0:
355,2,83912,2,0,P|412:24|432:99,1,118.125004506111,0|0,1:0|0:0,0:0:0:0:
442,83,84154,2,0,P|442:139|421:167,1,78.7500030040742,2|0,0:0|0:0,0:0:0:0:
473,273,84396,2,0,P|458:221|358:202,1,157.5
376,206,84638,2,0,L|408:347,1,105,2|0,0:0|0:0,0:0:0:0:
447,379,84879,1,2,1:2:0:0:
285,261,85000,1,2,0:0:0:0:
467,354,85121,1,2,0:0:0:0:
342,101,85363,5,2,0:0:0:0:
288,253,85605,1,0,0:0:0:0:
249,77,85847,1,2,0:0:0:0:
209,186,86089,1,0,1:0:0:0:
54,354,86331,6,0,P|117:340|143:282,1,102.374995313645,2|0,0:0|0:0,0:0:0:0:
26,196,86573,2,0,P|52:271|75:282,1,102.374995313645
101,144,86815,1,2,0:0:0:0:
102,166,86936,1,2,0:0:0:0:
102,186,87057,1,2,0:0:0:0:
103,209,87178,1,2,0:0:0:0:
175,246,87299,6,0,B|222:279|270:256|256:241|301:216|357:248,1,188.999994232178,4|0,0:0|0:0,0:0:0:0:
358,256,87662,1,0,0:0:0:0:
211,93,87783,2,0,L|221:187,1,94.499997116089,0|0,1:0|0:0,0:0:0:0:
312,325,88025,2,0,P|358:342|435:290,1,141.749995674133,2|0,0:0|0:0,0:0:0:0:
437,304,88267,1,2,0:0:0:0:
442,311,88508,1,0,0:0:0:0:
297,150,88750,2,0,P|322:164|343:169,1,47.2499985580445,2|0,1:2|0:0,0:0:0:0:
490,124,88871,2,0,P|465:138|444:143,1,47.2499985580445,2|0,0:0|0:0,0:0:0:0:
336,51,88992,6,0,P|354:61|376:66,1,39.375,2|0,0:0|0:0,0:0:0:0:
374,57,89234,6,0,P|389:149|397:264,1,188.999994232178,2|0,3:2|0:0,0:0:0:0:
353,370,89597,1,0,0:0:0:0:
162,252,89718,2,0,P|235:216|252:288,1,168,0|0,1:2|0:0,0:0:0:0:
164,353,90081,1,0,0:0:0:0:
59,298,90202,2,0,L|71:118,1,168,2|0,0:0|0:0,0:0:0:0:
64,122,90565,1,0,0:0:0:0:
170,63,90686,2,0,L|173:118,1,42,2|0,1:2|0:0,0:0:0:0:
262,194,90807,2,0,L|264:152,1,42,2|0,0:0|0:0,0:0:0:0:
270,64,90928,5,2,0:0:0:0:
179,193,91049,1,0,0:0:0:0:
276,56,91170,6,0,P|322:34|343:141,1,188.999994232178,4|0,0:0|0:0,0:0:0:0:
347,127,91533,1,0,0:0:0:0:
459,196,91654,2,0,P|413:197|366:226,1,84,0|0,1:0|0:0,0:0:0:0:
304,305,91896,2,0,L|160:292,1,126,2|0,0:0|0:0,0:0:0:0:
183,301,92138,1,2,0:0:0:0:
188,308,92379,1,0,0:0:0:0:
51,115,92621,2,0,P|41:134|40:155,1,42,2|0,1:2|0:0,0:0:0:0:
109,32,92742,2,0,P|125:46|136:64,1,42,2|0,0:0|0:0,0:0:0:0:
142,162,92863,6,0,L|191:158,1,39.375,2|0,0:0|0:0,0:0:0:0:
186,152,93105,6,0,P|188:216|266:163,1,188.999994232178,2|0,3:2|0:0,0:0:0:0:
233,49,93468,1,0,0:0:0:0:
80,245,93589,2,0,P|126:303|219:336,1,168,0|0,1:0|0:0,0:0:0:0:
315,278,93952,1,0,0:0:0:0:
408,349,94073,2,0,B|414:284|414:284|402:249|402:249|409:183,1,168,2|0,0:0|0:0,0:0:0:0:
415,190,94436,1,0,0:0:0:0:
334,103,94557,2,0,L|292:110,1,42,2|0,1:2|0:0,0:0:0:0:
152,138,94678,2,0,L|187:98,1,42,2|0,0:0|0:0,0:0:0:0:
242,28,94799,5,2,0:0:0:0:
233,192,94920,1,2,0:0:0:0:
418,9,95041,6,0,P|411:108|422:214,1,188.999994232178,4|0,0:0|0:0,0:0:0:0:
425,204,95404,1,0,0:0:0:0:
338,291,95525,2,0,P|297:291|243:281,1,84,0|0,1:0|0:0,0:0:0:0:
213,68,95767,2,0,P|234:126|199:189,1,126,2|0,0:0|0:0,0:0:0:0:
200,184,96008,1,2,0:0:0:0:
192,187,96250,1,0,0:0:0:0:
43,344,96492,2,0,P|64:337|92:334,1,42,0|0,1:2|0:0,0:0:0:0:
174,274,96613,2,0,P|153:267|136:256,1,42,2|0,0:0|0:0,0:0:0:0:
56,156,96734,6,0,P|56:136|54:116,1,39.375,2|0,0:0|0:0,0:0:0:0:
139,32,96976,6,0,B|160:125|160:125|256:79,1,188.999994232178,2|0,3:2|0:0,0:0:0:0:
362,24,97339,1,0,0:0:0:0:
322,209,97460,2,0,B|314:248|384:258|407:177|365:127,1,168,0|0,1:0|0:0,0:0:0:0:
217,190,97823,1,0,0:0:0:0:
80,287,97944,2,0,P|153:287|267:301,1,168,2|0,0:0|0:0,0:0:0:0:
255,305,98307,1,0,0:0:0:0:
78,192,98428,2,0,L|134:207,1,42,2|0,1:2|0:0,0:0:0:0:
212,98,98549,2,0,L|172:109,1,42,2|0,0:0|0:0,0:0:0:0:
61,74,98670,1,2,0:0:0:0:
151,0,98791,1,2,0:0:0:0:
221,187,98912,6,0,P|313:186|415:160,1,188.999994232178,4|0,0:0|0:0,0:0:0:0:
415,155,99275,1,0,0:0:0:0:
262,313,99396,2,0,P|316:319|361:318,1,84,0|0,1:0|0:0,0:0:0:0:
139,284,99638,2,0,P|84:298|105:228,1,126,2|0,0:0|0:0,0:0:0:0:
83,239,99879,1,2,0:0:0:0:
92,237,100121,1,0,0:0:0:0:
334,175,100363,2,0,L|267:166,1,42,2|0,1:2|0:0,0:0:0:0:
92,138,100484,2,0,L|134:144,1,42,2|0,0:0|0:0,0:0:0:0:
213,155,100605,5,2,0:0:0:0:
256,192,100726,12,2,102541,0:0:0:0:
