osu file format v14

[General]
AudioFilename: audio.mp3
AudioLeadIn: 0
PreviewTime: 41074
Countdown: 0
SampleSet: Soft
StackLeniency: 0.2
Mode: 0
LetterboxInBreaks: 0
WidescreenStoryboard: 1

[Editor]
Bookmarks: 89145,144003
DistanceSpacing: 0.7
BeatDivisor: 4
GridSize: 4
TimelineZoom: 2

[Metadata]
Title:Manemane Psychotropic
TitleUnicode:マネマネサイコトロピック
Artist:MARETU feat. Hatsune Miku
ArtistUnicode:MARETU feat. 初音ミク
Creator:Nevo
Version:aika's Extreme
Source:
Tags:kairiki bear かいりきベア vocaloid remix japanese electronic rock airincat Shirahane Suou Hanakumo Rin xIced door weapon dog food lean monster Jonarwhal ryuusei aika fedora- limetwist hooni
BeatmapID:3120478
BeatmapSetID:1352410

[Difficulty]
HPDrainRate:5.5
CircleSize:4
OverallDifficulty:9
ApproachRate:9.5
SliderMultiplier:1.8
SliderTickRate:1

[Events]
//Background and Video events
0,0,"78728096_p0.jpg",0,0
//Break Periods
//Storyboard Layer 0 (Background)
//Storyboard Layer 1 (Fail)
//Storyboard Layer 2 (Pass)
//Storyboard Layer 3 (Foreground)
//Storyboard Layer 4 (Overlay)
//Storyboard Sound Samples

[TimingPoints]
3,285.714285714286,4,2,2,40,1,0
3,-200,4,2,2,40,0,0
4003,-100,4,2,2,40,0,0
4574,-100,4,2,2,80,0,0
13717,-133.333333333333,4,2,2,60,0,0
21574,-120.481927710843,4,2,2,60,0,0
22860,-111.111111111111,4,2,2,60,0,0
32003,-120.481927710843,4,2,2,70,0,0
36574,-111.111111111111,4,2,2,70,0,0
39860,-100,4,2,2,80,0,0
41145,-90.9090909090909,4,2,2,90,0,1
60574,-90.9090909090909,4,2,2,90,0,0
61431,-200,4,2,2,90,0,0
61717,-111.111111111111,4,2,2,70,0,0
65145,-90.9090909090909,4,2,2,70,0,0
66288,-120.481927710843,4,2,2,70,0,0
75431,-111.111111111111,4,2,2,70,0,0
84574,-120.481927710843,4,2,2,70,0,0
89145,-111.111111111111,4,2,2,70,0,0
92431,-100,4,2,2,70,0,0
93717,-120.481927710843,4,2,2,90,0,0
97145,-66.6666666666667,4,2,2,90,0,0
97574,-55.7275541795672,4,2,2,90,0,0
98003,-100,4,2,2,90,0,0
98288,-120.481927710843,4,2,2,90,0,0
100003,-100,4,2,2,90,0,0
100717,-55.5555555555556,4,2,2,90,0,0
101003,-100,4,2,2,90,0,0
101145,-55.5555555555556,4,2,2,90,0,0
101431,-100,4,2,2,90,0,0
101573,-55.5555555555556,4,2,2,90,0,0
101860,-66.6666666666667,4,2,2,90,0,0
102288,-100,4,2,2,90,0,0
102860,-90.9090909090909,4,2,2,90,0,1
104860,-75.187969924812,4,2,2,90,0,1
105145,-90.9090909090909,4,2,2,90,0,1
106288,-75.187969924812,4,2,2,90,0,1
107003,-66.6666666666667,4,2,2,90,0,1
107860,-90.9090909090909,4,2,2,90,0,1
108574,-55.5555555555556,4,2,2,90,0,1
108860,-66.6666666666667,4,2,2,90,0,1
109574,-100,4,2,2,90,0,1
109717,-100,4,2,2,90,0,0
109859,-55.5555555555556,4,2,2,90,0,0
110145,-100,4,2,2,90,0,0
110287,-55.5555555555556,4,2,2,90,0,0
110574,-100,4,2,2,90,0,0
110716,-55.5555555555556,4,2,2,90,0,0
111003,-100,4,2,2,90,0,0
111145,-66.6666666666667,4,2,2,90,0,0
111431,-90.9090909090909,4,2,2,90,0,0
111574,-66.6666666666667,4,2,2,90,0,0
112003,-90.9090909090909,4,2,2,90,0,0
113145,-45.4545454545455,4,2,2,90,0,0
114288,-250,4,2,2,80,0,0
117717,-83.3333333333333,4,2,2,80,0,0
126860,-66.6666666666667,4,2,2,80,0,0
127145,-100,4,2,2,80,0,0
127288,-66.6666666666667,4,2,2,80,0,0
128003,-83.3333333333333,4,2,2,80,0,0
128717,-166.666666666667,4,2,2,80,0,0
130288,-100,4,2,2,80,0,0
130431,-90.9090909090909,4,2,2,80,0,0
130574,-83.3333333333333,4,2,2,80,0,0
130717,-76.9230769230769,4,2,2,80,0,0
130860,-66.6666666666667,4,2,2,80,0,0
131003,-62.5,4,2,2,80,0,0
131145,-58.8235294117647,4,2,2,80,0,0
131288,-55.5555555555556,4,2,2,80,0,0
131431,-50,4,2,2,80,0,0
132145,-100,4,2,2,80,0,0
132288,-50,4,2,2,80,0,0
132574,-66.6666666666635,4,2,2,80,0,0
132860,-83.3333333333285,4,2,2,80,0,0
133145,-66.6666666666667,4,2,2,80,0,0
133574,-166.666666666667,4,2,2,80,0,0
134288,-66.6666666666667,4,2,2,80,0,0
134574,-83.3333333333333,4,2,2,80,0,0
135860,-66.6666666666667,4,2,2,80,0,0
136717,-111.111111111111,4,2,2,80,0,0
136860,-66.6666666666667,4,2,2,80,0,0
137145,-83.3333333333333,4,2,2,80,0,0
140860,-66.6666666666667,4,2,2,80,0,0
141717,-333.333333333333,4,2,2,80,0,0
141788,-333.333333333333,4,2,2,30,0,0
148574,-333.333333333333,4,2,2,60,0,0
149574,-111.111111111111,4,2,2,60,0,0
149860,-111.111111111111,4,2,2,40,0,0
149931,-111.111111111111,4,2,2,41,0,0
150003,-111.111111111111,4,2,2,42,0,0
150074,-111.111111111111,4,2,2,43,0,0
150145,-111.111111111111,4,2,2,44,0,0
150217,-111.111111111111,4,2,2,45,0,0
150288,-111.111111111111,4,2,2,46,0,0
150360,-111.111111111111,4,2,2,48,0,0
150431,-111.111111111111,4,2,2,50,0,0
150503,-111.111111111111,4,2,2,52,0,0
150574,-111.111111111111,4,2,2,54,0,0
150645,-111.111111111111,4,2,2,36,0,0
150717,-111.111111111111,4,2,2,58,0,0
150788,-111.111111111111,4,2,2,60,0,0
150860,-83.3333333333333,4,2,2,90,0,1
152288,-66.6666666666667,4,2,2,90,0,1
152574,-111.111111111111,4,2,2,90,0,1
152860,-66.6666666666667,4,2,2,90,0,1
153431,-83.3333333333333,4,2,2,90,0,1
153574,-66.6666666666667,4,2,2,90,0,1
153860,-83.3333333333333,4,2,2,90,0,1
154288,-55.5555555555556,4,2,2,90,0,1
154717,-66.6666666666667,4,2,2,90,0,1
155431,-55.555555555557,4,2,2,90,0,1
155860,-66.6666666666689,4,2,2,90,0,1
157717,-37.4531835205993,4,2,2,90,0,1
157860,-50,4,2,2,90,0,1
158717,-37.4531835205993,4,2,2,90,0,1
159145,-50,4,2,2,90,0,1
159431,-55.5555555555556,4,2,2,90,0,1
159717,-111.111111111111,4,2,2,90,0,1
160003,-66.6666666666666,4,2,2,90,0,1
160431,-74.0740740740741,4,2,2,90,0,1
160717,-66.6666666666666,4,2,2,90,0,1
161003,-83.3333333333333,4,2,2,90,0,1
161574,-111.111111111111,4,2,2,90,0,1
161717,-95.2380952380952,4,2,2,90,0,1
162288,-66.6666666666667,4,2,2,90,0,1
163145,-55.5555555555556,4,2,2,90,0,1
163860,-55.5555555555556,4,2,2,90,0,1
164145,-83.3333333333333,4,2,2,90,0,1
164574,-64.5161290322581,4,2,2,90,0,1
165288,-42.5531914893617,4,2,2,90,0,1
165574,-66.6666666666667,4,2,2,90,0,1
166145,-83.3333333333333,4,2,2,90,0,1
166288,-55.5555555555556,4,2,2,90,0,1
166574,-83.3333333333333,4,2,2,90,0,1
166860,-50,4,2,2,90,0,1
167003,-50.0000000000018,4,2,2,90,0,1
167288,-37.5000000000196,4,2,2,90,0,1
167431,-50.0000000000018,4,2,2,90,0,1
168145,-37.5000000000043,4,2,2,90,0,1
168288,-50,4,2,2,90,0,1
168574,-55.555555555566,4,2,2,90,0,1
168860,-111.111111111111,4,2,2,90,0,1
169145,-64.5161290322581,4,2,2,90,0,1
169431,-51.2820512820513,4,2,2,90,0,1
169574,-54.054054054054,4,2,2,90,0,1
169860,-55.5555555555556,4,2,2,90,0,1
171288,-83.3333333333333,4,2,2,90,0,1
171431,-64.5161290322581,4,2,2,90,0,1
172288,-48.3091787439614,4,2,2,90,0,1
172574,-55.5555555555556,4,2,2,90,0,1
173145,-83.3333333333333,4,2,2,90,0,1
174860,-83.3333333333333,4,2,2,90,0,0
175574,-55.5555555555556,4,2,2,90,0,0
176003,-90.9090909090909,4,2,2,80,0,0
194288,-90.9090909090909,4,2,2,40,0,0
196574,-90.9090909090909,4,2,2,30,0,0
198860,-90.9090909090909,4,2,2,20,0,0
201145,-90.9090909090909,4,2,2,10,0,0
203431,-90.9090909090909,4,2,2,5,0,0

[Colours]
Combo1 : 192,192,192
Combo2 : 255,155,227
Combo3 : 175,167,254

[HitObjects]
444,44,3,5,10,0:2:0:0:
490,110,145,1,2,0:2:0:0:
453,180,288,1,2,0:2:0:0:
381,176,431,1,2,0:2:0:0:
359,183,503,1,2,0:2:0:0:
338,191,574,1,10,0:2:0:0:
269,218,717,1,2,0:2:0:0:
200,245,860,1,2,0:2:0:0:
131,272,1003,1,2,0:2:0:0:
62,299,1145,1,10,0:2:0:0:
134,284,1288,1,2,0:2:0:0:
207,269,1431,1,2,0:2:0:0:
279,253,1574,2,0,P|303:264|333:271,1,45,2|8,0:2|0:2,0:0:0:0:
200,245,1860,1,2,0:2:0:0:
200,245,2003,2,0,P|208:226|214:195,1,45,2|2,0:2|0:2,0:0:0:0:
196,131,2288,5,10,0:2:0:0:
122,139,2431,1,2,0:2:0:0:
48,147,2574,1,2,0:2:0:0:
125,133,2717,1,2,0:2:0:0:
125,133,2788,1,2,0:2:0:0:
125,133,2860,1,10,0:2:0:0:
191,108,3003,1,2,0:2:0:0:
116,100,3145,1,2,0:2:0:0:
42,92,3288,1,2,0:2:0:0:
42,92,3431,2,0,P|30:112|10:136,1,45,8|2,0:2|0:2,0:0:0:0:
123,13,3717,2,0,P|143:25|167:44,1,45,2|2,0:2|0:2,0:0:0:0:
266,116,4003,5,8,0:2:0:0:
236,48,4145,2,0,P|325:58|351:205,1,225,6|0,3:2|0:0,0:0:0:0:
351,163,4574,2,0,B|307:242|307:242|347:338,1,180,6|10,3:2|0:2,0:0:0:0:
415,310,5003,1,2,0:2:0:0:
237,373,5145,2,0,B|259:333|259:333|239:285,2,90,0|2|8,3:2|3:2|0:2,0:0:0:0:
43,238,5574,6,0,L|240:215,1,180,6|2,0:2|3:2,0:0:0:0:
43,238,6003,1,10,0:2:0:0:
43,238,6145,2,0,L|57:142,1,90,2|0,0:2|3:2,0:0:0:0:
147,59,6431,1,2,3:2:0:0:
233,141,6574,2,0,B|192:161|192:161|143:153,1,90,8|2,0:2|0:2,0:0:0:0:
69,74,6860,6,0,B|124:60|159:123|252:146,1,180,2|10,3:2|0:2,0:0:0:0:
398,114,7288,1,2,3:2:0:0:
381,202,7431,2,0,P|387:157|399:114,1,90,0|2,0:0|3:2,0:0:0:0:
242,149,7717,1,8,0:2:0:0:
303,93,7860,2,0,P|327:179|340:268,1,180,6|2,3:2|3:2,0:0:0:0:
95,368,8288,5,8,0:2:0:0:
36,312,8431,1,2,3:2:0:0:
175,366,8574,1,8,0:2:0:0:
342,348,8717,2,0,B|256:326|256:326|175:366,1,180,6|2,3:2|3:2,0:0:0:0:
74,131,9145,6,0,B|161:109|161:109|242:149,1,180,6|10,3:2|0:2,0:0:0:0:
350,29,9574,1,2,0:2:0:0:
447,20,9717,2,0,B|344:47,2,90,0|2|8,3:2|3:2|0:2,0:0:0:0:
135,66,10145,2,0,P|102:98|66:141,1,90,6|0,0:2|0:0,0:0:0:0:
78,13,10431,1,2,3:2:0:0:
208,116,10574,1,10,0:2:0:0:
100,240,10717,2,0,B|95:139|136:171|135:54,1,180,2|2,0:2|3:2,0:0:0:0:
271,12,11145,2,0,B|268:62|288:46|288:104,1,90,8|2,0:2|0:2,0:0:0:0:
33,277,11431,6,0,L|224:253,1,180,2|10,3:2|0:2,0:0:0:0:
467,121,11860,2,0,L|276:97,1,180,2|10,3:2|0:2,0:0:0:0:
228,142,12288,1,0,0:2:0:0:
451,289,12431,2,0,B|490:207|490:207|466:118,1,180,6|2,3:2|3:2,0:0:0:0:
422,356,12860,5,8,0:2:0:0:
271,210,13003,1,2,3:2:0:0:
107,298,13145,1,0,3:2:0:0:
102,320,13217,1,0,3:2:0:0:
98,342,13288,1,14,0:2:0:0:
329,260,13431,5,10,0:2:0:0:
291,38,13574,5,10,0:2:0:0:
69,76,13717,5,6,3:2:0:0:
69,76,14003,1,2,3:2:0:0:
138,41,14288,2,0,L|224:60,1,67.5000025749208,2|0,3:2|0:0,0:0:0:0:
144,54,14574,2,0,L|230:73,1,67.5000025749208,2|0,3:2|0:0,0:0:0:0:
129,130,14860,2,0,L|193:189,2,67.5000025749208,2|0|2,3:2|0:0|3:2,0:0:0:0:
126,144,15288,2,0,L|231:239,1,135.000005149842,2|0,0:2|0:0,0:0:0:0:
257,159,15717,1,2,3:2:0:0:
128,259,16003,6,0,P|103:275|54:292,1,67.5000025749208,2|0,3:2|0:0,0:0:0:0:
129,276,16288,2,0,P|104:292|55:309,1,67.5000025749208,2|2,3:2|0:2,0:0:0:0:
136,369,16574,2,0,B|178:360|206:303|263:304,1,135.000005149842,2|2,3:2|3:2,0:0:0:0:
450,219,17145,1,2,3:2:0:0:
450,219,17288,2,0,P|448:257|437:299,1,67.5000025749208,2|2,0:2|3:2,0:0:0:0:
492,157,17574,1,12,0:2:0:0:
492,157,17645,2,0,P|425:200|342:233,1,168.750006437302,0|2,0:0|3:2,0:0:0:0:
414,355,18145,1,12,0:2:0:0:
342,232,18288,6,0,L|367:82,1,135.000005149842,6|2,3:2|3:2,0:0:0:0:
329,309,18717,1,0,0:0:0:0:
278,150,18860,2,0,B|244:145|244:145|203:167,1,67.5000025749208,2|2,3:2|0:2,0:0:0:0:
214,160,19074,1,2,0:2:0:0:
214,160,19145,1,2,3:2:0:0:
295,78,19288,1,2,0:2:0:0:
312,6,19431,6,0,B|253:37|253:37|185:27,1,135.000005149842,2|2,3:2|3:2,0:0:0:0:
101,103,19860,2,0,L|92:183,1,67.5000025749208,0|2,0:0|3:2,0:0:0:0:
80,280,20145,1,2,0:2:0:0:
169,229,20288,1,2,3:2:0:0:
101,103,20431,1,2,0:2:0:0:
312,6,20574,1,6,3:2:0:0:
112,29,21431,5,12,0:2:0:0:
76,158,21574,2,0,P|103:87|190:93,1,149.40000216568,6|12,3:2|0:2,0:0:0:0:
11,197,22003,2,0,B|21:233|21:233|3:297,1,74.70000108284,6|0,3:2|3:2,0:0:0:0:
44,338,22288,1,10,0:2:0:0:
124,251,22431,1,8,0:2:0:0:
127,232,22503,1,8,0:2:0:0:
131,214,22574,1,8,0:2:0:0:
239,276,22717,1,8,0:2:0:0:
319,189,22860,6,0,P|333:150|337:84,1,80.9999975280763,6|0,3:2|0:0,0:0:0:0:
272,346,23145,2,0,B|307:326|307:326|356:334,1,80.9999975280763,8|2,0:2|0:2,0:0:0:0:
416,366,23431,1,2,3:2:0:0:
364,255,23574,1,0,3:2:0:0:
416,143,23717,2,0,P|439:196|451:277,1,121.499996292114,8|0,0:2|0:0,0:0:0:0:
441,273,24003,5,2,3:2:0:0:
482,189,24145,1,2,0:2:0:0:
416,143,24288,1,8,0:2:0:0:
457,59,24431,2,0,B|405:38|365:101|299:113,1,161.999995056153,2|0,3:2|3:2,0:0:0:0:
253,168,24860,2,0,B|233:203|233:203|249:243,1,80.9999975280763,8|0,0:2|0:0,0:0:0:0:
193,117,25145,5,2,3:2:0:0:
312,33,25288,1,2,0:2:0:0:
193,117,25431,1,8,0:2:0:0:
98,6,25574,1,2,0:2:0:0:
123,77,25717,2,0,B|116:147|116:147|108:162|108:162|100:242,1,161.999995056153,2|8,0:2|0:2,0:0:0:0:
189,40,26145,1,2,0:2:0:0:
18,32,26288,6,0,P|35:71|46:119,1,80.9999975280763,2|2,3:2|0:2,0:0:0:0:
98,6,26574,1,8,0:2:0:0:
193,117,26717,2,0,B|250:119|251:69|330:76,1,121.499996292114,6|0,3:2|0:0,0:0:0:0:
319,87,27003,1,0,3:2:0:0:
193,117,27145,6,0,L|180:223,1,80.9999975280763,8|0,0:2|0:0,0:0:0:0:
177,208,27360,1,0,0:0:0:0:
171,220,27431,2,0,L|158:326,1,80.9999975280763,2|0,3:2|0:0,0:0:0:0:
400,57,27717,2,0,L|387:163,1,80.9999975280763,8|0,0:2|0:0,0:0:0:0:
240,309,28003,2,0,P|276:289|332:284,1,80.9999975280763,2|0,3:2|3:2,0:0:0:0:
331,268,28217,1,0,0:0:0:0:
331,268,28288,2,0,P|366:289|398:335,1,80.9999975280763,8|2,0:2|3:2,0:0:0:0:
473,106,28574,6,0,P|492:141|497:197,1,80.9999975280763,2|2,3:2|0:2,0:0:0:0:
465,333,28860,2,0,P|479:295|479:255,1,80.9999975280763,8|2,0:2|0:2,0:0:0:0:
473,106,29145,1,2,3:2:0:0:
426,202,29288,1,0,3:2:0:0:
354,166,29431,1,8,0:2:0:0:
307,262,29574,1,2,0:2:0:0:
144,289,29717,6,0,B|220:257|220:257|296:280,1,161.999995056153,2|8,3:2|0:2,0:0:0:0:
54,89,30145,1,2,0:2:0:0:
54,89,30431,2,0,L|42:195,1,80.9999975280763,2|8,3:2|0:2,0:0:0:0:
6,231,30717,1,2,3:2:0:0:
139,365,30860,5,6,3:2:0:0:
75,260,31003,1,8,0:2:0:0:
193,226,31145,1,8,0:2:0:0:
129,121,31288,1,0,0:2:0:0:
126,141,31360,1,0,3:2:0:0:
124,161,31431,1,2,3:2:0:0:
208,111,31574,5,0,3:2:0:0:
297,210,31717,5,2,3:2:0:0:
392,87,31860,5,2,3:2:0:0:
470,259,32003,6,0,B|424:245|387:308|327:317,1,149.40000216568,6|0,3:2|3:2,0:0:0:0:
387,379,32431,1,0,3:2:0:0:
255,275,32574,2,0,L|271:374,1,74.70000108284,8|0,0:2|0:0,0:0:0:0:
266,348,32860,1,2,0:2:0:0:
191,220,33003,1,2,0:2:0:0:
155,379,33145,6,0,L|178:231,1,149.40000216568,6|0,3:2|3:2,0:0:0:0:
95,141,33574,1,2,3:2:0:0:
95,141,33717,2,0,B|114:173|114:173|105:221,1,74.70000108284,8|0,0:2|0:0,0:0:0:0:
127,61,34003,2,0,P|67:95|-3:117,1,112.05000162426,2|0,0:2|0:0,0:0:0:0:
19,125,34288,6,0,B|26:207|-6:190|5:283,1,149.40000216568,2|2,3:2|0:2,0:0:0:0:
73,302,34717,1,2,0:2:0:0:
222,310,34860,2,0,B|149:294|149:294|78:321,1,149.40000216568,8|2,0:2|0:2,0:0:0:0:
222,310,35288,1,0,0:0:0:0:
222,310,35431,2,0,L|243:216,1,74.70000108284,2|0,0:2|0:0,0:0:0:0:
347,71,35717,1,2,3:2:0:0:
287,118,35860,2,0,L|323:282,1,149.40000216568,2|0,0:2|0:0,0:0:0:0:
489,370,36288,1,6,3:2:0:0:
489,370,36574,6,0,P|476:335|469:286,1,80.9999975280763,6|2,3:2|0:2,0:0:0:0:
421,105,36860,2,0,P|414:144|401:183,1,80.9999975280763,2|2,0:2|0:2,0:0:0:0:
338,335,37145,1,10,0:2:0:0:
467,222,37288,1,2,0:2:0:0:
320,162,37431,2,0,P|327:201|340:240,1,80.9999975280763,2|0,0:2|0:0,0:0:0:0:
495,77,37717,5,2,0:2:0:0:
495,77,37860,2,0,B|461:75|445:104|419:105,1,80.9999975280763,2|2,0:2|3:2,0:0:0:0:
440,0,38145,1,2,0:2:0:0:
440,0,38217,1,0,0:0:0:0:
440,0,38288,2,0,B|404:20|404:20|360:14,1,80.9999975280763,8|0,0:2|0:0,0:0:0:0:
174,62,38574,2,0,B|228:32|228:32|287:40,1,121.499996292114,2|0,0:2|0:0,0:0:0:0:
299,52,38860,5,2,0:2:0:0:
299,52,39717,5,8,0:2:0:0:
336,222,39860,2,0,P|308:140|224:125,1,180,6|2,3:2|3:2,0:0:0:0:
319,301,40288,2,0,L|423:284,1,90,2|2,3:2|3:2,0:0:0:0:
425,294,40503,1,2,3:2:0:0:
442,301,40574,1,8,0:2:0:0:
336,222,40717,6,0,L|325:271,1,45,2|2,3:2|3:2,0:0:0:0:
244,384,40860,5,2,3:2:0:0:
57,245,41003,5,10,0:2:0:0:
90,19,41145,6,0,B|181:59|181:59|284:34,1,198.000006042481,6|10,3:2|0:2,0:0:0:0:
445,142,41574,2,0,B|399:162|399:162|348:149,1,99.0000030212403,2|0,3:2|0:0,0:0:0:0:
445,142,41860,1,2,3:2:0:0:
268,28,42003,2,0,L|247:170,1,99.0000030212403,8|2,0:2|3:2,0:0:0:0:
87,327,42288,6,0,P|54:293|57:245,1,99.0000030212403,2|2,3:2|3:2,0:0:0:0:
253,125,42574,2,0,P|286:159|283:207,1,99.0000030212403,10|0,0:2|0:0,0:0:0:0:
87,327,42860,1,2,3:2:0:0:
247,275,43003,1,0,3:2:0:0:
388,366,43145,1,10,0:2:0:0:
388,366,43431,6,0,L|422:167,1,198.000006042481,6|10,3:2|0:2,0:0:0:0:
124,18,43860,2,0,L|90:217,1,198.000006042481,2|2,3:2|3:2,0:0:0:0:
22,176,44288,1,8,0:2:0:0:
351,152,44431,1,2,3:2:0:0:
262,194,44574,6,0,B|217:215|217:215|167:205,1,99.0000030212403,2|2,3:2|0:2,0:0:0:0:
423,119,44860,1,10,0:2:0:0:
96,238,45003,1,2,3:2:0:0:
493,359,45288,2,0,B|472:314|472:314|482:264,1,99.0000030212403,6|0,3:2|0:0,0:0:0:0:
401,290,45574,1,6,3:2:0:0:
298,128,45717,6,0,B|340:218|340:218|320:318,1,198.000006042481,6|10,3:2|0:2,0:0:0:0:
22,384,46145,2,0,B|-20:294|-20:294|0:194,1,198.000006042481,2|2,3:2|3:2,0:0:0:0:
320,314,46574,1,8,0:2:0:0:
160,255,46717,1,2,3:2:0:0:
22,384,46860,5,2,3:2:0:0:
209,361,47003,1,2,3:2:0:0:
187,174,47145,1,10,0:2:0:0:
0,197,47288,1,0,3:2:0:0:
229,286,47431,2,0,B|306:224|306:224|408:242,1,198.000006042481,2|8,3:2|0:2,0:0:0:0:
403,241,47860,1,0,0:0:0:0:
264,147,48003,5,10,0:2:0:0:
35,92,48145,2,0,L|161:122,1,99.0000030212403,6|0,3:2|0:0,0:0:0:0:
131,115,48431,5,8,0:2:0:0:
382,44,48574,2,0,L|256:74,1,99.0000030212403,6|0,3:2|0:0,0:0:0:0:
285,67,48860,5,8,0:2:0:0:
512,186,49003,2,0,L|493:418,1,198.000006042481,6|2,3:2|3:2,0:0:0:0:
446,155,49431,5,10,0:2:0:0:
363,375,49574,1,0,3:2:0:0:
394,368,49645,1,0,3:2:0:0:
425,361,49717,1,10,0:2:0:0:
380,124,49860,5,10,0:2:0:0:
154,228,50003,5,10,0:2:0:0:
0,0,50145,5,10,0:2:0:0:
98,283,50288,6,0,B|173:258|199:329|292:343,1,198.000006042481,6|10,3:2|0:2,0:0:0:0:
121,112,50717,2,0,P|85:149|40:178,1,99.0000030212403,2|0,3:2|0:0,0:0:0:0:
121,112,51003,1,2,3:2:0:0:
30,249,51145,1,8,0:2:0:0:
121,357,51288,1,2,3:2:0:0:
212,220,51431,5,2,3:2:0:0:
303,328,51574,1,2,3:2:0:0:
303,83,51717,2,0,B|329:152|329:152|296:227,1,148.50000453186,10|0,0:2|0:0,0:0:0:0:
292,239,52003,1,2,3:2:0:0:
242,35,52145,1,0,3:2:0:0:
443,93,52288,1,10,0:2:0:0:
69,291,52574,6,0,P|108:260|143:205,1,99.0000030212403,6|2,3:2|0:0,0:0:0:0:
127,144,52860,1,10,0:2:0:0:
179,290,53003,2,0,B|240:274|261:353|367:367,1,198.000006042481,2|2,3:2|3:2,0:0:0:0:
356,365,53431,1,8,0:2:0:0:
273,238,53574,1,2,3:2:0:0:
98,367,53717,5,2,3:2:0:0:
8,242,53860,1,2,0:2:0:0:
127,144,54003,1,10,0:2:0:0:
37,19,54145,1,2,3:2:0:0:
37,19,54431,2,0,P|148:75|137:141,1,198.000006042481,6|6,3:2|3:2,0:0:0:0:
209,175,54860,6,0,B|301:213|301:213|410:194,1,198.000006042481,6|10,3:2|0:2,0:0:0:0:
499,24,55288,2,0,B|453:43|453:43|398:33,1,99.0000030212403,2|0,3:2|0:0,0:0:0:0:
461,279,55574,2,0,L|478:168,1,99.0000030212403,2|8,3:2|0:2,0:0:0:0:
461,279,55860,1,2,3:2:0:0:
328,73,56003,5,2,3:2:0:0:
488,103,56145,1,2,3:2:0:0:
328,73,56288,1,10,0:2:0:0:
488,103,56431,1,0,3:2:0:0:
278,0,56574,2,0,P|203:23|185:107,1,148.50000453186,2|0,3:2|0:0,0:0:0:0:
164,76,56860,2,0,B|180:123|180:123|158:177,1,99.0000030212403,8|0,0:2|0:0,0:0:0:0:
86,351,57145,5,10,0:2:0:0:
311,245,57288,2,0,L|198:222,1,99.0000030212403,6|0,3:2|0:0,0:0:0:0:
214,225,57574,5,8,0:2:0:0:
0,98,57717,2,0,L|97:117,1,99.0000030212403,6|0,3:2|0:0,0:0:0:0:
97,117,58003,5,8,0:2:0:0:
224,356,58145,2,0,L|152:141,1,198.000006042481,6|2,3:2|3:2,0:0:0:0:
293,322,58574,5,10,0:2:0:0:
112,276,58717,1,0,3:2:0:0:
79,269,58788,1,0,3:2:0:0:
48,263,58860,1,10,0:2:0:0:
224,356,59003,5,10,0:2:0:0:
328,161,59145,5,10,0:2:0:0:
120,0,59288,5,10,0:2:0:0:
277,264,59431,6,0,P|318:239|390:239,1,99.0000030212403,6|0,3:2|3:2,0:0:0:0:
368,234,59645,1,0,3:2:0:0:
368,234,59717,1,14,0:2:0:0:
283,39,59860,5,2,3:2:0:0:
278,68,59931,1,0,3:2:0:0:
273,97,60003,1,12,0:2:0:0:
105,320,60145,5,0,3:2:0:0:
112,276,60217,1,0,3:2:0:0:
119,233,60288,1,14,0:2:0:0:
472,109,60431,5,0,3:2:0:0:
460,180,60503,1,0,3:2:0:0:
448,253,60574,1,14,0:2:0:0:
448,253,61431,6,0,B|405:254|421:267|371:267,1,67.5,2|0,0:0|0:0,0:0:0:0:
368,256,61717,6,0,L|276:296,2,80.9999975280763,2|0|2,3:2|0:0|3:0,0:0:0:0:
320,188,62074,1,2,3:0:0:0:
301,196,62145,1,2,3:0:0:0:
282,204,62217,1,2,3:0:0:0:
264,212,62288,2,0,L|172:252,2,80.9999975280763,8|0|2,0:2|3:2|3:2,0:0:0:0:
293,288,62717,6,0,L|201:328,1,80.9999975280763,0|2,3:2|0:0,0:0:0:0:
189,244,63003,2,0,L|97:284,1,80.9999975280763,0|6,3:2|3:0,0:0:0:0:
95,284,63217,1,2,3:0:0:0:
76,292,63288,1,2,3:0:0:0:
57,300,63360,1,2,3:0:0:0:
38,308,63431,1,8,0:2:0:0:
82,194,63574,5,0,3:2:0:0:
117,102,63717,5,2,3:2:0:0:
145,28,63860,6,0,L|210:76,2,80.9999975280763,2|2|0,3:2|3:2|0:0,0:0:0:0:
275,124,64288,5,2,3:0:0:0:
291,136,64360,1,2,3:0:0:0:
307,148,64431,1,2,3:0:0:0:
323,160,64503,1,2,3:0:0:0:
340,172,64574,1,8,0:2:0:0:
296,286,64717,1,8,0:2:0:0:
410,330,64860,1,2,3:2:0:0:
454,216,65003,1,2,3:2:0:0:
162,295,65145,6,0,B|232:275|232:275|300:306,1,148.50000453186,6|0,3:2|0:0,0:0:0:0:
300,306,65431,1,8,0:2:0:0:
204,155,65574,2,0,B|134:135|134:135|66:166,1,148.50000453186,6|0,3:2|0:0,0:0:0:0:
65,166,65860,1,8,0:2:0:0:
264,204,66003,2,0,B|334:184|334:184|402:215,1,148.50000453186,6|0,3:2|0:0,0:0:0:0:
412,232,66288,5,6,3:2:0:0:
440,152,66574,5,2,3:2:0:0:
403,75,66860,5,2,0:2:0:0:
322,46,67003,1,2,3:2:0:0:
244,82,67145,1,10,0:2:0:0:
256,192,67288,5,2,0:0:0:0:
268,302,67431,5,2,3:2:0:0:
190,338,67574,1,2,0:2:0:0:
109,309,67717,1,2,3:2:0:0:
72,232,68003,5,2,0:2:0:0:
100,152,68288,5,10,0:2:0:0:
178,116,68574,5,6,3:2:0:0:
258,145,68860,6,0,L|349:151,1,74.70000108284,2|8,3:2|0:2,0:0:0:0:
332,149,69145,1,2,0:2:0:0:
294,222,69288,2,0,L|354:290,1,74.70000108284,2|10,3:2|0:2,0:0:0:0:
343,278,69574,1,2,0:0:0:0:
215,246,69717,1,2,3:2:0:0:
215,246,69860,2,0,L|208:337,1,74.70000108284,2|2,0:2|3:2,0:0:0:0:
142,207,70145,1,8,0:2:0:0:
86,256,70288,2,0,L|142:207,2,74.70000108284,0|2|10,0:2|3:2|0:2,0:0:0:0:
427,129,70860,6,0,L|370:177,2,74.70000108284,6|2|2,3:2|0:0|3:2,0:0:0:0:
370,177,71288,1,8,0:2:0:0:
338,25,71431,5,2,0:2:0:0:
340,108,71574,1,2,3:2:0:0:
340,108,71645,1,0,3:2:0:0:
340,108,71717,1,8,0:0:0:0:
252,71,71860,1,10,0:0:0:0:
370,177,72003,5,2,3:2:0:0:
333,100,72145,1,10,0:0:0:0:
252,71,72288,1,10,0:0:0:0:
182,115,72431,1,2,3:2:0:0:
182,115,72503,1,0,3:2:0:0:
182,115,72574,1,2,3:2:0:0:
163,195,72717,5,2,3:0:0:0:
184,230,72860,5,2,3:0:0:0:
203,234,73003,5,2,3:0:0:0:
370,177,73145,5,6,3:2:0:0:
377,184,73860,5,0,3:0:0:0:
377,184,73931,1,0,3:0:0:0:
377,184,74003,1,8,0:0:0:0:
174,311,74145,6,0,B|222:295|246:347|325:357,1,149.40000216568,6|0,3:2|3:2,0:0:0:0:
336,351,74503,1,0,3:2:0:0:
358,346,74574,1,8,0:2:0:0:
457,222,74717,1,0,3:2:0:0:
460,194,74788,1,0,3:2:0:0:
464,166,74860,1,8,0:3:0:0:
322,276,75003,5,8,0:3:0:0:
163,195,75145,5,8,0:3:0:0:
21,305,75288,5,8,0:3:0:0:
52,54,75431,6,0,B|93:58|93:58|145:32,1,80.9999975280763,6|2,3:2|0:0,0:0:0:0:
313,155,75717,2,0,B|271:150|271:150|219:176,1,80.9999975280763,10|0,0:2|0:0,0:0:0:0:
84,353,76003,2,0,B|162:335,1,80.9999975280763,2|0,0:0|3:2,0:0:0:0:
177,320,76217,1,2,0:0:0:0:
191,304,76288,1,10,0:2:0:0:
252,352,76431,1,0,0:0:0:0:
84,168,76574,6,0,B|77:249,1,80.9999975280763,2|2,3:2|0:0,0:0:0:0:
198,11,76860,1,10,0:2:0:0:
157,150,77003,2,0,B|212:91|212:91|198:11,1,161.999995056153,2|0,3:2|3:2,0:0:0:0:
360,125,77431,2,0,B|399:134|399:134|430:108,1,80.9999975280763,10|0,0:2|0:0,0:0:0:0:
430,108,77717,5,2,3:2:0:0:
277,27,77860,1,2,0:0:0:0:
157,150,78003,1,10,0:2:0:0:
310,231,78145,1,0,0:0:0:0:
250,292,78288,5,2,0:0:0:0:
174,252,78431,1,2,3:2:0:0:
234,191,78574,1,10,0:2:0:0:
310,231,78717,1,0,0:0:0:0:
174,252,78860,6,0,L|164:359,1,80.9999975280763,2|2,3:2|0:0,0:0:0:0:
98,212,79145,1,10,0:2:0:0:
326,332,79288,2,0,B|403:307|403:307|487:348,1,161.999995056153,6|0,3:2|3:2,0:0:0:0:
483,261,79717,2,0,L|490:180,1,80.9999975280763,10|0,0:2|0:0,0:0:0:0:
242,372,80003,6,0,L|250:292,1,80.9999975280763,2|2,3:2|0:0,0:0:0:0:
413,146,80288,2,0,L|405:226,1,80.9999975280763,10|2,0:2|0:0,0:0:0:0:
164,337,80574,2,0,L|172:257,1,80.9999975280763,2|0,3:2|3:2,0:0:0:0:
172,257,80788,1,0,3:2:0:0:
172,257,80860,1,10,0:2:0:0:
86,302,81003,1,2,3:2:0:0:
11,296,81145,6,0,B|50:283|50:283|86:302,1,80.9999975280763,0|2,3:2|0:0,0:0:0:0:
87,104,81431,2,0,B|48:117|48:117|12:98,1,80.9999975280763,10|2,0:2|0:0,0:0:0:0:
10,211,81717,1,2,3:2:0:0:
29,205,81788,1,0,3:2:0:0:
49,200,81860,1,2,3:2:0:0:
68,194,81931,1,0,3:2:0:0:
88,189,82003,1,10,0:2:0:0:
146,43,82145,1,8,0:2:0:0:
292,101,82288,6,0,B|228:52|228:52|135:62,1,161.999995056153,2|10,3:2|0:2,0:0:0:0:
300,8,82717,1,2,3:2:0:0:
364,57,82860,2,0,B|300:8,2,80.9999975280763,2|2|10,0:0|3:2|0:2,0:0:0:0:
428,106,83288,1,2,3:2:0:0:
280,179,83431,5,6,3:2:0:0:
428,106,83574,1,8,0:2:0:0:
501,254,83717,1,8,0:2:0:0:
353,327,83860,1,2,3:2:0:0:
327,319,83931,1,0,3:2:0:0:
301,312,84003,1,0,3:2:0:0:
427,291,84145,5,0,3:2:0:0:
362,203,84288,1,0,3:2:0:0:
280,179,84431,1,0,3:2:0:0:
168,326,84574,6,0,B|183:292|183:292|176:251,1,74.70000108284,6|2,3:2|0:0,0:0:0:0:
38,323,84860,1,2,0:2:0:0:
38,323,85003,2,0,B|72:309|72:309|96:275,1,74.70000108284,2|8,3:2|0:2,0:0:0:0:
206,163,85288,1,2,0:0:0:0:
206,163,85360,1,0,0:0:0:0:
206,163,85431,2,0,L|111:181,1,74.70000108284,2|2,0:2|0:2,0:0:0:0:
80,102,85717,6,0,L|226:74,1,149.40000216568,2|0,0:2|3:2,0:0:0:0:
25,244,86288,1,8,0:2:0:0:
25,244,86574,2,0,P|32:205|49:165,1,74.70000108284,2|0,0:2|0:0,0:0:0:0:
60,30,86860,6,0,P|67:69|84:109,1,74.70000108284,2|2,3:2|0:0,0:0:0:0:
149,47,87145,2,0,P|174:77|209:103,1,74.70000108284,2|2,0:2|0:2,0:0:0:0:
234,17,87431,2,0,P|270:30|313:35,2,74.70000108284,8|2|2,0:2|0:0|0:2,0:0:0:0:
383,9,87860,1,2,0:0:0:0:
383,9,88003,2,0,L|362:161,1,149.40000216568,2|2,0:2|3:2,0:0:0:0:
460,52,88431,5,0,3:0:0:0:
460,52,88503,1,0,3:0:0:0:
460,52,88574,2,0,B|491:72|491:72|450:83,1,74.70000108284,8|0,0:2|0:0,0:0:0:0:
443,157,88788,1,0,0:0:0:0:
443,157,88860,2,0,L|503:204,1,74.70000108284,6|0,3:2|0:0,0:0:0:0:
501,202,89145,5,6,3:2:0:0:
439,247,89288,1,2,0:2:0:0:
290,183,89431,1,2,0:2:0:0:
217,209,89574,1,2,0:2:0:0:
215,333,89717,6,0,P|211:257|138:236,1,161.999995056153,10|2,0:2|0:2,0:0:0:0:
32,72,90217,1,0,3:0:0:0:
32,72,90288,2,0,B|103:72|69:34|163:45,1,121.499996292114,2|0,0:2|0:0,0:0:0:0:
45,279,90717,2,0,L|53:239,1,40.4999987640381,2|0,0:2|3:0,0:0:0:0:
59,215,90860,5,8,0:2:0:0:
129,119,91003,5,8,0:0:0:0:
267,53,91145,5,2,3:2:0:0:
427,29,91288,5,0,0:0:0:0:
504,42,91431,6,0,P|496:66|471:95,1,40.4999987640381,2|0,0:2|0:0,0:0:0:0:
504,42,92288,6,0,P|502:67|485:101,1,40.4999987640381,8|0,0:2|0:0,0:0:0:0:
405,272,92431,6,0,B|365:285|321:260|321:254|321:248|276:223|218:251,1,180,6|2,3:2|3:2,0:0:0:0:
334,174,92860,2,0,B|354:175|374:160|374:160|385:183|402:196,1,90,2|2,3:2|3:2,0:0:0:0:
445,135,93074,1,2,3:2:0:0:
462,148,93145,2,0,P|475:174|477:212,1,45,8|0,0:2|0:0,0:0:0:0:
322,279,93288,1,2,3:2:0:0:
328,286,93360,1,2,3:2:0:0:
334,293,93431,2,0,P|317:317|286:337,1,45,2|0,3:2|0:0,0:0:0:0:
209,171,93574,2,0,P|186:189|151:201,1,45,10|0,0:2|0:0,0:0:0:0:
6,266,93717,6,0,B|62:216|62:216|134:238|134:238|195:198|195:198|285:232,1,298.80000433136,6|8,3:2|0:0,0:0:0:0:
265,224,94860,2,0,B|205:217|205:217|230:208|230:208|243:84|243:84|269:67|269:67|213:61,1,298.80000433136,2|2,3:2|3:2,0:0:0:0:
213,61,95717,2,0,L|163:74,1,37.35000054142,2|0,0:2|0:0,0:0:0:0:
374,23,96003,6,0,P|248:47|310:159,1,298.80000433136,6|8,3:2|0:0,0:0:0:0:
380,130,96717,1,2,0:2:0:0:
380,130,97003,2,0,P|385:146|384:175,1,37.35000054142,2|0,3:2|0:0,0:0:0:0:
359,262,97145,6,0,P|380:246|375:272,1,67.5000025749208,6|0,3:2|0:0,0:0:0:0:
249,252,97288,2,0,P|270:236|264:261,1,67.5000025749208,2|0,0:2|0:0,0:0:0:0:
164,244,97431,1,10,0:2:0:0:
385,166,97574,22,1,B|336:137|336:137|276:170|276:170|272:247|272:247|215:272|215:272|158:241,1,322.999999999996,2|6,3:2|3:2,0:0:0:0:
312,324,98003,2,0,L|306:373,1,45,8|0,0:0|0:0,0:0:0:0:
145,364,98145,2,0,L|151:319,1,45,6|0,3:2|0:0,0:0:0:0:
202,173,98288,6,0,B|170:167|146:150|146:150|124:169|101:173|74:175|47:163|47:163|30:188|5:201,1,224.10000324852,6|2,3:2|3:2,0:0:0:0:
53,88,98860,1,8,0:0:0:0:
53,88,99003,2,0,B|74:89|91:94|91:94|110:81|133:73,1,74.70000108284,2|0,3:2|0:0,0:0:0:0:
78,15,99288,1,2,3:2:0:0:
255,0,99431,5,2,3:2:0:0:
202,173,99717,1,2,0:2:0:0:
267,286,99907,5,2,3:2:0:0:
267,266,100003,2,0,P|184:278|173:361,1,180,2|2,3:2|3:2,0:0:0:0:
257,384,100431,1,0,0:0:0:0:
346,249,100574,6,0,P|373:241|405:215,1,45,2|0,3:2|0:0,0:0:0:0:
324,145,100717,6,0,B|307:230|375:244|375:244|449:262|417:370,1,242.999992584229,6|0,3:2|0:0,0:0:0:0:
491,380,101003,6,0,L|506:320,1,45,2|0,3:2|0:0,0:0:0:0:
469,196,101145,6,0,B|383:179|369:247|369:247|351:321|243:289,1,242.999992584229,6|0,3:2|0:0,0:0:0:0:
279,297,101431,6,0,P|267:273|264:237,1,45,2|0,3:2|0:0,0:0:0:0:
292,68,101574,6,0,B|307:152|239:166|239:166|166:185|198:292,1,242.999992584229,6|0,3:2|0:0,0:0:0:0:
279,172,101860,6,0,B|249:169|249:169|237:161|237:161|210:158,1,67.5000025749208,2|0,3:2|0:0,0:0:0:0:
120,25,102003,2,0,B|43:9|43:9|2:15|37:69,1,135.000005149842,10|0,0:2|3:2,0:0:0:0:
27,51,102217,1,0,3:2:0:0:
35,59,102288,6,0,P|28:81|9:104,1,45,10|0,0:2|0:0,0:0:0:0:
114,252,102431,2,0,P|96:267|76:276,1,45,10|0,0:2|0:0,0:0:0:0:
78,151,102574,6,0,P|65:170|47:184,1,45,10|0,0:2|0:0,0:0:0:0:
122,368,102717,2,0,P|101:378|79:382,1,45,10|0,0:2|0:0,0:0:0:0:
73,273,102860,6,0,B|134:267|170:300|170:300|189:354|254:346,1,198.000006042481,6|10,3:2|0:2,0:0:0:0:
291,191,103288,1,2,3:2:0:0:
320,327,103431,5,0,0:0:0:0:
214,211,103574,1,2,3:2:0:0:
243,347,103717,5,8,0:2:0:0:
348,251,103860,1,2,3:2:0:0:
275,112,104003,6,0,P|232:95|196:134,1,99.0000030212403,2|2,3:2|3:2,0:0:0:0:
183,140,104217,1,0,3:0:0:0:
183,140,104288,2,0,P|242:83|297:130,1,148.50000453186,10|0,0:2|0:0,0:0:0:0:
364,25,104574,6,0,P|424:13|439:65,1,99.0000030212403,2|0,3:2|3:2,0:0:0:0:
449,45,104788,1,0,3:0:0:0:
449,45,104860,2,0,P|368:57|281:-16,1,179.549992602768,10|0,0:2|0:0,0:0:0:0:
286,18,105145,5,6,3:2:0:0:
361,134,105288,1,2,0:0:0:0:
304,185,105431,2,0,L|299:221,1,24.7500007553101,10|0,0:2|0:0,0:0:0:0:
379,301,105574,1,2,3:2:0:0:
383,305,105860,5,2,3:2:0:0:
304,284,106003,1,8,0:2:0:0:
246,341,106145,1,2,3:2:0:0:
133,322,106288,6,0,L|142:254,1,59.8499975342561,2|0,3:2|0:0,0:0:0:0:
19,213,106431,2,0,L|79:221,1,59.8499975342561,2|0,0:2|0:0,0:0:0:0:
152,173,106574,6,0,L|161:105,1,59.8499975342561,10|0,0:2|0:0,0:0:0:0:
122,45,106717,1,6,3:2:0:0:
126,49,107003,6,0,B|114:147|114:147|176:224|176:224|169:296,1,270.000010299683,6|6,3:2|3:2,0:0:0:0:
33,358,107431,2,0,B|26:286|26:286|88:209|88:209|76:111,1,270.000010299683,6|10,3:2|0:2,0:0:0:0:
256,0,107860,1,2,3:2:0:0:
245,7,108145,6,0,P|231:32|230:72,1,49.5000015106202,2|0,3:2|0:0,0:0:0:0:
296,161,108288,2,0,P|310:186|311:226,1,49.5000015106202,8|0,0:2|0:0,0:0:0:0:
197,276,108431,1,2,3:2:0:0:
274,344,108574,6,0,B|259:300|266:266|294:274|303:240|287:190,1,161.999995056153,2|2,3:2|3:2,0:0:0:0:
224,126,108788,1,2,3:2:0:0:
228,130,108860,2,0,P|211:152|156:162,1,67.5000025749208,10|0,0:2|0:0,0:0:0:0:
107,241,109003,2,0,P|79:244|33:212,1,67.5000025749208,0|0,3:2|0:0,0:0:0:0:
10,132,109145,6,0,B|62:150|62:150|90:309|90:309|140:327,1,270.000010299683,2|8,3:2|0:2,0:0:0:0:
140,327,109574,1,0,0:0:0:0:
209,370,109717,6,0,L|222:322,1,45,10|0,0:2|0:0,0:0:0:0:
187,45,109860,6,0,B|171:99|171:99|253:208|253:208|241:260,1,242.999992584229,6|0,3:2|0:0,0:0:0:0:
241,257,110145,6,0,L|289:244,1,45,8|0,0:2|0:0,0:0:0:0:
317,128,110288,6,0,B|262:112|262:112|153:194|153:194|101:182,1,242.999992584229,6|0,3:2|0:0,0:0:0:0:
56,97,110574,6,0,L|104:110,1,45,8|0,0:2|0:0,0:0:0:0:
263,36,110717,6,0,B|318:51|318:51|367:178|367:178|417:196,1,242.999992584229,6|0,3:2|0:0,0:0:0:0:
490,204,111003,2,0,B|506:220|506:220|481:220,1,45,2|0,3:2|0:0,0:0:0:0:
327,261,111145,6,0,P|355:197|414:195,1,135.000005149842,10|0,0:2|3:2,0:0:0:0:
344,335,111360,1,0,3:2:0:0:
323,337,111431,2,0,P|294:329|269:309,1,49.5000015106202,10|0,0:2|0:0,0:0:0:0:
195,257,111574,6,0,P|185:234|203:251,1,67.5000025749208,10|0,0:2|0:0,0:0:0:0:
266,141,111717,6,0,P|269:116|276:140,1,67.5000025749208,10|0,0:2|0:0,0:0:0:0:
449,72,111860,6,0,P|463:52|458:76,1,67.5000025749208,10|0,0:2|0:0,0:0:0:0:
459,64,112003,5,14,0:2:0:0:
414,47,112074,1,0,3:2:0:0:
373,58,112145,1,0,3:2:0:0:
352,86,112217,1,0,3:2:0:0:
338,100,112288,5,10,0:2:0:0:
317,128,112360,1,0,3:2:0:0:
276,139,112431,1,0,3:2:0:0:
231,122,112502,1,0,3:2:0:0:
227,71,112574,5,10,0:2:0:0:
180,88,112645,1,0,3:2:0:0:
139,103,112716,1,0,3:2:0:0:
102,119,112788,1,0,3:2:0:0:
69,133,112860,5,10,0:2:0:0:
100,107,112932,1,0,3:2:0:0:
136,82,113003,1,0,3:2:0:0:
177,54,113074,1,0,3:2:0:0:
126,1,113145,6,0,B|144:53|136:96|102:86|91:128|112:189,1,198.000006042481,14|2,0:2|0:0,0:0:0:0:
113,191,114288,5,6,3:2:0:0:
422,79,114431,1,6,3:2:0:0:
385,147,114574,6,0,L|380:189,1,36
300,187,114860,1,0,0:0:0:0:
304,191,115003,2,0,L|309:233,1,36
364,276,115288,1,0,0:0:0:0:
170,147,115431,5,6,3:2:0:0:
22,327,115574,1,6,3:2:0:0:
85,283,115717,6,0,L|135:298,1,36
230,221,116003,1,0,0:0:0:0:
234,225,116145,2,0,L|184:240,1,36
119,293,116431,1,0,0:0:0:0:
269,116,116574,5,6,3:2:0:0:
493,175,116717,1,6,3:2:0:0:
440,120,116860,2,0,L|449:78,1,36
314,14,117145,1,0,0:0:0:0:
318,18,117288,2,0,L|310:53,1,36
385,48,117574,1,0,0:0:0:0:
239,19,117717,6,0,P|208:20|176:42,1,53.9999983520508,6|0,3:2|0:0,0:0:0:0:
141,91,117860,2,0,P|126:118|129:157,1,53.9999983520508,2|0,3:2|0:0,0:0:0:0:
190,248,118003,1,8,0:0:0:0:
179,260,118145,6,0,P|195:286|230:303,1,53.9999983520508,0|0,3:2|0:0,0:0:0:0:
289,308,118288,2,0,P|319:306|351:284,1,53.9999983520508,0|0,3:2|0:0,0:0:0:0:
400,188,118431,1,8,0:0:0:0:
385,183,118574,6,0,L|319:197,1,53.9999983520508,8|0,0:0|0:0,0:0:0:0:
259,209,118717,2,0,L|193:223,1,53.9999983520508,8|0,0:0|0:0,0:0:0:0:
124,212,118860,5,6,3:2:0:0:
128,216,119003,2,0,B|175:185|175:185|226:198|226:198|287:286|287:286|338:299|338:299|398:261,1,323.999990112305,6|0,3:2|0:0,0:0:0:0:
42,36,120003,5,6,3:2:0:0:
46,40,120145,2,0,B|20:89|20:89|100:157|212:120|212:120|196:55,1,323.999990112305,6|0,3:2|0:0,0:0:0:0:
470,348,121145,6,0,L|401:325,1,53.9999983520508,6|0,3:2|0:0,0:0:0:0:
350,309,121288,2,0,L|281:286,1,53.9999983520508,6|0,3:2|0:0,0:0:0:0:
230,270,121430,1,8,0:0:0:0:
233,274,121573,6,0,L|303:281,1,53.9999983520508,6|0,3:2|0:0,0:0:0:0:
358,288,121716,2,0,L|428:295,1,53.9999983520508,6|0,3:2|0:0,0:0:0:0:
482,301,121860,1,8,0:0:0:0:
486,305,122003,6,0,L|417:282,1,53.9999983520508,6|0,3:2|0:0,0:0:0:0:
366,266,122146,2,0,L|297:243,1,53.9999983520508,6|0,3:2|0:0,0:0:0:0:
246,227,122288,5,8,0:0:0:0:
198,239,122360,1,8,0:0:0:0:
185,280,122431,1,8,0:0:0:0:
192,317,122503,1,8,0:0:0:0:
236,336,122574,5,10,0:0:0:0:
188,313,122646,1,8,0:0:0:0:
152,337,122717,1,8,0:0:0:0:
135,370,122789,1,8,0:0:0:0:
156,341,122860,5,10,0:0:0:0:
145,287,122932,1,8,0:0:0:0:
105,272,123003,1,8,0:0:0:0:
68,278,123075,1,8,0:0:0:0:
45,322,123145,5,10,0:0:0:0:
19,281,123217,1,8,0:0:0:0:
42,238,123288,1,8,0:0:0:0:
16,197,123360,1,8,0:0:0:0:
39,154,123431,1,6,3:2:0:0:
155,209,123574,1,0,0:0:0:0:
285,79,123717,5,8,0:0:0:0:
210,93,123860,1,0,0:0:0:0:
312,277,124003,1,2,0:0:0:0:
224,168,124145,2,0,P|332:207|320:295,1,215.999993408203,0|2,3:2|0:0,0:0:0:0:
296,92,124574,5,2,3:2:0:0:
148,50,124717,1,2,0:0:0:0:
13,113,124860,1,8,0:0:0:0:
148,50,125003,2,0,P|41:92|56:180,1,215.999993408203,2|0,3:2|0:0,0:0:0:0:
315,14,125431,2,0,B|364:39|364:39|425:25,1,107.999996704102,8|2,0:0|0:0,0:0:0:0:
296,92,125717,5,2,3:2:0:0:
258,161,125860,5,2,3:2:0:0:
173,227,126003,5,8,0:0:0:0:
30,245,126145,5,2,0:0:0:0:
213,136,126288,6,0,P|239:141|258:161,1,53.9999983520508,2|0,0:0|0:0,0:0:0:0:
367,196,126431,6,0,P|381:218|380:244,1,53.9999983520508,0|0,3:2|0:0,0:0:0:0:
432,308,126574,6,0,P|426:334|407:352,1,53.9999983520508,8|0,0:0|0:0,0:0:0:0:
388,364,126717,5,2,0:0:0:0:
248,287,126860,6,0,P|309:286|308:349,1,135.000005149842,6|0,3:2|0:0,0:0:0:0:
300,356,127074,1,0,0:0:0:0:
288,363,127145,2,0,P|259:372|221:369,1,45,8|0,0:0|0:0,0:0:0:0:
248,287,127288,6,0,P|195:255|165:310,1,135.000005149842,6|0,3:2|0:0,0:0:0:0:
168,320,127503,1,0,3:0:0:0:
175,332,127574,2,0,P|195:354|230:370,1,45,8|0,0:0|0:0,0:0:0:0:
232,178,127717,6,0,B|229:151|229:151|237:143|237:143|234:111,1,67.5000025749208,6|0,3:2|0:0,0:0:0:0:
378,75,127860,6,0,B|381:48|381:48|373:40|373:40|375:11,1,67.5000025749208
379,15,128003,2,0,B|273:-3|301:78|151:69,1,215.999993408203,6|8,3:2|0:0,0:0:0:0:
117,25,128431,1,0,0:0:0:0:
312,134,128574,1,0,0:0:0:0:
242,0,128717,6,0,L|234:37,1,26.9999991760254,0|0,3:2|0:0,0:0:0:0:
175,69,128860,2,0,L|167:106,1,26.9999991760254,8|0,0:0|0:0,0:0:0:0:
106,132,129003,1,0,3:2:0:0:
228,138,129145,6,0,L|236:175,1,26.9999991760254,2|0,0:0|0:0,0:0:0:0:
295,207,129288,2,0,L|303:244,1,26.9999991760254,0|0,3:2|0:0,0:0:0:0:
364,270,129431,1,8,0:0:0:0:
152,355,129574,6,0,L|160:318,1,26.9999991760254,2|0,3:2|0:0,0:0:0:0:
219,286,129717,2,0,L|227:249,1,26.9999991760254
288,223,129860,1,0,3:2:0:0:
206,188,130003,6,0,L|198:151,1,26.9999991760254,8|0,0:0|0:0,0:0:0:0:
139,119,130146,2,0,L|131:82,1,26.9999991760254
71,53,130288,6,0,B|131:63,1,45,2|0,3:2|0:0,0:0:0:0:
185,39,130431,2,0,B|245:49,1,49.5000015106202,2|0,0:0|0:0,0:0:0:0:
303,25,130574,2,0,B|363:35,1,53.9999983520508,8|0,0:0|0:0,0:0:0:0:
424,10,130717,6,0,P|447:15|427:29,1,58.4999973220826,2|0,0:0|0:0,0:0:0:0:
397,110,130860,6,0,P|416:128|389:128,1,67.5000025749208,2|0,0:0|0:0,0:0:0:0:
311,194,131003,6,0,P|319:221|295:207,1,72,2|0,3:2|0:0,0:0:0:0:
194,275,131145,6,0,P|187:304|171:278,1,76.5000014591217,8|0,0:0|0:0,0:0:0:0:
23,332,131288,6,0,P|1:355|0:323,1,80.9999975280763,2|0,0:0|0:0,0:0:0:0:
55,137,131431,6,0,B|93:143|93:143|99:150|99:150|147:156,1,90,6|0,3:2|0:0,0:0:0:0:
216,187,131574,2,0,B|254:193|254:193|260:200|260:200|301:205,1,90
365,248,131717,5,8,0:0:0:0:
369,252,131860,2,0,B|305:266|257:202|259:196|261:189|214:113|141:155,1,270,6|0,3:2|0:0,0:0:0:0:
59,141,132145,6,0,B|53:163|53:163|74:184,1,45,8|0,0:0|0:0,0:0:0:0:
171,278,132288,2,0,B|171:194|260:191|265:196|270:201|349:192|369:129,1,270,6|0,3:2|0:0,0:0:0:0:
232,17,132574,6,0,B|172:-31|137:-11|53:11|108:58|155:76,1,202.500007724762,6|0,3:2|0:0,0:0:0:0:
320,156,132860,2,0,P|339:142|355:114,1,53.9999983520508,8|0,0:0|0:0,0:0:0:0:
413,69,133003,2,0,P|424:44|419:18,1,53.9999983520508,2|0,0:0|0:0,0:0:0:0:
218,90,133145,2,0,P|176:143|165:209,1,135.000005149842,0|2,3:2|3:2,0:0:0:0:
221,265,133360,1,0,0:0:0:0:
221,265,133431,2,0,P|189:283|134:281,1,67.5000025749208,8|0,0:0|0:0,0:0:0:0:
350,238,133574,6,0,L|378:245,1,26.9999991760254,2|0,3:2|0:0,0:0:0:0:
376,244,133717,1,0,0:0:0:0:
257,329,133860,6,0,L|257:359,1,26.9999991760254,2|0,3:2|0:0,0:0:0:0:
257,356,134003,1,8,0:0:0:0:
164,208,134145,6,0,L|136:215,1,26.9999991760254,2|0,3:2|0:0,0:0:0:0:
71,242,134288,2,0,B|38:236|38:236|68:211,1,67.5000025749208
233,188,134431,6,0,B|257:182|257:182|268:189|268:189|297:182,1,67.5000025749208,2|0,3:2|0:0,0:0:0:0:
472,135,134574,6,0,L|368:162,1,107.999996704102,8|2,0:0|0:0,0:0:0:0:
368,162,134788,1,0,3:0:0:0:
368,162,134859,1,2,3:2:0:0:
0,249,135145,5,8,0:0:0:0:
133,198,135288,5,2,0:0:0:0:
284,139,135431,5,0,3:2:0:0:
485,60,135574,5,0,3:2:0:0:
489,64,135717,6,0,B|498:90|498:90|475:117,1,53.9999983520508,8|0,0:0|0:0,0:0:0:0:
456,192,135860,2,0,B|418:183|418:183|396:59|396:59|359:51,1,202.500007724762,6|0,3:2|0:0,0:0:0:0:
372,27,136145,6,0,P|344:27|359:51,1,67.5000025749208,2|0,3:2|0:0,0:0:0:0:
262,41,136288,2,0,P|235:46|253:69,1,67.5000025749208,8|0,0:0|0:0,0:0:0:0:
159,61,136431,2,0,P|74:61|118:133,1,202.500007724762,6|0,3:2|0:0,0:0:0:0:
306,266,136717,6,0,P|318:246|319:223,1,40.4999987640381,8|0,0:0|0:0,0:0:0:0:
295,156,136860,2,0,P|229:156|149:209,1,135.000005149842,2|0,3:2|0:0,0:0:0:0:
48,365,137145,5,6,3:2:0:0:
42,371,137217,1,2,0:2:0:0:
36,377,137288,2,0,B|34:359|34:359|25:348|25:348|24:324,1,53.9999983520508,2|2,0:2|0:2,0:0:0:0:
203,288,137431,5,10,0:2:0:0:
209,294,137503,1,2,0:2:0:0:
215,300,137574,2,0,B|216:282|216:282|225:271|225:271|226:247,1,53.9999983520508,2|2,0:2|0:2,0:0:0:0:
81,234,137717,5,2,0:2:0:0:
75,240,137789,1,2,0:2:0:0:
69,246,137860,2,0,B|67:228|67:228|58:217|58:217|57:193,1,53.9999983520508,2|2,3:2|0:2,0:0:0:0:
236,157,138003,5,10,0:2:0:0:
242,163,138075,1,2,0:2:0:0:
248,169,138146,2,0,B|249:151|249:151|258:140|258:140|259:116,1,53.9999983520508,6|2,3:2|0:2,0:0:0:0:
156,163,138288,5,2,0:2:0:0:
147,165,138360,1,2,0:2:0:0:
139,167,138431,2,0,B|146:150|146:150|143:136|143:136|155:115,1,53.9999983520508,2|2,3:2|0:2,0:0:0:0:
328,173,138574,5,10,0:2:0:0:
330,182,138646,1,2,0:2:0:0:
333,190,138717,2,0,B|342:174|342:174|356:169|356:169|369:149,1,53.9999983520508,6|2,3:2|0:2,0:0:0:0:
333,76,138860,5,2,0:2:0:0:
326,69,138932,1,2,0:2:0:0:
321,63,139003,2,0,B|339:60|339:60|350:51|350:51|374:50,1,53.9999983520508,6|2,3:2|0:2,0:0:0:0:
410,229,139146,5,10,0:2:0:0:
403,236,139218,1,2,0:2:0:0:
398,242,139289,2,0,B|416:243|416:243|427:252|427:252|451:253,1,53.9999983520508,2|2,0:2|0:2,0:0:0:0:
497,175,139431,5,6,3:2:0:0:
447,175,139502,1,2,0:2:0:0:
399,184,139573,1,2,0:2:0:0:
362,214,139645,1,2,0:2:0:0:
324,245,139716,1,10,0:2:0:0:
279,261,139788,1,2,0:2:0:0:
230,266,139859,1,2,0:2:0:0:
205,256,139931,1,2,0:2:0:0:
189,235,140003,5,2,0:2:0:0:
253,240,140074,1,2,0:2:0:0:
311,267,140145,1,2,3:2:0:0:
356,313,140217,1,2,0:2:0:0:
411,347,140288,1,10,0:2:0:0:
475,354,140360,1,2,0:2:0:0:
479,358,140431,6,0,P|496:331|492:291,1,53.9999983520508,6|2,3:2|0:2,0:0:0:0:
462,143,140574,1,2,0:2:0:0:
456,134,140645,1,2,0:2:0:0:
450,125,140717,2,0,P|433:152|437:192,1,53.9999983520508,10|0,0:2|0:0,0:0:0:0:
465,242,140860,1,8,0:0:0:0:
408,62,141003,5,0,3:2:0:0:
402,53,141074,1,0,0:0:0:0:
396,44,141146,1,8,0:0:0:0:
362,200,141288,5,8,0:0:0:0:
215,293,141431,5,8,0:0:0:0:
28,336,141574,5,8,0:0:0:0:
335,127,141717,6,0,P|129:156|43:344,1,431.999986816407,6|2,3:2|0:0,0:0:0:0:
56,350,146288,6,0,P|142:161|348:133,1,431.999986816407,2|6,0:0|0:0,0:0:0:0:
412,171,149431,5,0,0:0:0:0:
412,171,149574,2,0,B|416:192|416:192|406:212,1,40.4999987640381,12|0,0:0|0:0,0:0:0:0:
351,256,149717,1,2,0:0:0:0:
351,256,149860,2,0,L|294:269,1,40.4999987640381,10|8,0:0|0:0,0:0:0:0:
266,326,150003,6,0,L|226:283,3,40.4999987640381,8|8|8|8,0:0|0:0|0:0|0:0,0:0:0:0:
162,287,150288,2,0,L|179:231,3,40.4999987640381,8|8|8|8,0:0|0:0|0:0|0:0,0:0:0:0:
143,177,150574,2,0,L|199:163,1,40.4999987640381,8|8,0:0|0:0,0:0:0:0:
254,133,150717,5,8,0:0:0:0:
254,133,150788,1,8,0:0:0:0:
254,133,150860,2,0,B|299:128|299:128|359:84|359:84|402:80,1,161.999995056153,6|0,3:2|0:0,0:0:0:0:
461,123,151145,2,0,B|482:141|482:141|456:146,1,53.9999983520508,10|0,0:2|0:0,0:0:0:0:
265,31,151288,2,0,B|317:45|317:45|334:152|334:152|388:168,1,215.999993408203,2|2,3:2|3:2,0:0:0:0:
385,167,151717,2,0,L|376:228,1,53.9999983520508,8|0,0:2|0:0,0:0:0:0:
366,293,151860,1,2,3:2:0:0:
502,215,152003,6,0,B|480:230|480:230|448:226,1,53.9999983520508,2|0,3:2|0:0,0:0:0:0:
366,293,152145,2,0,B|338:295|338:295|313:274,1,53.9999983520508,2|0,3:2|0:0,0:0:0:0:
221,286,152288,2,0,P|283:245|239:305,1,202.500007724762,10|0,0:2|0:0,0:0:0:0:
122,334,152574,6,0,L|130:276,1,40.4999987640381,2|0,3:2|0:0,0:0:0:0:
138,220,152717,2,0,L|146:162,1,40.4999987640381,0|0,3:2|0:0,0:0:0:0:
154,106,152860,2,0,B|139:161|179:195|184:194|189:193|232:232|222:286,1,202.500007724762,10|0,0:2|0:0,0:0:0:0:
334,107,153145,6,0,B|229:88|229:88|217:55|202:37|159:28,1,202.500007724762,6|0,3:2|0:0,0:0:0:0:
160,28,153431,2,0,P|145:10|167:7,1,53.9999983520508,10|0,0:2|0:0,0:0:0:0:
431,0,153574,2,0,B|441:54|398:93|393:92|388:91|348:125|363:180,1,202.500007724762,2|0,3:2|0:0,0:0:0:0:
363,180,153860,2,0,L|417:189,1,53.9999983520508,2|0,3:2|0:0,0:0:0:0:
295,9,154003,2,0,L|349:18,1,53.9999983520508,8|0,0:2|0:0,0:0:0:0:
507,43,154145,1,2,3:2:0:0:
449,270,154288,5,6,3:2:0:0:
449,270,154431,2,0,P|484:268|457:283,1,80.9999975280763,2|0,0:2|0:0,0:0:0:0:
289,233,154574,5,10,0:2:0:0:
289,233,154717,2,0,P|360:210|312:255,1,202.500007724762,6|0,3:2|0:0,0:0:0:0:
261,317,155003,6,0,P|348:269|449:270,1,202.500007724762,6|0,3:2|0:0,0:0:0:0:
399,336,155288,2,0,P|364:340|333:355,1,67.5000025749208,6|0,3:2|0:0,0:0:0:0:
197,124,155431,6,1,B|187:154|161:173|161:173|184:300|184:300|188:268|219:250,1,242.999992584229,6|0,3:2|0:0,0:0:0:0:
120,98,155717,2,0,P|91:86|107:113,1,80.9999975280763,10|0,0:2|0:0,0:0:0:0:
288,157,155860,6,0,B|238:171|195:130|197:123|199:116|154:72|84:105,1,202.500007724762,2|0,3:2|0:0,0:0:0:0:
18,117,156145,2,0,B|-6:142|-6:142|33:139,1,67.5000025749208,2|0,3:2|0:0,0:0:0:0:
221,36,156288,2,0,B|169:57|169:57|159:75|159:75|105:97,1,135.000005149842,8|2,0:2|3:2,0:0:0:0:
18,218,156574,6,0,L|12:273,1,45.0000017166138,2|0,3:2|0:0,0:0:0:0:
209,256,156764,6,0,L|203:311,2,45.0000017166138,6|0|0,3:2|0:0|0:0,0:0:0:0:
400,294,156955,6,0,L|394:349,1,45.0000017166138,6|0,3:2|0:0,0:0:0:0:
381,346,157145,6,0,L|410:38,1,270.000010299683,2|6,3:2|3:2,0:0:0:0:
406,77,157574,1,0,0:0:0:0:
18,218,157717,6,1,B|43:239|41:271|41:271|54:241|91:233,1,119.999999999986,10|0,0:2|0:0,0:0:0:0:
451,368,157860,2,1,P|357:311|177:310,1,269.99999999999,6|0,3:2|0:0,0:0:0:0:
164,380,158145,6,1,P|123:347|120:284,1,89.9999999999845,8|0,0:2|0:0,0:0:0:0:
451,368,158288,2,1,P|402:306|370:103,1,269.99999999999,6|0,3:2|0:0,0:0:0:0:
286,122,158574,6,1,P|294:82|337:46,1,90.0000000000212,8|0,0:2|0:0,0:0:0:0:
434,2,158717,2,1,B|468:2|486:30|486:30|426:-8|312:-12|289:70|289:70|310:32|364:31,1,360.000000000007,6|0,3:2|0:0,0:0:0:0:
434,2,159003,6,1,B|468:2|486:30|486:30|450:13|390:40,1,120.000000000035,2|0,3:2|0:0,0:0:0:0:
272,7,159145,6,0,B|329:4|349:49|347:52|345:56|345:104|423:98,1,180,10|0,0:2|3:2,0:0:0:0:
418,105,159360,1,0,3:2:0:0:
418,105,159431,2,0,P|393:139|364:113,1,80.9999975280763,10|0,0:2|0:0,0:0:0:0:
219,22,159574,2,0,P|238:-9|272:7,1,80.9999975280763,10|0,0:2|0:0,0:0:0:0:
286,122,159717,6,0,L|274:191,1,40.4999987640381,10|0,0:2|0:0,0:0:0:0:
266,238,159860,2,0,L|257:290,1,40.4999987640381,10|0,0:2|0:0,0:0:0:0:
86,280,160003,6,1,B|174:270|199:356|199:356|277:374,1,202.500007724762,6|0,3:2|0:0,0:0:0:0:
315,383,160288,2,1,B|250:368,1,67.5000025749208,10|0,0:2|0:0,0:0:0:0:
259,278,160431,2,1,P|308:207|380:246,1,182.250000695229,2|0,3:2|0:0,0:0:0:0:
429,324,160717,2,1,P|354:260|258:279,1,202.500007724762,2|0,3:2|0:0,0:0:0:0:
184,320,161003,2,0,P|156:338|118:336,1,53.9999983520508,2|0,3:2|0:0,0:0:0:0:
14,316,161145,5,2,3:2:0:0:
38,195,161288,1,2,3:2:0:0:
62,74,161431,1,10,0:2:0:0:
62,74,161574,6,0,L|73:136,1,40.4999987640381
116,259,161717,6,0,L|133:173,1,47.2499985580445,2|0,3:2|0:0,0:0:0:0:
140,138,161860,2,0,L|157:52,1,47.2499985580445,0|0,3:2|0:0,0:0:0:0:
164,17,162003,1,10,0:2:0:0:
164,17,162145,6,0,L|250:34,1,47.2499985580445
476,33,162288,6,0,B|432:23|394:60|394:60|270:39,1,202.500007724762,6|0,3:2|0:0,0:0:0:0:
447,123,162574,2,0,P|470:128|453:131,1,67.5000025749208,10|0,0:2|0:0,0:0:0:0:
375,64,162717,2,0,B|283:48|283:48|285:34|285:34|378:51,1,202.500007724762,2|0,3:2|0:0,0:0:0:0:
457,132,163003,2,0,B|441:224,1,67.5000025749208,2|0,3:2|0:0,0:0:0:0:
427,307,163145,1,8,0:2:0:0:
427,307,163288,2,0,P|426:273|445:300,1,80.9999975280763,2|0,3:2|0:0,0:0:0:0:
204,111,163431,6,0,P|184:147|187:193,1,80.9999975280763,2|0,3:2|0:0,0:0:0:0:
318,379,163574,2,0,P|338:343|335:297,1,80.9999975280763,2|0,0:2|0:0,0:0:0:0:
287,246,163717,1,10,0:2:0:0:
63,174,163860,6,0,B|103:181|120:214|120:214|287:246,1,242.999992584229,2|0,3:2|0:0,0:0:0:0:
287,246,164145,2,0,L|227:266,1,53.9999983520508,6|0,3:2|0:0,0:0:0:0:
37,347,164288,2,0,L|89:330,1,53.9999983520508
161,354,164431,2,0,L|172:301,1,53.9999983520508,6|0,3:2|0:0,0:0:0:0:
109,19,164574,6,1,B|41:35|41:35|62:173,1,209.999999999964,6|0,3:2|0:0,0:0:0:0:
213,74,164860,2,1,B|145:90,1,69.7500005321503,10|0,0:2|0:0,0:0:0:0:
56,262,165003,2,1,B|44:199|102:170|102:170|165:135|138:58,1,209.250001596451,2|0,3:2|0:0,0:0:0:0:
109,19,165288,6,1,P|63:57|86:119,1,105.749998386383,2|0,3:2|0:0,0:0:0:0:
217,154,165431,1,8,0:2:0:0:
217,154,165574,2,1,B|298:134,1,67.5000025749208,2|0,3:2|0:0,0:0:0:0:
355,120,165717,5,2,3:2:0:0:
267,220,165860,1,2,3:2:0:0:
179,320,166003,1,10,0:2:0:0:
179,320,166145,2,1,B|194:268,1,53.9999983520508,0|0,3:2|0:0,0:0:0:0:
484,16,166288,6,0,P|422:72|412:226,1,242.999992584229,2|0,3:2|0:0,0:0:0:0:
395,298,166574,2,0,B|432:301|458:346|458:346|447:296|481:262,1,161.999995056153,8|0,0:2|0:0,0:0:0:0:
488,190,166860,2,1,P|450:222|381:209,1,90,10|0,0:2|0:0,0:0:0:0:
240,49,167003,6,1,B|233:86|263:121|305:120|329:97|329:97|357:70|402:76|426:111|420:145,1,269.99999999999,6|0,3:2|0:0,0:0:0:0:
252,297,167288,2,1,B|239:268|204:264|204:264|239:245|237:189,1,120,8|0,0:2|0:0,0:0:0:0:
240,49,167431,6,1,B|210:72|210:118|242:146|276:144|276:144|314:142|345:176|340:218|312:240,1,270.000000000027,6|0,3:2|0:0,0:0:0:0:
334,320,167717,2,1,P|284:320|238:267,1,89.9999999999845,8|0,0:2|0:0,0:0:0:0:
240,49,167860,6,1,B|201:46|169:79|175:121|200:142|200:142|230:167|229:213|197:240|162:238,1,269.99999999999,6|0,3:2|0:0,0:0:0:0:
72,234,168145,2,1,B|82:203|58:176|58:176|97:186|134:144,1,120.000000000035,2|0,3:2|0:0,0:0:0:0:
246,127,168288,6,0,B|201:133|201:133|152:54|152:54|110:59,1,180,10|0,0:2|3:2,0:0:0:0:
118,67,168503,1,0,3:2:0:0:
118,67,168574,2,0,B|88:93|88:93|47:88,1,80.9999975280763,10|0,0:2|0:0,0:0:0:0:
217,13,168717,2,0,B|238:48|238:48|278:54,1,80.9999975280763,10|0,0:2|0:0,0:0:0:0:
502,88,168860,6,0,B|462:82,1,40.4999987640381,10|0,0:2|0:0,0:0:0:0:
390,71,169003,2,0,B|350:65,1,40.4999987640381,10|0,0:2|0:0,0:0:0:0:
357,249,169145,6,1,B|316:296|394:316|431:237|421:175|375:135,1,209.250001596451,6|0,3:2|0:0,0:0:0:0:
342,88,169431,2,1,B|357:68|356:46|356:46|366:61|397:74,1,87.7500003347397,14|0,0:2|0:0,0:0:0:0:
498,244,169574,6,1,P|445:191|267:200,1,249.749999047279,2|0,3:2|0:0,0:0:0:0:
169,288,169860,2,0,P|149:310|176:298,1,80.9999975280763,0|0,3:2|0:0,0:0:0:0:
227,242,170003,1,14,0:2:0:0:
227,242,170288,5,14,0:2:0:0:
145,208,170431,1,2,0:0:0:0:
63,174,170574,1,10,0:0:0:0:
133,120,170717,5,2,0:0:0:0:
204,66,170860,5,2,0:0:0:0:
145,208,171003,1,2,0:0:0:0:
86,350,171145,1,10,0:0:0:0:
86,350,171288,22,1,B|143:333,1,53.9999983520508,2|0,0:0|0:0,0:0:0:0:
452,337,171431,22,1,B|495:325|495:325|508:266|465:190|375:223,1,209.250001596451,6|0,3:2|0:0,0:0:0:0:
306,212,171717,1,14,0:2:0:0:
400,139,171860,6,1,P|440:193|307:186,1,279.000002128601,2|0,3:2|3:2,0:0:0:0:
232,142,172217,1,0,0:0:0:0:
232,142,172288,2,1,B|272:178|280:219|280:219|222:106|87:121,1,279.000002128601,14|0,0:2|0:0,0:0:0:0:
25,78,172574,6,0,P|50:8|92:73,1,161.999995056153,14|2,0:2|0:0,0:0:0:0:
189,292,172860,2,0,P|163:222|121:287,1,161.999995056153,10|2,0:0|0:0,0:0:0:0:
131,344,173074,1,0,0:0:0:0:
131,344,173145,6,0,L|60:354,1,53.9999983520508,2|0,0:0|0:0,0:0:0:0:
56,355,173288,1,2,0:0:0:0:
3,185,173431,6,0,L|74:175,1,53.9999983520508,10|0,0:0|0:0,0:0:0:0:
78,174,173574,1,2,0:0:0:0:
256,384,173717,6,0,L|272:322,1,53.9999983520508,14|0,0:2|3:2,0:0:0:0:
256,0,173860,1,0,3:2:0:0:
422,288,174003,6,0,L|376:243,1,53.9999983520508,10|0,0:2|3:2,0:0:0:0:
89,96,174146,1,0,3:2:0:0:
422,96,174288,6,0,L|360:113,1,53.9999983520508,10|0,0:2|3:2,0:0:0:0:
89,288,174431,1,0,3:2:0:0:
256,0,174574,6,0,L|240:61,1,53.9999983520508,10|0,0:2|3:2,0:0:0:0:
263,199,174717,1,0,3:2:0:0:
263,199,174788,1,0,3:2:0:0:
263,199,174860,1,14,0:2:0:0:
263,199,175574,6,0,P|297:175|352:178,1,80.9999975280763,10|0,0:0|0:0,0:0:0:0:
212,258,175717,2,0,P|188:224|191:169,1,80.9999975280763,10|0,0:0|0:0,0:0:0:0:
374,238,175860,2,0,P|377:279|347:325,1,80.9999975280763,10|0,0:0|0:0,0:0:0:0:
256,384,176003,5,14,0:2:0:0:
256,192,176038,12,2,178288,0:2:0:0:
