osu file format v14

[General]
AudioFilename: audio.mp3
AudioLeadIn: 0
PreviewTime: 62567
Countdown: 0
SampleSet: Normal
StackLeniency: 0.3
Mode: 0
LetterboxInBreaks: 0
WidescreenStoryboard: 1

[Editor]
DistanceSpacing: 2.8
BeatDivisor: 8
GridSize: 8
TimelineZoom: 1.4

[Metadata]
Title:White Happy feat. Anna Nyui
TitleUnicode:ホワイトハッピー feat. 暗鳴ニュイ
Artist:MARETU
ArtistUnicode:MARETU
Creator:josh1024
Version:Insane
Source:
Tags:howaito happii akem RenjiTakuma utau vocaloid hatsune miku 極悪P れんじ 初音ミク ボカロ ミリオン
BeatmapID:2507708
BeatmapSetID:887036

[Difficulty]
HPDrainRate:5.5
CircleSize:4.2
OverallDifficulty:6
ApproachRate:8.8
SliderMultiplier:1.8
SliderTickRate:1

[Events]
//Background and Video events
0,0,"White Happy.jpg",0,0
//Break Periods
//Storyboard Layer 0 (Background)
//Storyboard Layer 1 (Fail)
//Storyboard Layer 2 (Pass)
//Storyboard Layer 3 (Foreground)
//Storyboard Layer 4 (Overlay)
//Storyboard Sound Samples

[TimingPoints]
1635,375,4,1,0,70,1,0
1635,-166.666666666667,4,1,0,70,0,0
3135,-100,4,1,0,70,0,0
14385,-125,4,1,0,70,0,0
15135,-100,4,1,0,70,0,0
31260,-83.3333333333333,4,1,0,70,0,0
31635,-71.4285714285714,4,1,0,70,0,0
32385,-100,4,1,0,70,0,0
37260,-83.3333333333333,4,1,0,70,0,0
37635,-62.5,4,1,0,70,0,0
38010,-111.111111111111,4,1,0,70,0,0
39135,-100,4,1,0,70,0,0
44385,-133.333333333333,4,1,0,70,0,0
44760,-153.846153846154,4,1,0,70,0,0
45135,-100,4,1,0,70,0,0
51135,-200,4,1,0,70,0,0
54135,250,6,1,0,70,1,0
54135,-181.818181818182,6,1,0,70,0,0
60135,375,4,1,0,70,1,0
60135,-100,4,1,0,70,0,0
63510,-90.9090909090909,4,1,0,70,0,0
65572,-125,4,1,0,70,0,0
66135,-86.9565217391304,4,1,0,70,0,1
77385,-76.9230769230769,4,1,0,70,0,1
77760,-86.9565217391304,4,1,0,70,0,1
78135,-66.6666666666667,4,1,0,70,0,1
78510,-125,4,1,0,70,0,1
81885,-100,4,1,0,70,0,1
82635,-86.9565217391304,4,1,0,70,0,1
89385,-111.111111111111,4,1,0,70,0,0

[Colours]
Combo1 : 221,34,38
Combo2 : 106,106,106
Combo3 : 180,180,180
Combo4 : 157,2,41

[HitObjects]
60,305,1635,5,0,0:0:0:0:
60,305,2010,1,0,0:0:0:0:
60,305,2385,1,0,0:0:0:0:
25,150,2572,5,0,0:0:0:0:
170,176,2760,2,0,P|133:190|97:188,1,53.9999983520508
294,64,3135,5,0,0:0:0:0:
185,185,4447,5,0,0:0:0:0:
303,97,4635,1,0,0:0:0:0:
200,194,5947,5,0,0:0:0:0:
319,162,6135,2,0,P|327:206|321:250,1,90
225,312,6510,1,0,0:0:0:0:
202,310,6603,1,0,0:0:0:0:
179,308,6697,2,0,L|123:302,1,45
43,251,6885,6,0,P|38:198|48:157,1,90
133,90,7260,1,0,0:0:0:0:
156,88,7353,1,0,0:0:0:0:
179,86,7447,2,0,L|235:80,1,45
338,92,7635,6,0,P|368:48|380:8,1,90
334,213,8010,2,0,P|285:190|255:161,1,90
411,277,8385,1,0,0:0:0:0:
508,246,9135,5,0,0:0:0:0:
366,307,10447,5,0,0:0:0:0:
503,231,10635,1,0,0:0:0:0:
319,306,11947,5,0,0:0:0:0:
416,176,12135,2,0,P|463:116|382:131,1,180
297,162,12697,2,0,P|246:169|193:127,1,90
84,58,13072,1,0,0:0:0:0:
130,125,13260,2,0,L|112:220,1,90
205,69,13635,6,0,L|302:63,1,90
265,178,14010,2,0,L|362:184,1,90
212,290,14385,2,0,L|354:313,1,144
353,313,15135,6,0,P|368:270|371:225,1,90
297,55,15510,2,0,P|280:96|278:140,1,90
481,184,15885,1,0,0:0:0:0:
395,147,16072,1,0,0:0:0:0:
185,207,16260,2,0,L|288:218,1,90
481,203,16635,5,0,0:0:0:0:
395,147,16822,1,0,0:0:0:0:
373,305,17010,1,0,0:0:0:0:
401,44,17197,2,0,B|358:53|329:46|312:33|312:33|307:52|287:75|243:90,1,180
78,87,17760,1,0,0:0:0:0:
162,115,17947,1,0,0:0:0:0:
91,250,18135,6,0,L|-7:261,1,90
229,180,18510,2,0,L|318:169,1,90
62,168,18885,1,0,0:0:0:0:
78,87,19072,1,0,0:0:0:0:
184,266,19260,2,0,P|191:310|183:354,1,90
62,168,19635,5,0,0:0:0:0:
67,59,19822,1,0,0:0:0:0:
258,231,20010,1,0,0:0:0:0:
62,168,20197,2,0,B|129:171|129:171|162:139|162:139|231:145,1,180
260,147,20666,1,0,0:0:0:0:
291,150,20760,2,0,P|331:136|389:148,1,90
512,262,21135,6,0,P|425:234|352:311,1,180
216,318,21791,1,0,0:0:0:0:
216,318,21885,2,0,B|181:311|181:311|112:324,2,90
365,352,22635,6,0,P|371:307|357:265,1,90
287,191,23010,1,0,0:0:0:0:
54,223,23197,2,0,P|123:273|205:244,1,180
183,50,23760,2,0,P|188:94|212:131,1,90
391,47,24135,6,0,L|293:58,1,90
466,164,24510,2,0,L|376:153,1,90
209,192,24791,1,0,0:0:0:0:
209,192,24885,2,0,B|252:182|252:182|296:212,1,90
289,207,25447,5,0,0:0:0:0:
289,207,25822,1,0,0:0:0:0:
289,207,26197,1,0,0:0:0:0:
201,192,26385,1,0,0:0:0:0:
366,173,26947,5,0,0:0:0:0:
184,194,27135,2,0,P|176:128|201:67,1,90
289,119,27510,2,0,P|297:53|272:-8,1,90
42,116,27885,1,0,0:0:0:0:
117,172,28072,1,0,0:0:0:0:
309,111,28260,1,0,0:0:0:0:
217,93,28447,1,0,0:0:0:0:
262,303,28635,6,0,P|270:237|245:176,1,90
88,253,29010,2,0,L|180:246,1,90
350,193,29291,1,0,0:0:0:0:
350,193,29385,2,0,L|260:199,1,90
106,291,29760,2,0,L|198:284,1,90
302,303,30041,5,0,0:0:0:0:
302,303,30135,2,0,P|357:297|399:324,1,90
500,361,30510,2,0,L|494:261,1,90
353,196,30885,1,0,0:0:0:0:
369,89,31072,1,0,0:0:0:0:
482,179,31260,2,0,L|513:74,1,107.999996704102
231,140,31635,6,0,L|237:3,1,125.999996154785
369,89,32385,5,0,0:0:0:0:
368,101,32478,1,0,0:0:0:0:
368,113,32572,1,0,0:0:0:0:
368,125,32666,1,0,0:0:0:0:
411,158,32760,1,0,0:0:0:0:
411,194,32853,1,0,0:0:0:0:
411,230,32947,1,0,0:0:0:0:
411,266,33041,1,0,0:0:0:0:
437,326,33135,6,0,P|395:305|340:311,1,90
236,275,33510,2,0,P|189:269|139:294,1,90
52,344,33791,2,0,B|98:338|98:338|148:363,1,90
183,384,34072,1,0,0:0:0:0:
217,169,34260,1,0,0:0:0:0:
234,250,34447,1,0,0:0:0:0:
96,48,34635,6,0,L|197:59,1,90
388,141,35010,2,0,L|298:131,1,90
113,90,35291,1,0,0:0:0:0:
113,90,35385,2,0,L|214:101,1,90
392,156,35760,2,0,L|302:146,1,90
491,27,36041,1,0,0:0:0:0:
491,27,36135,6,0,L|488:119,1,90
397,171,36510,2,0,P|393:215|412:255,1,90
269,87,36885,1,0,0:0:0:0:
403,186,37072,1,0,0:0:0:0:
186,216,37260,2,0,P|231:229|302:212,1,107.999996704102
26,217,37635,6,0,P|46:289|104:344,1,144
107,134,38010,2,0,L|149:128,3,40.4999987640381
221,60,38385,5,0,0:0:0:0:
245,54,38478,1,0,0:0:0:0:
269,48,38572,1,0,0:0:0:0:
317,83,38666,1,0,0:0:0:0:
341,85,38759,1,0,0:0:0:0:
366,88,38853,1,0,0:0:0:0:
395,37,38947,1,0,0:0:0:0:
419,31,39040,1,0,0:0:0:0:
461,20,39135,5,0,0:0:0:0:
479,246,39322,1,0,0:0:0:0:
405,218,39510,1,0,0:0:0:0:
333,251,39697,1,0,0:0:0:0:
322,161,39885,1,0,0:0:0:0:
261,125,40073,1,0,0:0:0:0:
194,142,40260,1,0,0:0:0:0:
158,66,40447,2,0,P|113:45|58:61,1,90
389,127,40822,5,0,0:0:0:0:
441,63,41010,1,0,0:0:0:0:
469,139,41197,1,0,0:0:0:0:
182,237,41385,1,0,0:0:0:0:
249,201,41572,1,0,0:0:0:0:
304,256,41760,1,0,0:0:0:0:
269,323,41947,1,0,0:0:0:0:
194,311,42135,6,0,L|97:297,1,90
28,61,42510,2,0,P|57:122|45:191,1,135
9,239,42885,2,0,P|53:212|102:211,1,90
182,237,43260,1,0,0:0:0:0:
224,150,43447,2,0,P|261:174|305:180,1,90
156,53,43822,5,0,0:0:0:0:
182,237,44010,1,0,0:0:0:0:
224,150,44197,1,0,0:0:0:0:
182,237,44385,2,0,L|109:225,1,67.5000025749208
213,333,44760,2,0,L|95:313,1,116.999994644165
292,184,45322,5,0,0:0:0:0:
101,227,45510,1,0,0:0:0:0:
141,141,45697,1,0,0:0:0:0:
40,156,45885,1,0,0:0:0:0:
101,227,46072,1,0,0:0:0:0:
79,74,46260,1,0,0:0:0:0:
101,227,46447,2,0,P|140:233|186:214,1,90
272,39,46822,5,0,0:0:0:0:
323,265,47010,1,0,0:0:0:0:
240,238,47197,1,0,0:0:0:0:
370,122,47385,1,0,0:0:0:0:
388,207,47572,1,0,0:0:0:0:
222,154,47760,1,0,0:0:0:0:
287,94,47947,1,0,0:0:0:0:
323,265,48135,2,0,P|282:283|238:277,1,90
287,94,48510,6,0,L|378:96,1,90
404,96,48791,1,0,0:0:0:0:
431,97,48885,1,0,0:0:0:0:
292,184,49072,1,0,0:0:0:0:
479,90,49260,2,0,P|489:145|472:198,1,90
202,173,49635,6,0,L|111:175,1,90
85,175,49916,1,0,0:0:0:0:
58,176,50010,1,0,0:0:0:0:
278,230,50197,1,0,0:0:0:0:
54,257,50385,5,0,0:0:0:0:
49,274,50478,1,0,0:0:0:0:
56,290,50572,1,0,0:0:0:0:
51,307,50666,1,0,0:0:0:0:
84,351,50760,1,0,0:0:0:0:
116,326,50853,1,0,0:0:0:0:
155,314,50947,1,0,0:0:0:0:
195,315,51041,1,0,0:0:0:0:
232,330,51135,1,0,0:0:0:0:
232,330,51510,6,0,L|302:325,1,67.5
378,331,51885,1,0,0:0:0:0:
219,335,52072,1,0,0:0:0:0:
145,352,52447,1,0,0:0:0:0:
131,353,52541,1,0,0:0:0:0:
114,322,52635,5,0,0:0:0:0:
115,292,52728,1,0,0:0:0:0:
152,268,52822,1,0,0:0:0:0:
153,240,52915,1,0,0:0:0:0:
132,196,53010,2,0,L|132:164,3,22.5
106,103,53385,5,0,0:0:0:0:
166,71,53510,5,0,0:0:0:0:
231,91,53635,5,0,0:0:0:0:
279,131,53760,5,0,0:0:0:0:
334,145,53885,5,0,0:0:0:0:
383,125,54010,5,0,0:0:0:0:
466,26,54135,6,0,P|427:18|398:29,1,49.5000015106202
359,69,54385,2,0,L|370:125,1,49.5000015106202
447,140,54635,2,0,L|442:196,1,49.5000015106202
453,280,54885,1,0,0:0:0:0:
453,280,55135,2,0,P|414:288|385:277,1,49.5000015106202
331,255,55385,2,0,P|306:250|282:256,1,49.5000015106202
223,333,55635,6,0,L|112:321,1,99.0000030212403
124,322,56135,1,0,0:0:0:0:
124,322,56385,2,0,P|135:269|119:229,1,99.0000030212403
118,228,56885,1,0,0:0:0:0:
118,228,57135,6,0,B|108:203|90:187|90:187|103:168|107:138,1,99.0000030212403
104,143,57635,1,0,0:0:0:0:
104,143,57885,2,0,P|127:134|145:117,1,49.5000015106202
219,38,58135,2,0,P|214:62|220:86,1,49.5000015106202
260,155,58385,2,0,P|278:170|302:178,1,49.5000015106202
438,65,58635,6,0,P|388:85|364:129,1,99.0000030212403
365,122,59135,1,0,0:0:0:0:
371,144,59260,1,0,0:0:0:0:
375,166,59385,2,0,L|361:278,2,99.0000030212403
127,40,60135,6,0,L|141:152,1,90
277,152,60416,1,0,0:0:0:0:
277,152,60510,2,0,L|263:264,1,90
398,270,60885,1,0,0:0:0:0:
175,306,61072,2,0,P|204:338|247:349,1,90
174,141,61447,1,0,0:0:0:0:
174,141,61541,1,0,0:0:0:0:
174,141,61635,6,0,L|274:149,1,90
297,265,62010,1,0,0:0:0:0:
372,71,62197,2,0,P|391:110|386:155,1,90
155,71,62572,1,0,0:0:0:0:
165,185,62760,1,0,0:0:0:0:
137,24,62947,1,0,0:0:0:0:
162,286,63135,6,0,P|115:251|85:214,1,90
298,225,63510,2,0,P|285:152|293:66,1,148.50000453186
162,286,63885,1,0,0:0:0:0:
106,240,64072,1,0,0:0:0:0:
59,185,64260,1,0,0:0:0:0:
298,225,64447,5,0,0:0:0:0:
298,225,64822,1,0,0:0:0:0:
298,225,65572,2,0,L|373:225,2,72
98,209,66135,6,0,P|135:252|134:313,1,103.500001974106
260,65,66510,2,0,P|241:118|187:148,1,103.500001974106
298,225,66885,2,0,P|353:214|406:245,1,103.500001974106
253,324,67260,1,0,0:0:0:0:
340,140,67447,1,0,0:0:0:0:
246,338,67635,6,0,L|232:230,1,103.500001974106
410,250,68010,1,0,0:0:0:0:
493,30,68197,1,0,0:0:0:0:
368,140,68385,2,0,B|352:91|294:75|294:75|266:133|294:177,1,207.000003948212
169,150,68947,1,0,0:0:0:0:
160,358,69135,6,0,L|174:250,1,103.500001974106
40,266,69510,1,0,0:0:0:0:
10,51,69697,1,0,0:0:0:0:
150,150,69885,2,0,B|137:114|161:66|161:66|179:82,1,103.500001974106
173,255,70260,1,0,0:0:0:0:
328,177,70447,1,0,0:0:0:0:
160,247,70635,6,0,P|139:197|153:146,1,103.500001974106
316,188,71010,1,0,0:0:0:0:
305,312,71197,1,0,0:0:0:0:
143,239,71385,2,0,P|122:189|136:138,1,103.500001974106
304,198,71760,2,0,P|324:247|310:298,1,103.500001974106
423,116,72135,6,0,L|421:10,1,103.500001974106
458,327,72510,2,0,P|489:286|491:236,1,103.500001974106
304,198,72885,2,0,P|350:218|400:207,1,103.500001974106
258,271,73260,1,0,0:0:0:0:
218,94,73447,1,0,0:0:0:0:
157,356,73635,6,0,L|171:248,1,103.500001974106
36,285,74010,1,0,0:0:0:0:
0,69,74197,1,0,0:0:0:0:
126,155,74385,2,0,B|163:133|184:98|184:98|233:165|186:212,1,207.000003948212
304,198,74947,1,0,0:0:0:0:
469,328,75135,6,0,L|483:220,1,103.500001974106
374,262,75510,1,0,0:0:0:0:
329,46,75697,1,0,0:0:0:0:
471,190,75885,1,0,0:0:0:0:
475,15,76072,1,0,0:0:0:0:
463,46,76166,1,0,0:0:0:0:
447,75,76260,2,0,B|423:118|404:140|404:140|375:118,1,103.500001974106
133,140,76635,6,0,P|196:144|252:131,1,103.500001974106
407,236,77010,2,0,L|298:223,1,103.500001974106
105,81,77385,2,0,P|163:110|228:115,1,116.999994644165
397,223,77760,2,0,L|288:210,1,103.500001974106
123,8,78135,6,0,B|169:73|246:88,1,135.000005149842
387,210,78510,1,0,0:0:0:0:
303,190,78697,2,0,P|262:192|232:211,1,72
95,272,79072,2,0,L|88:357,2,72
18,109,79635,6,0,P|49:125|85:126,1,72
157,118,80010,1,0,0:0:0:0:
222,87,80197,1,0,0:0:0:0:
474,174,80385,2,0,P|398:189|319:164,1,144
270,141,80947,1,0,0:0:0:0:
13,122,81135,6,0,P|44:138|80:139,1,72
152,131,81510,1,0,0:0:0:0:
217,100,81697,1,0,0:0:0:0:
478,188,81885,2,0,P|428:202|387:193,1,90
280,65,82260,2,0,P|329:50|370:59,1,90
136,226,82635,6,0,P|128:172|155:126,1,103.500001974106
284,242,83010,1,0,0:0:0:0:
266,336,83197,1,0,0:0:0:0:
122,232,83385,2,0,P|114:178|141:132,1,103.500001974106
270,248,83760,2,0,P|276:300|249:346,1,103.500001974106
395,184,84135,6,0,L|505:177,1,103.500001974106
230,137,84510,2,0,P|280:130|318:96,1,103.500001974106
353,278,84885,2,0,P|383:318|432:334,1,103.500001974106
287,331,85260,1,0,0:0:0:0:
387,173,85447,1,0,0:0:0:0:
270,248,85635,5,0,0:0:0:0:
169,147,85822,1,0,0:0:0:0:
253,164,86010,1,0,0:0:0:0:
270,0,86197,1,0,0:0:0:0:
159,135,86385,2,0,B|118:75|118:75|47:137|94:198,1,207.000003948212
262,150,86947,1,0,0:0:0:0:
149,343,87135,5,0,0:0:0:0:
254,244,87322,1,0,0:0:0:0:
159,265,87510,1,0,0:0:0:0:
108,58,87697,1,0,0:0:0:0:
171,187,87885,1,0,0:0:0:0:
334,6,88072,1,0,0:0:0:0:
326,37,88166,1,0,0:0:0:0:
313,66,88260,2,0,B|292:104|279:120|279:120|254:107|227:106,1,103.500001974106
159,265,88635,5,0,0:0:0:0:
265,239,88822,1,0,0:0:0:0:
265,239,88916,1,0,0:0:0:0:
348,315,89103,1,0,0:0:0:0:
348,315,89197,1,0,0:0:0:0:
413,218,89385,5,0,0:0:0:0:
413,218,89478,2,0,P|407:168|410:125,1,80.9999975280763
416,72,89760,1,0,0:0:0:0:
386,88,89853,1,0,0:0:0:0:
353,94,89947,1,0,0:0:0:0:
320,91,90041,1,0,0:0:0:0:
250,57,90135,5,0,0:0:0:0:
250,57,90510,2,0,P|257:107|249:136,1,80.9999975280763
28,177,90885,2,0,P|74:195|95:217,1,80.9999975280763
128,331,91260,1,0,0:0:0:0:
170,260,91447,1,0,0:0:0:0:
149,364,91635,5,0,0:0:0:0:
149,364,92010,1,0,0:0:0:0:
256,192,92197,12,0,94635,0:0:0:0:
