osu file format v14

[General]
AudioFilename: audio.mp3
AudioLeadIn: 0
PreviewTime: 62567
Countdown: 0
SampleSet: Normal
StackLeniency: 0.5
Mode: 0
LetterboxInBreaks: 0
WidescreenStoryboard: 1

[Editor]
DistanceSpacing: 1.4
BeatDivisor: 4
GridSize: 8
TimelineZoom: 1.5

[Metadata]
Title:White Happy feat. Anna Nyui
TitleUnicode:ホワイトハッピー feat. 暗鳴ニュイ
Artist:MARETU
ArtistUnicode:MARETU
Creator:josh1024
Version:Hard
Source:
Tags:howaito happii akem RenjiTakuma utau vocaloid hatsune miku 極悪P れんじ 初音ミク ボカロ ミリオン
BeatmapID:2507707
BeatmapSetID:887036

[Difficulty]
HPDrainRate:5
CircleSize:3.8
OverallDifficulty:6
ApproachRate:7
SliderMultiplier:1.5
SliderTickRate:1

[Events]
//Background and Video events
0,0,"White Happy.jpg",0,0
//Break Periods
2,51335,53235
//Storyboard Layer 0 (Background)
//Storyboard Layer 1 (Fail)
//Storyboard Layer 2 (Pass)
//Storyboard Layer 3 (Foreground)
//Storyboard Layer 4 (Overlay)
//Storyboard Sound Samples

[TimingPoints]
1635,375,4,1,0,70,1,0
39135,-111.111111111111,4,1,0,70,0,0
42135,-100,4,1,0,70,0,0
54135,250,6,1,0,70,1,0
54135,-181.818181818182,6,1,0,70,0,0
60135,375,4,1,0,70,1,0
60135,-100,4,1,0,70,0,0
65572,-111.111111111111,4,1,0,70,0,0
66135,-90.9090909090909,4,1,0,70,0,1
90135,-111.111111111111,4,1,0,70,0,0

[Colours]
Combo1 : 221,34,38
Combo2 : 106,106,106
Combo3 : 180,180,180
Combo4 : 157,2,41

[HitObjects]
55,316,1635,5,0,0:0:0:0:
55,316,2010,1,0,0:0:0:0:
55,316,2385,1,0,0:0:0:0:
146,288,2572,6,0,P|146:343|122:384,2,75
104,173,3135,5,0,0:0:0:0:
286,244,4447,5,0,0:0:0:0:
268,140,4635,1,0,0:0:0:0:
463,201,5947,5,0,0:0:0:0:
490,109,6135,2,0,P|434:58|368:74,1,150
314,160,6697,1,0,0:0:0:0:
314,160,6791,1,0,0:0:0:0:
314,160,6885,2,0,P|243:175|191:125,1,150
113,33,7447,1,0,0:0:0:0:
113,33,7541,1,0,0:0:0:0:
113,33,7635,6,0,P|59:27|21:42,1,75
72,135,8010,2,0,P|24:160|1:195,1,75
107,232,8385,1,0,0:0:0:0:
107,232,9135,5,0,0:0:0:0:
295,131,10447,5,0,0:0:0:0:
285,223,10635,1,0,0:0:0:0:
512,199,11947,5,0,0:0:0:0:
473,299,12135,2,0,B|460:325|455:346|455:346|405:333|346:333,1,150
255,370,12697,2,0,P|217:311|123:314,1,150
36,345,13260,2,0,P|36:299|29:252,1,75
7,182,13635,6,0,L|107:189,1,75
110,110,14010,2,0,L|35:104,1,75
20,22,14385,2,0,L|171:33,1,150
169,32,15135,6,0,P|209:29|254:66,1,75
297,132,15510,2,0,P|330:148|367:145,1,75
438,69,15885,2,0,L|513:63,2,75
190,113,16635,6,0,B|195:151|195:151|180:184,1,75
117,257,17010,1,0,0:0:0:0:
246,261,17197,2,0,B|336:268|336:268|364:288|364:288|392:291,1,150
470,226,17760,2,0,P|444:199|408:189,1,75
389,291,18135,6,0,P|392:331|355:376,1,75
279,324,18510,2,0,P|238:323|195:361,1,75
109,352,18885,2,0,L|34:346,2,75
345,208,19635,6,0,P|343:170|322:139,1,75
235,89,20010,1,0,0:0:0:0:
217,247,20197,2,0,B|236:278|236:278|115:267,1,150
88,264,20666,1,0,0:0:0:0:
54,261,20760,2,0,P|71:228|69:191,1,75
20,107,21135,6,0,B|36:33|36:33|112:55,1,150
205,90,21697,1,0,0:0:0:0:
205,90,21791,1,0,0:0:0:0:
205,90,21885,2,0,B|241:100|241:100|279:77,2,75
91,213,22635,6,0,P|142:223|180:250,1,75
228,298,23010,1,0,0:0:0:0:
278,202,23197,2,0,P|317:161|415:175,1,150
505,204,23760,2,0,P|484:147|495:103,1,75
501,51,24135,6,0,L|426:57,1,75
330,26,24510,2,0,L|255:32,1,75
244,64,24791,1,0,0:0:0:0:
228,94,24885,2,0,P|190:90|155:101,1,75
375,164,25447,6,0,B|404:203|404:203|374:319,2,150
263,193,26385,1,0,0:0:0:0:
263,193,26947,5,0,0:0:0:0:
213,98,27135,2,0,P|150:80|81:127,1,150
133,320,27885,2,0,L|141:225,1,75
235,207,28260,2,0,L|243:301,1,75
337,319,28635,6,0,P|372:329|409:325,2,75
349,230,29197,1,0,0:0:0:0:
349,230,29291,1,0,0:0:0:0:
349,230,29385,2,0,L|362:78,1,150
435,20,29947,1,0,0:0:0:0:
512,70,30135,6,0,P|516:107|505:142,1,75
446,205,30510,2,0,P|435:240|439:277,1,75
479,362,30885,1,0,0:0:0:0:
375,324,31072,1,0,0:0:0:0:
267,366,31260,2,0,P|200:303|139:317,1,150
61,363,31822,1,0,0:0:0:0:
61,363,32385,6,0,L|53:315,3,37.5
22,277,32760,2,0,L|30:229,3,37.5
71,200,33135,6,0,L|58:48,1,150
240,47,33791,2,0,B|247:79|247:79|240:102|240:102|248:129|248:129|241:154,1,112.5
176,212,34260,2,0,P|213:207|248:217,1,75
340,270,34635,6,0,B|378:273|378:273|410:256,2,75
300,363,35197,1,0,0:0:0:0:
300,363,35291,1,0,0:0:0:0:
300,363,35385,2,0,L|452:376,1,150
504,295,35947,1,0,0:0:0:0:
410,256,36135,6,0,P|399:221|403:184,1,75
438,97,36510,2,0,P|403:86|366:90,1,75
271,132,36885,1,0,0:0:0:0:
195,49,37072,1,0,0:0:0:0:
90,117,37260,2,0,B|123:152|123:152|119:258,1,150
101,355,37822,1,0,0:0:0:0:
200,346,38010,2,0,L|296:337,1,75
394,321,38385,6,0,L|385:280,2,37.5
448,345,38666,2,0,L|444:383,2,37.5
496,308,38947,1,0,0:0:0:0:
496,308,39041,1,0,0:0:0:0:
496,308,39135,6,0,L|493:234,1,67.4999979400635
512,159,39510,2,0,P|477:148|440:152,1,67.4999979400635
375,194,39885,2,0,L|223:207,1,134.999995880127
162,286,40447,2,0,P|147:207|99:176,1,134.999995880127
0,156,41010,6,0,P|30:136|51:105,1,67.4999979400635
18,24,41385,2,0,L|170:37,2,134.999995880127
182,121,42510,6,0,L|298:130,1,112.5
330,132,42885,2,0,P|331:168|320:203,1,75
252,271,43260,1,0,0:0:0:0:
338,314,43447,2,0,P|407:314|462:259,1,150
456,173,44010,2,0,B|439:141|439:141|442:103,1,75
475,12,44385,5,0,0:0:0:0:
310,26,44760,1,0,0:0:0:0:
145,40,45135,6,0,L|70:46,1,75
26,136,45510,2,0,L|101:142,1,75
172,206,45885,2,0,P|176:243|165:278,1,75
111,354,46260,1,0,0:0:0:0:
230,334,46447,2,0,B|267:330|267:330|300:346,1,75
382,384,46822,5,0,0:0:0:0:
455,318,47010,2,0,P|457:279|445:245,1,75
353,215,47385,2,0,L|359:140,1,75
460,124,47760,1,0,0:0:0:0:
466,33,47947,1,0,0:0:0:0:
369,9,48135,6,0,L|294:15,1,75
198,56,48510,2,0,P|160:51|125:62,1,75
101,86,48791,1,0,0:0:0:0:
85,116,48885,2,0,L|10:110,2,75
184,266,49635,6,0,P|221:261|256:272,1,75
281,296,49916,1,0,0:0:0:0:
297,326,50010,2,0,L|372:320,1,75
436,232,50385,6,0,L|428:184,3,37.5
375,166,50760,2,0,L|383:118,3,37.5
416,78,51135,1,0,0:0:0:0:
29,181,54135,6,0,P|63:166|121:179,1,82.5000025177003
176,216,54635,1,0,0:0:0:0:
240,267,54885,2,0,P|280:272|318:257,1,82.5000025177003
377,198,55385,1,0,0:0:0:0:
510,122,55635,6,0,B|498:244|498:244|472:219|448:209,1,165.000005035401
377,198,56385,2,0,L|385:295,1,82.5000025177003
389,362,56885,1,0,0:0:0:0:
313,327,57135,6,0,P|279:312|221:325,1,82.5000025177003
161,354,57635,1,0,0:0:0:0:
91,310,57885,2,0,L|-6:302,2,82.5000025177003
164,270,58635,6,0,P|179:236|166:178,1,82.5000025177003
86,170,59135,1,0,0:0:0:0:
86,170,59260,1,0,0:0:0:0:
86,170,59385,2,0,L|78:73,2,82.5000025177003
171,20,60135,6,0,B|203:37|203:37|241:34,1,75
340,22,60510,1,0,0:0:0:0:
411,98,60697,1,0,0:0:0:0:
507,65,60885,2,0,L|494:217,1,150
485,308,61447,1,0,0:0:0:0:
393,269,61635,5,0,0:0:0:0:
308,326,61822,1,0,0:0:0:0:
248,240,62010,2,0,P|189:223|112:287,1,150
18,310,62572,2,0,L|12:385,2,75
0,190,63135,6,0,P|34:175|59:148,1,75
115,40,63510,2,0,P|135:85|208:118,1,112.5
238,124,63885,2,0,B|222:158|222:158|227:194,2,75
274,289,64447,5,0,0:0:0:0:
274,289,64822,1,0,0:0:0:0:
277,311,65572,2,0,L|204:311,2,67.4999979400635
403,312,66135,6,0,P|386:272|354:245,1,82.5000025177003
434,175,66510,2,0,P|460:141|467:99,1,82.5000025177003
310,40,66885,2,0,L|392:33,1,82.5000025177003
206,87,67260,1,0,0:0:0:0:
121,4,67447,1,0,0:0:0:0:
33,107,67635,6,0,P|24:150|-3:182,1,82.5000025177003
88,243,68010,1,0,0:0:0:0:
91,357,68197,1,0,0:0:0:0:
88,243,68385,2,0,P|138:195|233:214,1,165.000005035401
294,283,68947,1,0,0:0:0:0:
192,280,69135,6,0,P|201:237|228:205,1,82.5000025177003
138,135,69510,1,0,0:0:0:0:
171,26,69697,1,0,0:0:0:0:
138,135,69885,2,0,L|40:141,1,82.5000025177003
251,106,70260,2,0,B|292:100|292:100|333:114,1,82.5000025177003
405,257,70635,6,0,L|414:163,1,82.5000025177003
512,139,71010,2,0,L|505:222,1,82.5000025177003
375,351,71385,2,0,L|384:257,1,82.5000025177003
482,233,71760,2,0,L|475:316,1,82.5000025177003
250,274,72135,6,0,P|267:234|299:207,1,82.5000025177003
205,147,72510,2,0,P|178:112|171:71,1,82.5000025177003
333,18,72885,2,0,L|245:4,1,82.5000025177003
407,114,73260,1,0,0:0:0:0:
512,83,73447,1,0,0:0:0:0:
407,114,73635,6,0,P|405:158|423:196,1,82.5000025177003
330,256,74010,1,0,0:0:0:0:
327,370,74197,1,0,0:0:0:0:
330,256,74385,2,0,B|256:220|256:220|175:239,1,165.000005035401
61,267,74947,1,0,0:0:0:0:
164,318,75135,6,0,P|178:277|174:236,1,82.5000025177003
125,140,75510,1,0,0:0:0:0:
168,25,75697,1,0,0:0:0:0:
125,140,75885,2,0,L|209:130,1,82.5000025177003
243,148,76166,1,0,0:0:0:0:
278,168,76260,2,0,P|318:164|356:179,1,82.5000025177003
304,276,76635,6,0,L|331:103,1,165.000005035401
72,42,77385,2,0,B|108:58|147:40|147:40|192:19|233:37,1,165.000005035401
410,216,78135,6,0,P|427:143|508:120,2,165.000005035401
492,276,79072,1,0,0:0:0:0:
414,220,79260,2,0,L|330:224,1,82.5000025177003
267,305,79635,6,0,B|163:355|163:355|106:341,1,165.000005035401
20,317,80197,1,0,0:0:0:0:
63,209,80385,2,0,B|106:223|106:223|114:343,1,165.000005035401
193,125,81135,6,0,B|306:164|306:164|353:143,1,165.000005035401
443,106,81697,1,0,0:0:0:0:
339,32,81885,2,0,B|325:75|325:75|341:120|341:121,1,82.5000025177003
362,267,82260,2,0,B|376:224|376:224|360:179|360:178,1,82.5000025177003
174,289,82635,6,0,L|259:280,1,82.5000025177003
274,178,83010,2,0,L|191:186,1,82.5000025177003
10,242,83385,2,0,L|95:233,1,82.5000025177003
110,131,83760,2,0,L|27:139,1,82.5000025177003
174,289,84135,6,0,P|188:248|184:207,1,82.5000025177003
205,104,84510,2,0,P|245:108|284:94,1,82.5000025177003
96,108,84885,2,0,L|101:25,1,82.5000025177003
4,154,85260,1,0,0:0:0:0:
56,243,85447,1,0,0:0:0:0:
47,342,85635,6,0,P|87:355|116:386,1,82.5000025177003
206,282,86010,1,0,0:0:0:0:
310,324,86197,1,0,0:0:0:0:
206,282,86385,2,0,L|218:102,1,165.000005035401
169,18,86947,1,0,0:0:0:0:
216,117,87135,6,0,P|253:133|294:133,1,82.5000025177003
327,249,87510,1,0,0:0:0:0:
434,211,87697,1,0,0:0:0:0:
327,249,87885,6,0,P|286:248|248:265,1,82.5000025177003
218,291,88166,1,0,0:0:0:0:
203,324,88260,2,0,L|121:331,1,82.5000025177003
131,219,88635,6,0,L|48:200,1,82.5000025177003
28,171,88916,2,0,L|108:188,1,82.5000025177003
188,120,89197,6,0,L|104:108,1,82.5000025177003
85,53,89478,2,0,L|166:63,1,82.5000025177003
225,54,89760,2,0,L|276:43,3,41.2500012588501
325,30,90135,6,0,B|340:73|340:73|329:116|329:116|345:159,1,134.999995880127
375,243,90697,1,0,0:0:0:0:
294,280,90885,2,0,P|260:281|231:265,1,67.4999979400635
161,119,91260,2,0,P|178:147|179:180,1,67.4999979400635
104,251,91635,5,0,0:0:0:0:
104,251,92010,1,0,0:0:0:0:
256,192,92197,12,0,94635,0:0:0:0:
