osu file format v14

[General]
AudioFilename: audio.mp3
AudioLeadIn: 0
PreviewTime: 183524
Countdown: 0
SampleSet: Normal
StackLeniency: 1
Mode: 0
LetterboxInBreaks: 0
SkinPreference:User
WidescreenStoryboard: 1

[Editor]
Bookmarks: 7117,23618,47593,104893,140146,199645
DistanceSpacing: 0.9
BeatDivisor: 12
GridSize: 32
TimelineZoom: 1

[Metadata]
Title:Brain Revolution Girl Feat. Reol & Ill.bell
TitleUnicode:脳内革命ガール
Artist:MARETU
ArtistUnicode:MARETU
Creator:Sylvie_poi
Version:FU@KED UP BOT ! (Insane)
Source:地獄型人間動物園
Tags:Reol Ill.bell Brain_Revolution_Girl MARETU Japanese
BeatmapID:1355746
BeatmapSetID:639192

[Difficulty]
HPDrainRate:5
CircleSize:3.8
OverallDifficulty:7
ApproachRate:8
SliderMultiplier:1.3
SliderTickRate:2

[Events]
//Background and Video events
0,0,"fuckup.jpg",0,0
Video,0,"Brain Revolution Girl by Reol and ill.bell _____ _臡_____ _ill.bell_.mp4"
//Break Periods
2,132668,137152
2,144452,147542
2,184005,187584
//Storyboard Layer 0 (Background)
Sprite,Background,Centre,"photo.jpg",320,240 M,0,216,,320,240
//Storyboard Layer 1 (Fail)
//Storyboard Layer 2 (Pass)
//Storyboard Layer 3 (Foreground)
//Storyboard Sound Samples

[TimingPoints]
286.451612903226,483.870967741935,4,1,0,100,1,0
621,-200,4,2,0,59,0,0
6947,245.901639344262,4,1,0,100,1,0
7047,-100,4,1,0,100,0,0
10225,-100,4,2,0,60,0,0
10278,-133.333333333333,4,1,0,100,0,0
10942,-200,4,1,0,100,0,0
17664,-100,4,1,0,100,0,0
22295,-200,4,1,0,100,0,1
24774,-133.333333333333,4,3,0,91,0,0
24874,-133.333333333333,4,3,0,91,0,0
27500,-100,4,2,0,100,0,0
29078,-66.6666666666667,4,2,0,100,0,0
31598,-100,4,1,0,100,0,0
40225,750,4,2,0,100,1,0
44294,245.901639344262,3,3,0,100,1,0
47490,-100,4,1,0,100,0,0
53876,163.934426229508,4,1,0,100,1,0
53876,-66.6666666666667,4,1,0,100,0,0
55583,245.901639344262,4,1,0,100,1,0
64089,491.803278688525,4,1,0,100,1,0
68392,-66.6666666666667,4,3,0,89,0,0
70851,-71.4285714285714,4,3,0,100,0,1
72306,-58.8235294117647,4,3,0,100,0,0
72358,245.901639344262,4,3,0,100,1,1
92050,500,4,3,0,100,1,0
99202,267.857142857143,4,1,0,100,1,0
107349,-50,4,3,0,100,0,0
107639,-100,4,2,0,100,0,0
112446,267.857142857143,4,2,0,100,1,0
114209,-200,4,1,0,100,0,0
121887,245.901639344262,4,3,0,100,1,0
128093,267.857142857143,4,1,0,100,1,1
132694,500,4,1,0,100,1,0
140191,267.857142857143,4,3,0,100,1,0
148092,600,4,2,0,100,1,0
162392,245.901639344262,4,1,0,100,1,1
183273,245.901639344262,4,3,0,100,1,0
183354,-200,4,3,0,100,0,0
199563,-80,4,3,0,100,0,0
216244,4000,4,3,0,100,1,0

[Colours]
Combo1 : 115,115,115
Combo2 : 255,255,255
Combo3 : 0,0,0
Combo4 : 226,16,21

[HitObjects]
160,352,7131,5,0,0:0:0:0:
192,288,7356,1,0,0:0:0:0:
448,128,7848,6,0,P|445:95|395:77,1,86.6666666666667
256,96,8442,1,0,0:0:0:0:
96,160,8709,2,0,P|85:187|94:199,1,43.3333333333333
288,224,9119,2,0,P|305:245|301:259,1,43.3333333333333
128,320,9487,2,0,P|108:330|88:339,1,43.3333333333333
96,96,10102,2,0,L|80:53,1,43.3333333333333
224,32,11106,21,0,0:0:0:0:
256,64,11311,1,0,0:0:0:0:
288,96,11496,1,0,0:0:0:0:
352,128,11844,1,0,0:0:0:0:
320,160,12049,2,0,P|336:230|399:220,1,146.25
288,192,13115,5,0,0:0:0:0:
128,192,13565,1,0,0:0:0:0:
288,128,14098,2,0,L|234:153,1,59.5833333333333
192,173,14692,5,0,0:0:0:0:
192,173,14795,6,0,P|184:234|235:253,1,124.583333333333
315,227,15512,1,0,0:0:0:0:
425,248,15840,2,0,L|442:276,1,32.5
392,270,16106,22,0,P|285:332|288:347,1,167.916666666667
320,352,16885,1,0,0:0:0:0:
256,288,17254,2,0,P|253:229|299:223,1,113.75
320,320,17992,2,0,P|362:310|395:325,1,75.8333333333333
447,331,18422,1,0,0:0:0:0:
447,204,18606,1,0,0:0:0:0:
447,331,18791,1,0,0:0:0:0:
447,204,18975,1,0,0:0:0:0:
320,288,19242,1,0,0:0:0:0:
320,288,19406,6,0,P|370:298|415:257,1,108.333333333333
416,224,19692,21,0,0:0:0:0:
352,160,19856,1,0,0:0:0:0:
288,224,20020,1,0,0:0:0:0:
192,192,20184,1,0,0:0:0:0:
192,192,20348,1,0,0:0:0:0:
192,192,20492,1,0,0:0:0:0:
128,256,20656,1,0,0:0:0:0:
192,320,20819,1,0,0:0:0:0:
256,256,20983,1,0,0:0:0:0:
256,192,21127,1,0,0:0:0:0:
320,160,21291,1,0,0:0:0:0:
384,224,21455,5,0,0:0:0:0:
320,288,21619,1,0,0:0:0:0:
256,224,21762,1,0,0:0:0:0:
160,192,21926,1,0,0:0:0:0:
224,128,22090,1,0,0:0:0:0:
352,160,22397,6,0,L|352:219,4,59.5833333333333
274,150,23627,5,0,0:0:0:0:
241,133,23893,1,0,0:0:0:0:
217,122,24078,1,0,0:0:0:0:
187,83,24426,2,0,P|152:167|169:191,1,130
224,192,24979,2,0,L|270:180,2,40.6250015497208
320,128,25348,1,0,0:0:0:0:
352,256,25615,1,0,0:0:0:0:
178,234,26004,6,0,L|137:296,1,73.1250027894975
192,288,26311,1,0,0:0:0:0:
373,109,26639,1,0,0:0:0:0:
188,53,26824,2,0,P|154:98|178:146,1,113.750004339218
224,160,27213,2,0,P|277:165|279:185,1,81.2500030994416
335,218,27664,6,0,B|317:201|317:201|282:200|282:200|257:214|257:214|252:234|252:234|291:248|291:248|296:300|296:300|321:299|321:299|319:292|319:292|313:285,1,238.333333333333
352,256,28176,2,0,B|388:212|418:282|437:228,1,97.5
282,147,28791,2,0,B|318:103|348:173|367:119,1,97.5
197,231,29283,2,0,B|233:187|263:257|282:203,1,97.50000371933
403,227,29692,1,0,0:0:0:0:
142,121,30123,5,0,0:0:0:0:
309,115,30287,1,0,0:0:0:0:
221,232,30430,1,0,0:0:0:0:
405,332,30635,1,0,0:0:0:0:
371,167,30799,1,0,0:0:0:0:
282,167,31127,2,0,L|360:169,2,65.0000024795533
277,106,31660,5,0,0:0:0:0:
297,277,31844,1,0,0:0:0:0:
242,253,32090,1,0,0:0:0:0:
157,160,32274,2,0,B|194:77|236:211|284:127,1,151.666666666667
422,124,32848,2,0,L|361:124,3,54.1666666666667
127,51,33401,1,0,0:0:0:0:
202,201,33647,1,0,0:0:0:0:
232,79,34016,6,0,L|162:80,1,65
192,160,34242,1,0,0:0:0:0:
389,104,34446,2,0,P|420:121|451:141,2,65
236,88,34897,1,0,0:0:0:0:
184,220,35123,1,0,0:0:0:0:
193,107,35594,6,0,L|435:108,1,238.333333333333
314,124,36434,2,0,B|355:140|366:176|373:86|418:121,1,119.166666666667
290,210,36844,1,0,0:0:0:0:
196,115,37192,2,0,B|153:98|143:62|136:152|91:117,1,119.166666666667
187,183,37541,1,0,0:0:0:0:
276,181,37725,1,0,0:0:0:0:
458,58,38074,6,0,P|404:80|427:120,1,119.166666666667
384,192,38483,1,0,0:0:0:0:
320,224,38647,1,0,0:0:0:0:
224,192,38852,1,0,0:0:0:0:
151,122,39016,2,0,P|187:103|276:110,1,130
358,166,39365,1,0,0:0:0:0:
294,248,39733,1,0,0:0:0:0:
211,187,39897,2,0,P|170:179|103:120,1,130
195,132,40350,6,0,P|303:106|432:275,1,346.666666666667
426,125,42912,1,0,0:0:0:0:
347,94,43350,1,0,0:0:0:0:
221,90,43912,1,0,0:0:0:0:
8,361,44416,1,0,0:0:0:0:
364,233,44970,1,0,0:0:0:0:
56,247,45400,1,0,0:0:0:0:
388,67,45974,1,0,0:0:0:0:
113,9,46384,1,0,0:0:0:0:
203,95,46568,1,0,0:0:0:0:
327,207,46814,1,0,0:0:0:0:
231,148,47060,1,0,0:0:0:0:
300,270,47285,1,0,0:0:0:0:
238,234,47593,5,0,0:0:0:0:
271,251,47859,1,0,0:0:0:0:
295,262,48043,1,0,0:0:0:0:
325,301,48392,2,0,P|360:217|343:193,1,130
255,258,48945,2,0,L|209:270,2,43.3333333333333
141,97,49314,1,0,0:0:0:0:
322,91,49580,1,0,0:0:0:0:
334,150,49970,6,0,L|375:88,1,65
312,157,50277,1,0,0:0:0:0:
139,275,50605,1,0,0:0:0:0:
324,331,50789,2,0,P|358:286|334:238,1,108.333333333333
215,217,51117,2,0,P|162:212|142:165,1,108.333333333333
177,166,51630,6,0,B|195:183|195:183|230:184|230:184|255:170|255:170|260:150|260:150|221:136|221:136|216:84|216:84|191:85|191:85|193:92|193:92|199:99,1,238.333333333333
160,96,52142,2,0,B|124:140|94:70|75:124,1,97.5
230,237,52757,2,0,B|194:281|164:211|145:265,1,97.5
315,153,53248,6,0,B|279:197|249:127|230:181,1,97.5
109,157,53658,1,0,0:0:0:0:
463,138,53889,1,0,0:0:0:0:
256,64,54149,5,0,0:0:0:0:
352,96,54258,1,0,0:0:0:0:
288,160,54367,1,0,0:0:0:0:
224,224,54477,1,0,0:0:0:0:
128,224,54586,1,0,0:0:0:0:
96,160,54750,1,0,0:0:0:0:
96,96,54859,1,0,0:0:0:0:
128,64,54968,1,0,0:0:0:0:
160,32,55078,1,0,0:0:0:0:
235,106,55583,5,0,0:0:0:0:
215,277,55767,1,0,0:0:0:0:
270,253,56013,1,0,0:0:0:0:
373,116,56197,2,0,B|336:33|294:167|246:83,1,151.666666666667
27,85,56771,2,0,L|88:85,3,54.1666666666667
296,93,57324,1,0,0:0:0:0:
284,220,57570,1,0,0:0:0:0:
280,79,57939,6,0,L|350:80,1,65
252,112,58164,1,0,0:0:0:0:
123,104,58369,2,0,P|92:121|61:141,2,65
276,88,58820,1,0,0:0:0:0:
328,220,59046,1,0,0:0:0:0:
319,107,59517,6,0,L|77:108,1,238.333333333333
198,124,60357,2,0,B|157:140|146:176|139:86|94:121,1,119.166666666667
222,210,60767,1,0,0:0:0:0:
316,115,61115,2,0,B|359:98|369:62|376:152|421:117,1,119.166666666667
325,183,61464,1,0,0:0:0:0:
236,181,61648,1,0,0:0:0:0:
251,48,62222,2,0,L|251:198,7,140.833333333333
280,180,64539,6,0,B|233:153|311:134|393:114|407:73|325:84,1,195
247,116,65728,2,0,P|200:150|211:177,1,97.5
254,179,66343,2,0,B|311:211|311:211|358:185,1,119.166666666667
373,132,67080,2,0,B|338:100|338:100|272:119,1,108.333333333333
382,82,67736,2,0,P|433:77|403:104,1,119.166666666667
171,190,68556,5,0,0:0:0:0:
263,91,68802,1,0,0:0:0:0:
336,168,69129,1,0,0:0:0:0:
309,222,69416,1,0,0:0:0:0:
282,285,69662,1,0,0:0:0:0:
381,161,69867,1,0,0:0:0:0:
462,135,70277,1,0,0:0:0:0:
462,135,70318,1,0,0:0:0:0:
365,44,70605,1,0,0:0:0:0:
290,196,70933,1,0,0:0:0:0:
290,196,70974,1,0,0:0:0:0:
297,72,71343,1,0,0:0:0:0:
297,72,71384,2,0,P|268:72|221:69,1,75.8333310190837
410,119,71875,6,0,P|443:145|403:162,1,90.9999972229005
217,178,72480,6,0,L|172:137,1,54.1666666666667
33,37,72890,2,0,L|103:36,1,65
292,35,73341,1,0,0:0:0:0:
291,98,73464,2,0,L|235:110,1,54.1666666666667
52,180,73915,2,0,P|16:278|157:318,1,281.666666666667
204,145,74776,1,0,0:0:0:0:
264,127,74898,1,0,0:0:0:0:
324,109,75021,1,0,0:0:0:0:
386,97,75144,1,0,0:0:0:0:
447,81,75267,1,0,0:0:0:0:
401,210,75534,5,0,0:0:0:0:
459,67,75698,1,0,0:0:0:0:
295,202,76026,2,0,B|262:180|234:175|260:128,1,97.5
387,243,76558,1,0,0:0:0:0:
160,288,76989,1,0,0:0:0:0:
192,288,77050,1,0,0:0:0:0:
224,288,77112,1,0,0:0:0:0:
320,192,77358,2,0,B|301:151|301:151|237:144,1,108.333333333333
152,110,77685,2,0,B|89:110|89:110|65:66,1,108.333333333333
103,259,78177,2,0,P|138:298|123:337,1,97.5
160,320,78403,5,0,0:0:0:0:
192,288,78567,1,0,0:0:0:0:
224,256,78730,1,0,0:0:0:0:
256,224,78894,1,0,0:0:0:0:
288,192,79058,1,0,0:0:0:0:
320,160,79140,1,0,0:0:0:0:
256,128,79325,1,0,0:0:0:0:
160,128,79632,2,0,L|341:128,1,173.333333333333
175,156,80308,6,0,L|175:95,1,54.1666666666667
324,161,80882,2,0,L|324:64,1,97.5
253,78,81271,2,0,P|205:86|184:174,2,140.833333333333
249,179,82009,2,0,B|285:118|285:118|357:117|357:117|396:182|396:183,2,216.666666666667
214,168,82890,2,0,L|170:166,1,43.3333333333333
290,90,83095,2,0,L|232:90,1,54.1666666666667
388,170,83362,2,0,L|327:168,1,54.1666666666667
406,114,83689,2,0,P|361:67|279:67,1,151.666666666667
191,181,84550,6,0,B|164:150|164:150|187:106,1,86.6666666666667
259,67,84817,1,0,0:0:0:0:
260,150,84980,1,0,0:0:0:0:
343,155,85144,1,0,0:0:0:0:
345,70,85308,1,0,0:0:0:0:
260,69,85472,1,0,0:0:0:0:
260,153,85636,1,0,0:0:0:0:
176,150,85800,1,0,0:0:0:0:
171,66,85964,1,0,0:0:0:0:
292,167,86415,6,0,L|336:166,1,43.3333333333333
224,224,86722,2,0,L|307:225,3,75.8333333333333
223,153,87317,2,0,B|198:123|198:123|154:106|138:38|233:56,1,173.333333333333
275,54,87747,2,0,B|326:52|333:58|341:65|349:84|312:126|312:126|296:125|296:125|279:162,1,184.166666666667
232,238,88669,5,0,0:0:0:0:
320,224,88915,1,0,0:0:0:0:
416,192,89161,1,0,0:0:0:0:
416,288,89407,1,0,0:0:0:0:
320,320,89653,1,0,0:0:0:0:
256,256,89898,1,0,0:0:0:0:
299,57,90431,5,0,0:0:0:0:
346,160,91620,5,0,0:0:0:0:
241,156,91825,1,0,0:0:0:0:
256,192,92341,12,0,94758,0:0:0:0:
354,68,95883,6,0,P|395:85|396:129,2,86.6666666666667
256,192,96633,12,0,97758,0:0:0:0:
300,138,97883,6,0,P|253:100|254:100,1,227.5
217,82,100452,5,0,0:0:0:0:
166,243,100675,1,0,0:0:0:0:
357,140,100920,1,0,0:0:0:0:
334,175,101010,1,0,0:0:0:0:
312,211,101099,1,0,0:0:0:0:
427,161,101233,1,0,0:0:0:0:
315,121,101411,5,0,0:0:0:0:
160,129,101545,1,0,0:0:0:0:
384,247,102014,1,0,0:0:0:0:
219,92,102483,1,0,0:0:0:0:
346,297,102706,1,0,0:0:0:0:
379,231,102862,1,0,0:0:0:0:
423,312,103197,1,0,0:0:0:0:
422,248,103331,1,0,0:0:0:0:
422,206,103420,1,0,0:0:0:0:
425,163,103510,1,0,0:0:0:0:
383,155,103599,1,0,0:0:0:0:
341,158,103688,1,0,0:0:0:0:
300,168,103777,1,0,0:0:0:0:
258,160,103867,1,0,0:0:0:0:
216,160,103956,1,0,0:0:0:0:
57,161,104492,6,0,L|92:211,3,54.1666666666667
32,64,105027,2,0,L|69:118,2,65
337,111,105452,2,0,L|309:156,2,43.3333333333333
272,73,105853,2,0,L|237:125,3,54.1666666666667
364,105,106367,1,0,0:0:0:0:
210,90,106501,2,0,P|157:102|159:166,1,119.166666666667
332,125,107014,2,0,L|335:55,1,65
295,173,107349,1,0,0:0:0:0:
404,235,107751,6,0,L|400:169,1,65
397,57,107952,2,0,L|356:156,1,97.5
280,268,108376,2,0,P|212:303|175:219,1,184.166666666667
252,111,108911,6,0,L|108:113,6,140.833333333333
160,248,110987,6,0,B|122:209|122:209|122:163,1,97.5
155,134,111277,1,0,0:0:0:0:
185,104,111411,2,0,L|262:104,2,75.8333333333333
160,128,111925,1,0,0:0:0:0:
160,160,112103,1,0,0:0:0:0:
192,160,112282,2,0,P|320:159|324:159,2,130
174,127,113338,5,0,0:0:0:0:
178,211,113517,1,0,0:0:0:0:
184,294,113696,1,0,0:0:0:0:
302,253,113963,1,0,0:0:0:0:
351,184,114142,1,0,0:0:0:0:
298,177,114365,1,0,0:0:0:0:
302,239,114633,1,0,0:0:0:0:
323,216,114767,1,0,0:0:0:0:
278,171,115035,2,0,P|251:186|264:263,1,119.166666666667
330,229,115660,6,0,B|356:230|375:249|381:224,1,59.5833333333333
384,193,115950,2,0,L|384:181,4,10.8333333333333
195,57,116530,5,0,0:0:0:0:
237,131,116709,1,0,0:0:0:0:
289,63,116887,1,0,0:0:0:0:
339,132,117066,1,0,0:0:0:0:
363,50,117245,2,0,P|429:60|448:96,1,108.333333333333
414,210,117870,2,0,L|370:209,1,43.3333333333333
271,203,118160,5,0,0:0:0:0:
180,134,118338,1,0,0:0:0:0:
282,84,118517,1,0,0:0:0:0:
280,198,118696,1,0,0:0:0:0:
358,115,118874,1,0,0:0:0:0:
281,199,119053,1,0,0:0:0:0:
394,197,119231,1,0,0:0:0:0:
396,239,119410,2,0,P|449:201|416:128,1,157.083333333333
257,116,120414,5,0,0:0:0:0:
276,124,120504,2,0,L|249:182,1,59.5833333333333
397,107,120995,1,0,0:0:0:0:
397,106,121173,1,0,0:0:0:0:
394,163,121262,2,0,L|358:160,4,32.5
352,169,122009,2,0,P|291:127|336:59,1,173.333333333333
215,108,122419,5,0,0:0:0:0:
209,116,122542,1,0,0:0:0:0:
202,124,122665,1,0,0:0:0:0:
195,132,122788,1,0,0:0:0:0:
188,140,122911,1,0,0:0:0:0:
181,148,123034,1,0,0:0:0:0:
174,156,123157,1,0,0:0:0:0:
166,163,123280,1,0,0:0:0:0:
159,171,123403,1,0,0:0:0:0:
152,179,123526,1,0,0:0:0:0:
145,187,123649,1,0,0:0:0:0:
138,195,123772,1,0,0:0:0:0:
131,203,123895,1,0,0:0:0:0:
181,222,124530,5,0,0:0:0:0:
174,230,124653,1,0,0:0:0:0:
167,238,124776,1,0,0:0:0:0:
160,246,124899,1,0,0:0:0:0:
153,254,125022,1,0,0:0:0:0:
146,262,125145,1,0,0:0:0:0:
311,159,125473,1,0,0:0:0:0:
355,134,125657,1,0,0:0:0:0:
436,166,125985,2,0,L|436:196,5,21.6666666666667
209,116,126395,1,0,0:0:0:0:
202,124,126518,1,0,0:0:0:0:
195,132,126641,1,0,0:0:0:0:
188,140,126764,1,0,0:0:0:0:
181,148,126887,1,0,0:0:0:0:
174,156,127009,1,0,0:0:0:0:
336,109,127337,2,0,L|305:108,1,21.6666666666667
293,135,127522,2,0,L|258:133,1,32.5
212,103,127850,2,0,L|212:72,5,21.6666666666667
260,93,128316,6,0,L|327:93,1,65
346,93,128561,1,0,0:0:0:0:
346,116,128673,1,0,0:0:0:0:
345,119,128695,2,0,L|285:118,1,54.1666666666667
270,118,128874,1,0,0:0:0:0:
286,293,129231,2,0,P|352:279|359:219,1,130
271,70,129722,2,0,P|215:43|159:125,1,173.333333333333
142,146,130325,5,0,0:0:0:0:
144,132,130503,1,0,0:0:0:0:
150,119,130682,1,0,0:0:0:0:
157,107,130860,1,0,0:0:0:0:
164,95,131039,1,0,0:0:0:0:
171,83,131218,1,0,0:0:0:0:
183,75,131396,1,0,0:0:0:0:
195,68,131575,1,0,0:0:0:0:
208,65,131753,1,0,0:0:0:0:
221,62,131932,1,0,0:0:0:0:
234,58,132110,1,0,0:0:0:0:
247,59,132289,1,0,0:0:0:0:
260,58,132468,1,0,0:0:0:0:
234,41,137902,6,0,L|327:81,1,97.5
431,153,138527,2,0,L|399:153,3,32.5
363,181,139069,2,0,L|362:224,1,43.3333333333333
306,135,139485,1,0,0:0:0:0:
275,109,139610,1,0,0:0:0:0:
249,62,139819,1,0,0:0:0:0:
159,114,140436,6,0,P|190:57|289:95,1,184.166666666667
320,128,140972,2,0,P|252:171|220:130,1,140.833333333333
192,96,141396,1,0,0:0:0:0:
352,224,141619,2,0,P|382:239|360:290,1,97.5
320,256,142021,2,0,B|366:232|366:232|366:221|366:221|387:240|387:240|384:223|384:225|381:207|381:207|404:240|404:240|393:205|393:205|407:241|407:241|397:204|397:204|411:241|411:241|404:216,1,335.833333333333
384,160,142891,6,0,L|333:120,1,65
288,64,143204,2,0,P|327:17|414:73,1,184.166666666667
438,239,143807,2,0,L|386:239,1,43.3333333333333
352,192,144074,2,0,L|447:194,1,86.6666666666667
205,79,148292,5,0,0:0:0:0:
231,96,148392,1,0,0:0:0:0:
245,123,148492,2,0,L|290:123,2,43.3333333333333
189,220,149142,2,0,L|149:220,2,32.5
210,274,149692,2,0,L|305:269,1,86.6666666666667
366,208,150292,2,0,P|422:184|407:145,1,108.333333333333
366,81,150942,6,0,L|338:80,2,21.6666666666667
416,77,151292,2,0,P|442:94|459:110,1,54.1666666666667
396,240,152342,2,0,B|354:237|337:225|330:214|331:151,1,130
317,138,153392,2,0,L|299:194,2,54.1666666666667
157,69,154142,1,0,0:0:0:0:
215,118,154342,1,0,0:0:0:0:
276,163,154542,1,0,0:0:0:0:
284,42,154792,1,0,0:0:0:0:
254,112,154992,1,0,0:0:0:0:
215,178,155192,1,0,0:0:0:0:
219,244,155392,2,0,L|352:244,1,130
204,174,156392,6,0,P|169:150|190:101,1,97.5
332,102,157192,1,0,0:0:0:0:
433,153,157542,2,0,L|416:160,1,10.8333333333333
318,169,157842,2,0,P|248:138|257:102,1,119.166666666667
463,131,158892,2,0,L|463:148,1,10.8333333333333
406,192,159142,2,0,L|406:168,1,21.6666666666667
337,110,159442,2,0,L|263:107,2,65
202,105,160542,6,0,L|159:133,1,43.3333333333333
226,133,160792,2,0,L|184:161,1,43.3333333333333
250,156,161042,2,0,L|203:189,1,54.1666666666667
262,176,161342,2,0,L|216:213,1,54.1666666666667
367,227,161792,2,0,P|436:183|388:113,1,184.166666666667
343,112,162740,5,0,0:0:0:0:
443,95,162986,1,0,0:0:0:0:
351,307,163232,1,0,0:0:0:0:
228,110,163478,1,0,0:0:0:0:
351,307,163723,1,0,0:0:0:0:
344,169,164072,2,0,L|344:202,5,32.5
480,169,164461,6,0,L|435:128,1,54.1666666666667
191,270,164871,2,0,L|261:269,1,65
115,170,165301,1,0,0:0:0:0:
202,117,165424,2,0,L|206:60,1,54.1666666666667
223,125,165896,2,0,P|187:223|328:263,1,281.666666666667
257,91,166756,1,0,0:0:0:0:
348,123,166859,1,0,0:0:0:0:
457,158,166982,1,0,0:0:0:0:
359,219,167105,1,0,0:0:0:0:
251,260,167228,1,0,0:0:0:0:
442,112,167617,6,0,L|366:167,2,86.6666666666667
255,253,168006,2,0,B|222:231|194:226|220:179,1,97.5
287,211,168519,1,0,0:0:0:0:
354,166,168642,2,0,P|321:140|240:133,1,119.166666666667
78,186,168969,1,0,0:0:0:0:
78,147,169010,1,0,0:0:0:0:
78,69,169092,1,0,0:0:0:0:
304,112,169338,2,0,B|285:71|285:71|221:64,1,108.333333333333
238,228,169646,2,0,B|175:228|175:228|151:184,1,108.333333333333
394,121,170137,1,0,0:0:0:0:
162,116,170383,5,0,0:0:0:0:
369,160,170609,1,0,0:0:0:0:
153,242,170855,1,0,0:0:0:0:
380,283,171101,1,0,0:0:0:0:
363,75,171305,2,0,L|420:75,2,54.1666666666667
320,128,171592,2,0,L|501:128,1,173.333333333333
135,207,172269,6,0,L|135:146,1,54.1666666666667
209,78,172596,1,0,0:0:0:0:
297,217,172842,2,0,L|297:120,1,97.5
446,83,173232,2,0,P|398:91|377:179,2,140.833333333333
209,127,173928,1,0,0:0:0:0:
209,127,173969,2,0,B|245:187|245:187|317:188|317:188|356:123|356:122,2,216.666666666667
175,138,174851,2,0,L|131:139,1,43.3333333333333
250,216,175055,2,0,L|192:216,1,54.1666666666667
349,135,175342,2,0,L|288:136,1,54.1666666666667
366,192,175650,2,0,P|321:238|239:238,1,140.833333333333
151,125,176510,6,0,B|124:155|124:155|147:199,1,86.6666666666667
302,122,176797,1,0,0:0:0:0:
235,239,176941,1,0,0:0:0:0:
389,237,177105,1,0,0:0:0:0:
316,327,177228,1,0,0:0:0:0:
235,239,177351,1,0,0:0:0:0:
349,237,177473,1,0,0:0:0:0:
277,146,177596,1,0,0:0:0:0:
240,192,177965,1,0,0:0:0:0:
223,162,178109,1,0,0:0:0:0:
207,133,178232,1,0,0:0:0:0:
252,139,178396,1,0,0:0:0:0:
499,34,178682,5,0,0:0:0:0:
311,77,178887,1,0,0:0:0:0:
444,153,179051,1,0,0:0:0:0:
442,230,179133,1,0,0:0:0:0:
388,188,179297,2,0,B|363:217|363:217|319:234|303:302|398:284,3,173.333333333333
413,116,180219,1,0,0:0:0:0:
193,289,180650,5,0,0:0:0:0:
423,281,180896,1,0,0:0:0:0:
290,92,181141,1,0,0:0:0:0:
163,196,181387,1,0,0:0:0:0:
85,71,181633,1,0,0:0:0:0:
259,76,181859,1,0,0:0:0:0:
320,196,182187,1,0,0:0:0:0:
460,284,182432,2,0,L|121:284,1,335.833333333333
259,88,183498,5,0,0:0:0:0:
344,179,183805,1,0,0:0:0:0:
268,77,188334,5,0,0:0:0:0:
208,237,188949,1,0,0:0:0:0:
210,73,189420,2,0,P|227:58|254:73,1,54.1666666666667
258,259,189830,1,0,0:0:0:0:
243,137,190424,6,0,L|182:133,1,59.5833333333333
167,81,190854,2,0,P|193:59|219:64,2,59.5833333333333
167,111,191326,1,0,0:0:0:0:
167,140,191469,1,0,0:0:0:0:
167,174,191633,2,0,L|167:280,1,102.916666666667
208,270,192145,6,0,L|290:238,1,86.6666666666667
287,221,192473,1,0,0:0:0:0:
283,135,192883,2,0,P|281:69|365:82,2,173.333333333333
301,138,193949,1,0,0:0:0:0:
317,138,194031,1,0,0:0:0:0:
238,170,194441,6,0,L|220:122,1,48.75
207,69,194850,2,0,L|252:69,1,43.3333333333333
197,284,195424,1,0,0:0:0:0:
253,231,195588,1,0,0:0:0:0:
310,179,195752,1,0,0:0:0:0:
385,180,196039,2,0,L|385:233,1,48.75
280,131,196469,6,0,P|170:62|120:138,1,243.75
217,206,197309,2,0,L|230:279,1,70.4166666666667
335,208,197740,2,0,L|302:180,1,43.3333333333333
343,149,198272,6,0,L|287:145,3,54.1666666666667
211,80,199215,2,0,L|209:166,1,86.6666666666667
331,148,199645,5,0,0:0:0:0:
366,130,199912,1,0,0:0:0:0:
391,118,200096,1,0,0:0:0:0:
423,77,200445,2,0,P|458:167|441:192,1,135.416666666667
349,122,200998,2,0,L|299:109,2,40.625
143,43,201367,1,0,0:0:0:0:
199,196,201633,1,0,0:0:0:0:
432,237,202022,6,0,L|475:303,1,67.7083333333333
410,229,202330,2,0,L|380:198,1,40.625
338,145,202514,1,0,0:0:0:0:
280,177,202576,1,0,0:0:0:0:
225,105,202658,1,0,0:0:0:0:
422,44,202842,2,0,P|456:92|431:143,1,121.875
306,166,203170,2,0,P|249:171|227:222,1,108.333333333333
266,221,203682,6,0,B|284:203|284:203|321:201|321:201|348:216|348:216|352:238|352:238|311:252|311:252|306:307|306:307|279:307|279:307|282:300|282:300|288:292,1,257.291666666667
466,119,204195,6,0,B|426:73|395:146|374:89,1,108.333333333333
274,68,204400,1,0,0:0:0:0:
322,144,204809,2,0,B|282:98|251:171|230:114,1,108.333333333333
155,70,205096,1,0,0:0:0:0:
413,235,205301,2,0,B|373:188|342:262|321:205,1,108.333333333333
383,106,206141,5,0,0:0:0:0:
206,182,206305,1,0,0:0:0:0:
123,219,206449,1,0,0:0:0:0:
223,303,206654,1,0,0:0:0:0:
426,223,206818,2,0,P|465:179|426:162,1,108.333333333333
322,166,207207,2,0,L|239:168,1,81.25
327,101,207678,5,0,0:0:0:0:
306,283,207863,1,0,0:0:0:0:
364,257,208109,1,0,0:0:0:0:
475,111,208293,2,0,B|435:24|389:166|338:76,1,162.5
106,79,208867,2,0,L|171:79,1,54.1666666666667
392,88,209420,1,0,0:0:0:0:
379,222,209666,1,0,0:0:0:0:
375,72,210035,6,0,L|448:73,1,67.7083333333333
345,107,210260,1,0,0:0:0:0:
207,99,210465,2,0,P|173:117|140:138,1,67.7083333333333
371,82,210916,1,0,0:0:0:0:
426,222,211141,1,0,0:0:0:0:
413,117,211613,2,0,B|274:38|274:38|274:164|274:164|171:107,1,392.708333333333
287,120,212453,2,0,B|243:137|231:175|224:80|175:117,1,121.875
313,212,212863,1,0,0:0:0:0:
372,66,213211,2,0,B|416:48|427:11|435:105|483:68,1,121.875
423,183,213559,1,0,0:0:0:0:
328,181,213744,1,0,0:0:0:0:
135,50,214092,5,0,0:0:0:0:
269,247,214502,1,0,0:0:0:0:
265,137,214666,1,0,0:0:0:0:
384,197,214871,1,0,0:0:0:0:
462,118,215035,2,0,P|422:97|328:105,1,135.416666666667
153,158,215383,1,0,0:0:0:0:
189,293,215547,1,0,0:0:0:0:
320,177,215752,1,0,0:0:0:0:
206,94,215916,2,0,P|171:66|78:55,1,135.416666666667
86,61,216244,5,0,0:0:0:0:
