osu file format v14

[General]
AudioFilename: audio.mp3
AudioLeadIn: 0
PreviewTime: 183524
Countdown: 0
SampleSet: None
StackLeniency: 0.9
Mode: 0
LetterboxInBreaks: 0
SkinPreference:User
WidescreenStoryboard: 1

[Editor]
Bookmarks: 7117,23618,140146
DistanceSpacing: 0.8
BeatDivisor: 12
GridSize: 32
TimelineZoom: 1

[Metadata]
Title:Brain Revolution Girl Feat. Reol & Ill.bell
TitleUnicode:脳内革命ガール
Artist:MARETU
ArtistUnicode:MARETU
Creator:Sylvie_poi
Version:Baka And Trash Just Like YOU :D (Difficult)
Source:地獄型人間動物園
Tags:Reol Ill.bell Brain_Revolution_Girl MARETU Japanese
BeatmapID:1355742
BeatmapSetID:639192

[Difficulty]
HPDrainRate:4
CircleSize:3.5
OverallDifficulty:4.4
ApproachRate:6.5
SliderMultiplier:1.8
SliderTickRate:4

[Events]
//Background and Video events
0,0,"artworks-000125598900-ivs2ry-t500x500.jpg",0,0
Video,0,"Brain Revolution Girl by Reol and ill.bell _____ _臡_____ _ill.bell_.mp4"
//Break Periods
2,92023,93466
2,132590,146951
2,190143,194992
//Storyboard Layer 0 (Background)
//Storyboard Layer 1 (Fail)
//Storyboard Layer 2 (Pass)
//Storyboard Layer 3 (Foreground)
//Storyboard Sound Samples

[TimingPoints]
2409.62935223247,500,4,1,0,100,1,0
71490,500,4,1,0,100,1,1
71490,-71.4285714285714,4,1,0,100,0,1
92030,500,4,1,0,100,1,0
98988,333.333333333333,4,1,0,100,1,0
114516,500,4,1,0,100,1,0
114516,-200,4,1,0,100,0,0
115857,-133.333333333333,4,1,0,100,0,0
164307,500,4,1,0,100,1,1
182527,500,4,3,0,100,1,0

[Colours]
Combo1 : 115,115,115
Combo2 : 255,255,255
Combo3 : 0,0,0
Combo4 : 226,16,21

[HitObjects]
256,192,4326,12,0,6867,0:0:0:0:
256,128,7117,6,0,L|224:128,1,30
256,256,7409,2,0,L|288:256,1,30
384,192,7867,2,0,P|320:128|288:128,1,120
192,96,8659,1,8,0:0:0:0:
128,192,9117,2,0,L|96:192,1,30
256,256,9659,1,8,0:0:0:0:
384,256,10117,2,0,L|352:256,1,30
416,192,10951,6,0,P|384:128|320:128,1,135
256,96,11576,2,0,L|192:96,1,60
64,128,11992,1,0,0:0:0:0:
192,224,12659,5,10,0:0:0:0:
128,160,13076,1,10,0:0:0:0:
224,128,13534,1,10,0:0:0:0:
288,224,14076,1,10,0:0:0:0:
192,224,14534,6,0,P|96:192|96:96,1,210
128,96,15284,2,0,L|243:139,1,90
288,128,15867,2,0,L|320:96,1,45
105,139,16410,37,14,0:0:0:0:
165,141,16618,1,0,0:0:0:0:
139,195,16826,1,0,0:0:0:0:
198,203,17035,1,14,0:0:0:0:
167,255,17243,1,0,0:0:0:0:
225,265,17451,1,0,0:0:0:0:
192,315,17660,1,14,0:0:0:0:
251,320,17868,1,0,0:0:0:0:
295,360,18076,1,0,0:0:0:0:
354,360,18285,1,14,0:0:0:0:
292,190,18992,6,0,L|320:173,2,30
256,64,19659,1,14,0:0:0:0:
64,192,20409,6,14,P|160:256|192:256,1,150
256,128,21159,1,0,0:0:0:0:
352,224,21367,2,14,P|416:224|448:160,1,135
320,192,22159,1,0,0:0:0:0:
93,119,22409,2,0,L|94:196,1,75
196,131,22867,2,0,P|231:81|290:102,1,120
256,192,23617,5,0,0:0:0:0:
256,192,23742,1,0,0:0:0:0:
256,192,24034,2,0,L|256:64,1,120
384,160,24867,2,0,P|416:192|384:256,1,120
352,256,25367,1,0,0:0:0:0:
288,256,25617,1,0,0:0:0:0:
160,224,26117,2,0,P|96:160|128:128,1,150
270,207,26826,1,0,0:0:0:0:
396,62,27159,1,0,0:0:0:0:
240,211,27534,6,0,B|208:243|208:243|304:307|176:275,1,165
167,184,28159,2,0,L|103:152,1,60
377,159,28784,2,0,L|313:159,1,60
239,101,29117,1,0,0:0:0:0:
169,167,29284,2,0,P|137:135|105:103,2,90
375,289,30201,1,0,0:0:0:0:
92,343,30701,1,0,0:0:0:0:
154,306,30826,1,0,0:0:0:0:
95,263,30951,1,0,0:0:0:0:
53,239,31034,2,0,P|21:207|117:175,1,195
210,95,31784,6,0,L|210:191,1,90
422,289,32451,2,0,B|486:257|454:225|518:257,1,105
440,229,32867,2,0,P|408:293|376:293,1,105
310,294,33284,2,0,L|246:294,2,60
273,44,34159,2,0,B|241:140|369:108|305:172,1,150
225,209,34742,1,0,0:0:0:0:
143,297,34951,1,0,0:0:0:0:
288,288,35159,1,0,0:0:0:0:
256,96,35534,1,0,0:0:0:0:
192,128,36117,6,0,L|160:128,3,30
416,128,36867,2,0,L|416:160,4,30
272,147,37451,2,0,L|240:147,3,30
480,224,38159,1,0,0:0:0:0:
405,226,38284,2,0,B|357:285|354:286|354:286|321:287,1,105
292,193,38742,2,0,B|246:284|246:284|209:289,1,135
128,256,39367,1,0,0:0:0:0:
96,160,39617,1,0,0:0:0:0:
192,64,39867,1,0,0:0:0:0:
256,96,40117,1,0,0:0:0:0:
352,288,40409,6,0,B|288:352|256:224|192:320|160:224|128:384|64:288,1,300
64,288,41326,2,0,B|64:96|64:96|160:64|160:64|384:64,1,510
384,64,42826,2,0,P|416:128|384:160,1,120
384,160,43201,2,0,P|320:192|384:224,1,165
373,229,43701,2,0,P|416:224|384:320,1,195
392,322,44326,2,0,L|288:320,1,105
212,224,44826,6,0,P|144:161|173:123,2,150
256,131,46159,2,0,L|352:134,1,90
452,88,46742,2,0,L|453:192,1,105
256,96,47576,5,0,0:0:0:0:
256,160,47826,1,0,0:0:0:0:
256,224,48076,1,0,0:0:0:0:
256,288,48367,2,0,P|192:352|160:224,1,270
192,192,49284,2,0,L|224:160,1,45
288,160,49617,1,0,0:0:0:0:
192,64,50159,2,0,P|160:64|128:160,1,150
192,192,50867,1,0,0:0:0:0:
256,224,51117,1,0,0:0:0:0:
448,160,51659,6,0,P|352:96|320:96,1,135
224,160,52284,6,0,L|192:256,1,90
352,192,52868,2,0,P|416:192|448:160,1,90
320,128,53368,2,0,P|288:96|224:96,1,90
96,160,54076,1,0,0:0:0:0:
128,96,54284,1,0,0:0:0:0:
192,160,54492,1,0,0:0:0:0:
224,224,54701,1,0,0:0:0:0:
288,160,54909,1,0,0:0:0:0:
320,160,55034,2,0,L|384:160,1,60
448,160,55409,1,0,0:0:0:0:
419,298,55617,6,0,B|390:275|384:272|384:272|368:279|368:279|366:301|366:301|381:299|381:299|336:298,1,135
192,256,56326,2,0,P|142:204|164:143,1,135
345,112,56992,2,0,L|409:144,1,60
443,250,57367,1,0,0:0:0:0:
315,316,57617,1,0,0:0:0:0:
192,288,57992,2,0,B|128:288|160:256|64:224|256:192|128:160,1,195
128,64,58826,1,0,0:0:0:0:
256,96,59076,1,0,0:0:0:0:
416,256,59534,38,0,B|288:320|480:160|352:192,1,165
224,160,60284,6,0,L|160:160,1,60
384,128,60867,2,0,L|384:192,1,60
256,256,61284,2,0,L|192:256,1,60
128,256,61576,1,0,0:0:0:0:
384,160,62117,1,0,0:0:0:0:
288,96,62367,1,0,0:0:0:0:
224,192,62617,1,0,0:0:0:0:
128,128,62867,1,0,0:0:0:0:
64,224,63117,1,0,0:0:0:0:
448,320,63617,1,0,0:0:0:0:
416,160,63909,1,0,0:0:0:0:
448,64,64367,22,0,P|416:32|352:32,1,105
352,32,64742,2,0,P|288:32|256:64,1,105
259,57,65201,2,0,P|195:89|195:121,1,105
193,114,65659,2,0,P|161:178|225:210,1,150
256,224,66242,2,0,P|256:256|352:256,1,150
352,256,66742,2,0,P|416:256|416:224,1,105
418,230,67201,2,0,P|327:184|372:139,1,195
512,192,68284,6,0,L|416:224,1,90
352,256,68826,1,0,0:0:0:0:
448,128,68992,2,0,L|352:160,1,90
202,208,69492,1,0,0:0:0:0:
384,64,69701,2,0,L|288:96,1,90
142,155,70159,1,0,0:0:0:0:
103,67,70409,6,0,L|199:35,1,90
349,86,70951,1,0,0:0:0:0:
416,154,71117,1,0,0:0:0:0:
302,195,71326,1,0,0:0:0:0:
73,167,71740,6,0,L|169:103,1,150
378,82,72448,6,0,P|378:146|378:178,1,83.9999974365235
257,328,72865,2,0,L|193:328,1,62.9999980773926
162,232,73115,2,0,B|66:200|66:264|66:168,1,146.999995513916
251,187,73573,2,0,B|155:155|155:219|155:123,1,146.999995513916
175,65,73990,2,0,B|271:97|271:32|399:160,1,251.99999230957
206,96,74740,2,0,B|206:153|125:101|169:159,1,83.9999974365235
222,169,75031,2,0,B|222:226|141:174|185:232,1,83.9999974365235
248,238,75323,2,0,B|248:295|167:243|211:301,1,83.9999974365235
436,265,75781,2,0,B|365:254|404:189|317:175,1,146.999995513916
25,34,76490,6,0,B|41:125|133:65|127:63,1,125.999996154785
55,88,76823,2,0,B|71:179|163:119|157:117,1,125.999996154785
250,131,77240,2,0,B|266:222|358:162|352:160,1,125.999996154785
448,160,77781,2,0,B|366:167|469:262|314:289,1,188.999994232178
224,288,78448,1,0,0:0:0:0:
128,288,78698,1,0,0:0:0:0:
96,160,79073,2,0,B|178:122|152:135,1,62.9999980773926
224,128,79406,2,0,P|247:108|269:54,2,83.9999974365235
456,168,80031,2,0,L|341:166,1,104.999996795654
224,256,80490,6,0,B|165:214|309:225|244:136,1,146.999995513916
192,160,80906,2,0,B|146:103|282:153|244:50,1,146.999995513916
288,32,81323,2,0,B|325:-30|324:114|409:43,1,146.999995513916
448,96,81781,2,0,B|216:198|625:257|365:349,1,356.999989105225
320,352,82615,2,0,P|264:322|192:211,2,188.999994232178
315,285,83448,2,0,L|484:211,1,167.999994873047
458,117,83906,1,0,0:0:0:0:
394,223,84406,5,0,0:0:0:0:
241,294,84615,1,0,0:0:0:0:
306,139,84823,1,0,0:0:0:0:
151,72,85031,1,0,0:0:0:0:
75,222,85240,1,0,0:0:0:0:
217,133,85448,1,0,0:0:0:0:
133,278,85656,1,0,0:0:0:0:
288,288,85865,1,0,0:0:0:0:
386,152,86073,1,0,0:0:0:0:
69,71,86615,37,0,0:0:0:0:
125,298,86906,1,0,0:0:0:0:
326,175,87198,1,0,0:0:0:0:
90,179,87490,1,0,0:0:0:0:
198,289,87781,1,0,0:0:0:0:
341,321,88073,1,0,0:0:0:0:
198,289,88365,1,0,0:0:0:0:
88,43,88698,6,0,L|90:169,1,125.999996154785
182,292,89156,2,0,L|180:171,1,104.999996795654
265,45,89573,2,0,L|266:169,1,104.999996795654
362,286,89990,2,0,L|363:158,1,125.999996154785
365,113,90490,2,0,P|266:64|143:72,1,230.99999295044
241,192,91490,6,0,L|237:91,2,83.9999974365235
241,192,94905,5,0,0:0:0:0:
241,192,95571,2,0,P|202:162|295:195,1,482.99998526001
201,62,95988,1,0,0:0:0:0:
270,26,96238,1,0,0:0:0:0:
204,247,97863,2,0,P|120:151|129:142,1,188.999994232178
232,117,99876,1,0,0:0:0:0:
456,177,100321,6,0,P|456:235|378:280,1,146.999995513916
278,215,100876,2,0,P|284:147|360:135,1,146.999995513916
407,220,101376,6,0,P|407:278|329:323,1,146.999995513916
229,258,101904,2,0,P|235:190|311:178,1,146.999995513916
172,137,102404,6,0,L|133:89,1,60
225,187,102654,2,0,L|269:225,1,45
210,142,102876,2,0,L|280:75,1,90
157,188,103210,2,0,L|71:280,1,120
131,313,103571,2,0,P|173:325|296:188,1,255
43,113,104516,1,0,0:0:0:0:
215,163,104711,1,0,0:0:0:0:
355,50,104933,1,0,0:0:0:0:
508,244,105433,5,0,0:0:0:0:
411,220,105599,1,0,0:0:0:0:
343,291,105766,1,0,0:0:0:0:
252,250,105933,1,0,0:0:0:0:
171,308,106099,1,0,0:0:0:0:
128,192,106460,6,0,P|197:256|231:231,1,146.999995513916
288,128,106960,2,0,P|329:91|398:143,1,146.999995513916
448,224,107460,2,0,B|363:272|363:272|263:228,2,188.999994232178
306,94,108960,5,0,0:0:0:0:
339,169,109099,1,0,0:0:0:0:
370,245,109238,1,0,0:0:0:0:
324,314,109377,1,0,0:0:0:0:
248,280,109516,1,0,0:0:0:0:
182,229,109655,1,0,0:0:0:0:
127,166,109794,1,0,0:0:0:0:
87,93,109933,1,0,0:0:0:0:
163,60,110072,1,0,0:0:0:0:
228,51,110183,1,0,0:0:0:0:
308,69,110322,1,0,0:0:0:0:
379,108,110460,1,0,0:0:0:0:
424,176,110599,1,0,0:0:0:0:
393,252,110738,1,0,0:0:0:0:
327,245,110849,1,0,0:0:0:0:
248,218,110988,5,0,0:0:0:0:
300,97,111543,1,0,0:0:0:0:
350,97,111654,1,0,0:0:0:0:
396,117,111793,1,0,0:0:0:0:
255,195,112154,2,0,P|263:287|311:140,1,540
102,137,113654,1,0,0:0:0:0:
253,38,114071,2,0,P|290:64|319:141,1,125.999996154785
192,128,114515,2,0,L|100:126,1,90
96,160,115182,1,0,0:0:0:0:
96,192,115474,1,0,0:0:0:0:
336,241,115974,6,0,P|445:215|426:143,1,210
216,224,117099,1,0,0:0:0:0:
290,210,117432,1,0,0:0:0:0:
416,98,117932,2,0,P|361:60|346:63,1,78.7500030040742
308,90,118391,2,0,P|338:198|409:175,1,210
383,285,119349,2,0,B|372:309|322:283|322:283|291:284,2,90.0000034332277
163,212,120349,6,0,P|96:214|86:226,1,78.7500030040742
165,268,120932,2,0,P|204:297|230:279,1,78.7500030040742
268,241,121432,2,0,L|316:190,2,67.5000025749207
256,192,122224,12,0,123474,0:0:0:0:
167,107,123641,6,0,L|166:52,1,45.0000017166138
414,67,124349,2,0,L|326:68,2,78.7500030040742
358,155,125182,2,0,L|197:156,1,157.500006008148
382,238,126432,2,0,L|64:42,1,360
248,191,128432,5,0,0:0:0:0:
350,88,128849,1,0,0:0:0:0:
213,226,129432,1,0,0:0:0:0:
314,124,129849,1,0,0:0:0:0:
198,193,130266,2,0,L|149:142,5,67.5
275,157,131807,2,0,L|273:139,14,11.2500004291535
251,137,148391,5,0,0:0:0:0:
251,137,148557,2,0,L|255:216,1,78.7500030040742
85,162,149391,1,0,0:0:0:0:
132,177,149557,2,0,L|208:211,1,78.7500030040742
379,207,150391,1,0,0:0:0:0:
446,202,150599,2,0,L|442:117,1,78.7500030040742
283,70,151391,2,0,P|209:47|151:90,1,146.250005578995
158,181,152224,2,0,P|189:213|251:221,1,101.250003862381
356,212,152932,1,0,0:0:0:0:
452,142,153307,2,0,P|430:97|393:76,1,90.0000034332277
278,115,154016,1,0,0:0:0:0:
224,96,154349,2,0,P|185:113|187:180,1,112.500004291535
160,192,154891,2,0,P|135:249|176:285,1,123.750004720688
192,288,155474,2,0,P|218:346|267:342,1,112.500004291535
288,320,156057,2,0,P|323:361|384:350,1,112.500004291535
333,241,156724,6,0,P|309:135|209:98,1,225.000008583069
97,122,157891,2,0,L|142:222,1,101.250003862381
205,215,158474,1,0,0:0:0:0:
341,185,158891,2,0,P|239:77|206:273,1,438.750016736985
190,208,160724,6,0,B|86:165|85:165|71:100|71:100|153:33|153:33|250:73,1,382.500014591218
256,192,162474,12,0,164266,0:0:0:0:
441,96,164432,6,0,P|441:160|441:192,1,83.9999974365235
429,271,164848,2,0,L|367:288,1,62.9999980773926
330,284,165098,2,0,B|234:252|234:316|234:220,1,146.999995513916
218,200,165557,2,0,B|122:168|122:232|122:136,1,146.999995513916
189,63,166723,6,0,B|189:120|108:68|152:126,1,83.9999974365235
145,142,167015,2,0,B|145:199|64:147|108:205,1,83.9999974365235
115,215,167307,2,0,B|115:272|34:220|78:278,1,83.9999974365235
180,282,167765,2,0,B|207:215|261:269|296:188,1,146.999995513916
25,34,168473,6,0,B|41:125|133:65|127:63,1,125.999996154785
151,269,169223,2,0,B|167:360|259:300|253:298,1,125.999996154785
336,271,169765,2,0,B|392:210|252:209|349:85,1,188.999994232178
391,52,170432,1,0,0:0:0:0:
265,49,170682,1,0,0:0:0:0:
117,167,171057,2,0,B|199:129|173:142,1,62.9999980773926
183,61,171390,2,0,P|158:43|101:35,2,83.9999974365235
224,96,172015,2,0,L|325:149,1,104.999996795654
352,160,172473,6,0,B|411:202|267:191|332:280,1,146.999995513916
192,256,173307,2,0,B|229:194|228:338|313:267,1,146.999995513916
352,256,173890,2,0,B|422:361|422:361|313:368|313:368|309:364,1,240
137,222,175015,1,0,0:0:0:0:
175,124,175432,2,0,L|344:50,1,167.999994873047
310,106,176390,5,0,0:0:0:0:
296,124,176598,1,0,0:0:0:0:
283,142,176807,1,0,0:0:0:0:
268,159,177015,1,0,0:0:0:0:
254,176,177223,1,0,0:0:0:0:
242,195,177432,1,0,0:0:0:0:
230,214,177640,1,0,0:0:0:0:
217,232,177848,1,0,0:0:0:0:
202,249,178057,1,0,0:0:0:0:
45,102,178598,37,0,0:0:0:0:
160,97,178890,1,0,0:0:0:0:
275,103,179182,1,0,0:0:0:0:
390,103,179473,1,0,0:0:0:0:
388,218,179765,1,0,0:0:0:0:
296,288,180057,1,0,0:0:0:0:
181,274,180348,1,0,0:0:0:0:
233,233,180515,6,0,P|192:193|215:221,1,585
198,173,183527,5,0,0:0:0:0:
188,105,183860,1,0,0:0:0:0:
243,70,184444,5,0,0:0:0:0:
249,201,184777,1,0,0:0:0:0:
359,128,185111,1,0,0:0:0:0:
220,136,185485,2,0,L|136:137,1,75
226,86,186402,6,0,P|107:157|176:253,1,285
297,265,187527,2,0,L|391:198,1,105
169,85,188443,6,0,P|105:125|119:146,1,120
115,143,188902,2,0,P|80:162|131:240,1,150
118,241,189485,2,0,P|109:282|208:324,1,165
256,192,196443,12,0,199360,0:0:0:0:
256,192,199610,6,0,L|256:64,1,120
384,160,200443,2,0,P|416:192|384:256,1,120
288,256,201110,1,0,0:0:0:0:
160,224,201402,2,0,P|96:160|128:128,1,150
274,78,202027,2,0,B|296:88|297:88|293:116|293:116|261:120|261:120|258:145,2,105
374,74,202818,1,0,0:0:0:0:
480,96,203027,6,0,B|448:128|448:128|544:192|416:160,1,165
298,159,204027,2,0,L|234:127,1,60
288,256,204652,2,0,L|224:256,1,60
128,160,205110,2,0,P|96:128|64:96,2,90
342,170,206152,1,0,0:0:0:0:
315,211,206277,1,0,0:0:0:0:
286,251,206402,1,0,0:0:0:0:
257,291,206527,1,0,0:0:0:0:
224,284,206610,2,0,P|192:252|288:220,1,195
384,224,208027,6,0,B|448:192|416:160|480:192,1,105
486,234,208443,2,0,P|454:298|422:298,1,105
378,299,208860,2,0,L|314:299,2,60
381,200,209443,2,0,B|353:102|265:200|282:111,1,150
114,191,210318,1,0,0:0:0:0:
148,266,210527,1,0,0:0:0:0:
213,315,210735,1,0,0:0:0:0:
346,250,211110,1,0,0:0:0:0:
132,262,211652,6,0,P|86:222|92:198,1,90
192,128,212152,6,0,L|160:128,3,30
416,128,212693,2,0,L|416:160,4,30
323,91,213277,2,0,L|291:91,3,30
269,324,214110,6,0,B|184:307|177:280|177:280|158:222,1,165
158,223,214652,2,0,B|101:146|101:146|153:100,1,165
152,100,215235,2,0,P|212:52|237:58,1,105
320,224,215860,1,0,0:0:0:0:
201,139,216235,2,0,L|354:144,1,150
