osu file format v14

[General]
AudioFilename: audio.mp3
AudioLeadIn: 0
PreviewTime: 54369
Countdown: 1
SampleSet: Soft
StackLeniency: 0.7
Mode: 0
LetterboxInBreaks: 0
WidescreenStoryboard: 1

[Editor]
Bookmarks: 7470,12027,18862,121114
DistanceSpacing: 1
BeatDivisor: 4
GridSize: 4
TimelineZoom: 0.6

[Metadata]
Title:RAKUEN
TitleUnicode:曲名:楽園
Artist:MANYO
ArtistUnicode:MANYO
Creator:THE FLAT EARTH
Version:Aardappel's Extreme
Source:KARAKARA
Tags:KARAKA LUNA 木緒なち Nachi Kio Lucia Haynes Aisia Mayfield
BeatmapID:1027530
BeatmapSetID:481305

[Difficulty]
HPDrainRate:0
CircleSize:5
OverallDifficulty:9
ApproachRate:9
SliderMultiplier:0.7
SliderTickRate:1

[Events]
//Background and Video events
0,0,"bg.png",0,0
//Break Periods
//Storyboard Layer 0 (Background)
//Storyboard Layer 1 (Fail)
//Storyboard Layer 2 (Pass)
//Storyboard Layer 3 (Foreground)
//Storyboard Sound Samples

[TimingPoints]
635,379.746835443038,3,2,0,30,1,0
1774,-66.6666666666667,3,2,0,30,0,0
6710,-50,3,2,0,30,0,0
7850,-100,3,2,0,30,0,0
10888,-66.6666666666667,3,2,0,30,0,0
15445,-100,3,2,0,30,0,0
25128,-66.6666666666667,3,2,0,30,0,0
26837,-100,3,2,0,30,0,0
31774,-66.6666666666667,3,2,0,30,0,0
118743,400,3,2,0,30,1,0
119143,441.176470588235,4,2,0,30,1,0
119584,545.454545454546,4,2,0,30,1,0
120129,379.746835443038,4,2,0,30,1,0
120508,606.060606060606,4,2,0,30,1,0

[HitObjects]
412,52,635,5,0,0:0:0:0:
412,52,682,1,0,0:0:0:0:
412,52,729,2,0,B|396:120|344:120|344:120|308:192,1,175
244,220,1774,2,0,P|248:260|272:272,1,52.5000020027161
328,300,2153,2,0,P|260:336|176:272,1,183.750007009506
64,240,2913,2,0,B|92:128|232:136|248:256|248:256|296:224,1,315.000012016297
130,164,3293,1,0,0:0:0:0:
224,195,3672,1,0,0:0:0:0:
272,328,4812,2,0,P|244:352|224:352,1,52.5000020027161
216,268,5191,2,0,B|288:224|296:176|296:176|396:224|444:112|392:72,1,315.000012016297
290,195,5571,1,0,0:0:0:0:
377,179,5951,1,0,0:0:0:0:
304,44,6521,1,0,0:0:0:0:
200,80,6710,2,0,B|172:124|64:104|64:104|88:184|184:184,1,280
68,105,7090,2,0,P|99:157|125:174,1,70
268,200,7660,1,0,0:0:0:0:
352,264,7850,2,0,P|296:304|220:288,1,140
297,303,8229,2,0,P|269:304|249:301,1,35
256,192,8704,12,0,9748,0:0:0:0:
116,96,10888,6,0,B|60:96|100:232|100:232|172:184|172:184|204:204,1,262.500010013581
88,182,11267,6,0,L|100:240,1,52.5000020027161
252,164,12027,2,0,P|270:249|167:256,1,210.000008010865
265,256,12407,1,0,0:0:0:0:
156,68,13166,2,0,P|248:48|340:136,1,210.000008010865
256,50,13546,2,0,P|291:66|311:82,1,52.5000020027161
308,224,14305,1,0,0:0:0:0:
488,332,15445,2,0,B|388:320|324:304|320:304|352:280,1,175
419,322,15824,2,0,P|394:317|372:314,1,35
416,204,16584,2,0,B|340:128|248:224|172:144|172:144|208:56|304:64,1,420
354,173,16964,1,0,0:0:0:0:
284,176,17343,2,0,B|216:173|216:173|169:143|169:143|226:77,1,210
372,96,19052,1,0,0:0:0:0:
412,172,19242,1,0,0:0:0:0:
276,272,19622,5,0,0:0:0:0:
124,212,20002,1,0,0:0:0:0:
124,212,20097,1,0,0:0:0:0:
124,212,20191,1,0,0:0:0:0:
144,100,20381,1,0,0:0:0:0:
208,68,20571,2,0,B|224:144|184:180|184:180|228:288|324:236|324:176,1,315
195,169,21141,2,0,B|185:182|185:182|222:268|288:247|314:210,1,175
322,187,23040,5,0,0:0:0:0:
376,324,23419,2,0,P|332:344|304:344,1,70
216,296,23989,2,0,P|160:308|148:324,1,70
116,380,24559,1,0,0:0:0:0:
48,132,24748,1,0,0:0:0:0:
16,268,24938,1,0,0:0:0:0:
144,232,25128,2,0,B|180:196|216:216|236:244|300:212,1,157.500006008148
191,215,25318,1,0,0:0:0:0:
376,136,25888,5,0,0:0:0:0:
300,76,26078,2,0,P|256:76|216:120,1,105.000004005432
272,352,26837,2,0,P|344:324|380:264,1,140
338,330,27217,2,0,P|360:306|368:293,1,35
432,144,27976,2,0,P|396:112|360:112,1,70
280,124,28546,1,0,0:0:0:0:
158,261,28736,1,0,0:0:0:0:
320,184,28926,1,0,0:0:0:0:
141,190,29116,1,0,0:0:0:0:
286,254,29305,1,0,0:0:0:0:
181,130,29495,1,0,0:0:0:0:
228,291,29685,1,0,0:0:0:0:
258,152,29875,1,0,0:0:0:0:
161,257,30065,1,0,0:0:0:0:
240,88,30255,6,0,B|304:76|336:152|340:156|432:112|432:112|436:124,1,210
305,108,30635,2,0,P|339:132|376:135,1,70
508,120,31584,1,0,0:0:0:0:
512,220,31774,2,0,B|460:264|388:196|340:220|312:260|312:264,1,210.000008010865
411,228,32153,2,0,P|370:229|330:244,2,78.7500030040742
411,228,32723,1,0,0:0:0:0:
388,352,32913,2,0,P|416:328|424:316,1,52.5000020027161
281,180,33293,1,0,0:0:0:0:
281,180,33388,1,0,0:0:0:0:
281,180,33483,1,0,0:0:0:0:
189,251,33672,5,0,0:0:0:0:
163,245,33766,1,0,0:0:0:0:
140,232,33861,1,0,0:0:0:0:
122,213,33956,1,0,0:0:0:0:
109,190,34051,1,0,0:0:0:0:
104,165,34146,1,0,0:0:0:0:
106,139,34241,1,0,0:0:0:0:
115,114,34336,1,0,0:0:0:0:
130,93,34431,1,0,0:0:0:0:
356,89,34812,6,0,P|228:121|232:181,1,210.000008010865
259,83,35191,1,0,0:0:0:0:
296,260,35951,2,0,B|216:300|228:208|160:224|176:376|64:304|20:240|84:188,1,315.000012016297
195,260,36331,2,0,P|151:281|130:285,1,52.5000020027161
62,248,36900,1,0,0:0:0:0:
256,192,37185,12,0,38040,0:0:0:0:
248,137,37470,6,0,P|310:169|300:217,1,105.000004005432
316,44,38229,6,0,B|460:88|252:256|292:76|260:88|224:84|192:192|200:216,1,315.000012016297
347,123,38609,5,0,0:0:0:0:
250,115,38989,1,0,0:0:0:0:
263,287,39559,1,0,0:0:0:0:
79,281,39748,1,0,0:0:0:0:
264,201,39938,1,0,0:0:0:0:
80,193,40128,1,0,0:0:0:0:
264,118,40318,1,0,0:0:0:0:
83,110,40508,2,0,B|167:50|243:102|227:194|175:194|151:226|203:286|247:270,1,315.000012016297
184,103,40888,2,0,P|202:137|202:165,1,52.5000020027161
193,248,41457,1,0,0:0:0:0:
256,256,41837,1,0,0:0:0:0:
336,180,42027,2,0,P|376:208|376:232,1,52.5000020027161
456,288,42407,2,0,P|484:264|488:236,1,52.5000020027161
480,136,42786,2,0,B|440:72|352:56|272:148|248:88|232:60,1,262.500010013581
392,88,43166,2,0,B|336:92|264:104|264:96,1,105.000004005432
297,21,43926,6,0,P|288:130|158:202,1,262.500010013581
291,123,44305,1,0,0:0:0:0:
260,164,44495,1,0,0:0:0:0:
215,190,44685,1,0,0:0:0:0:
164,202,45065,2,0,P|116:232|120:278,1,105.000004005432
118,274,45445,2,0,B|173:323|226:290|234:284,1,105.000004005432
215,293,45824,2,0,B|299:260|327:294,1,105.000004005432
256,192,46204,12,0,49622,0:0:0:0:
416,200,46584,6,0,P|398:258|318:306,1,157.500006008148
157,139,47343,2,0,B|196:104|238:77|304:90|324:171,1,210.000008010865
304,204,48483,2,0,P|256:228|222:195,1,105.000004005432
256,192,49242,1,0,0:0:0:0:
143,55,50002,1,0,0:0:0:0:
304,95,50381,1,0,0:0:0:0:
385,197,50761,2,0,B|334:285|214:253|197:181|84:288,1,315.000012016297
297,247,51141,2,0,P|240:242|205:232,1,78.7500030040742
144,244,51710,1,0,0:0:0:0:
100,273,51900,2,0,B|80:358|80:358|234:368|245:318,1,262.500010013581
98,358,52280,1,0,0:0:0:0:
149,359,52470,1,0,0:0:0:0:
202,352,52660,2,0,B|234:340|246:319|245:319,1,52.5000020027161
261,231,53040,2,0,B|380:174|403:300|544:242|506:18|300:51|300:51|212:122,1,577.500022029878
261,231,53040,2,0,B|361:192|383:249|443:216,1,183.750007009506
448,101,54179,1,0,0:0:0:0:
361,51,54559,2,0,B|301:50|301:50|265:79,1,105.000004005432
256,192,55318,12,0,64432,0:0:0:0:
186,187,55318,6,0,P|131:231|120:109,1,262.500010013581
256,192,56457,12,0,64432,0:0:0:0:
175,111,56457,5,0,0:0:0:0:
355,101,56837,2,0,P|392:141|393:150,1,52.5000020027161
367,232,57217,2,0,P|335:244|308:245,1,52.5000020027161
256,192,57597,12,0,64432,0:0:0:0:
183,193,57597,5,0,0:0:0:0:
184,102,57786,1,0,0:0:0:0:
257,58,57976,2,0,P|294:66|312:77,1,52.5000020027161
387,213,58356,2,0,P|350:205|332:194,1,52.5000020027161
256,192,58736,12,0,64432,0:0:0:0:
229,100,58736,5,0,0:0:0:0:
146,134,58926,1,0,0:0:0:0:
109,207,59116,1,0,0:0:0:0:
107,288,59305,1,0,0:0:0:0:
183,337,59495,2,0,B|253:306|286:334|286:334|372:326|374:267,1,210.000008010865
256,192,59875,12,0,64432,0:0:0:0:
283,331,59875,5,0,0:0:0:0:
371,202,60445,1,0,0:0:0:0:
320,109,60635,2,0,B|275:77|222:97|181:156|157:138|129:83|76:92|47:113,1,262.500010013581
256,192,61014,12,0,64432,0:0:0:0:
220,112,61014,5,0,0:0:0:0:
118,105,61394,1,0,0:0:0:0:
25,204,61774,2,0,B|91:186|164:228|263:186|356:182,1,315.000012016297
256,192,62153,12,0,64432,0:0:0:0:
129,202,62153,5,0,0:0:0:0:
233,194,62533,1,0,0:0:0:0:
196,91,63293,1,0,0:0:0:0:
141,224,63483,1,0,0:0:0:0:
297,295,63672,1,0,0:0:0:0:
366,139,63862,1,0,0:0:0:0:
157,127,64052,1,0,0:0:0:0:
171,270,64242,1,0,0:0:0:0:
342,260,64431,1,0,0:0:0:0:
313,70,64812,5,0,0:0:0:0:
402,117,65002,1,0,0:0:0:0:
444,208,65191,2,0,P|425:259|417:271,1,52.5000020027161
286,281,65571,2,0,P|230:237|199:248,1,105.000004005432
198,244,65951,2,0,P|122:258|92:233,1,105.000004005432
101,239,66331,2,0,P|52:178|64:138,1,105.000004005432
259,37,67090,1,0,0:0:0:0:
259,37,67280,2,0,B|410:49|354:220|228:177|228:177|158:242|177:323|222:336,1,472.500018024445
343,138,67850,5,0,0:0:0:0:
257,183,68229,1,0,0:0:0:0:
186,239,68609,1,0,0:0:0:0:
218,335,68989,2,0,P|346:326|345:157,1,315.000012016297
319,342,69369,1,0,0:0:0:0:
362,311,69559,1,0,0:0:0:0:
383,213,69938,1,0,0:0:0:0:
247,105,70508,1,0,0:0:0:0:
147,177,70888,1,0,0:0:0:0:
200,300,71267,2,0,B|296:200|245:177|286:131|286:131|445:128|424:228|386:272,1,420.000016021729
259,214,71647,2,0,B|267:167|280:131|289:130|289:130|319:129|363:140,1,157.500006008148
399,164,72407,1,0,0:0:0:0:
343,211,73166,2,0,P|336:95|419:22,1,210.000008010865
256,192,73546,12,0,78103,0:0:0:0:
331,109,73546,6,0,P|383:64|397:25,1,105.000004005432
164,139,74685,2,0,P|156:229|351:262,1,315.000012016297
164,139,74685,2,0,P|156:229|351:262,1,315.000012016297
382,184,76204,1,0,0:0:0:0:
332,80,76584,1,0,0:0:0:0:
256,192,76964,12,0,76987,0:0:0:0:
125,160,77343,6,0,P|95:212|88:269,1,105.000004005432
179,313,77913,1,0,0:0:0:0:
256,192,78103,1,0,0:0:0:0:
370,117,78483,2,0,P|401:158|305:251,1,210.000008010865
362,247,79052,1,0,0:0:0:0:
311,252,79242,2,0,B|234:226|196:127|191:140,1,157.500006008148
231,190,79622,1,0,0:0:0:0:
207,63,80002,2,0,P|279:111|291:136,1,105.000004005432
286,125,80381,2,0,P|337:183|462:149,1,210.000008010865
363,191,80761,2,0,P|412:159|458:159,1,105.000004005432
457,278,81521,6,0,P|390:305|351:300,1,105.000004005432
256,233,82280,1,0,0:0:0:0:
134,164,82660,2,0,P|283:65|329:142,1,315.000012016297
171,71,83040,2,0,P|228:49|316:97,1,157.500006008148
335,215,84179,1,0,0:0:0:0:
259,296,84559,1,0,0:0:0:0:
111,316,84938,2,0,B|236:250|150:214|0:199|137:151|319:142|141:100|11:83|141:65|334:73|148:28|187:19,1,341.250013017655
148,236,85318,2,0,B|115:195|150:159|154:132,1,105.000004005432
194,57,86078,1,0,0:0:0:0:
331,46,86457,5,0,0:0:0:0:
414,186,86647,1,0,0:0:0:0:
259,180,86837,1,0,0:0:0:0:
110,202,87217,2,0,B|138:318|281:276|346:275,1,262.500010013581
410,225,88356,2,0,P|376:192|316:195,1,105.000004005432
214,152,89116,2,0,P|244:141|270:144,1,52.5000020027161
383,132,89495,2,0,P|364:77|214:40,1,210.000008010865
331,44,89875,1,0,0:0:0:0:
129,73,90635,1,0,0:0:0:0:
93,165,91014,1,0,0:0:0:0:
126,254,91394,1,0,0:0:0:0:
256,192,91774,12,0,96331,0:0:0:0:
282,307,92153,6,0,P|323:289|334:275,1,52.5000020027161
383,209,92723,1,0,0:0:0:0:
383,209,92913,2,0,P|375:146|335:116,1,105.000004005432
252,98,93672,1,0,0:0:0:0:
146,151,94052,2,0,P|131:210|151:262,1,105.000004005432
205,308,94622,1,0,0:0:0:0:
305,294,94812,1,0,0:0:0:0:
362,217,95002,1,0,0:0:0:0:
365,123,95191,1,0,0:0:0:0:
303,65,95571,2,0,P|258:65|204:104,1,105.000004005432
256,192,96331,1,0,0:0:0:0:
153,283,96710,5,0,0:0:0:0:
314,318,96900,1,0,0:0:0:0:
278,210,97090,1,0,0:0:0:0:
426,240,97280,1,0,0:0:0:0:
488,151,97470,2,0,P|455:83|366:73,1,157.500006008148
394,147,98229,2,0,P|313:146|234:148,1,157.500006008148
289,147,98609,1,0,0:0:0:0:
165,129,98989,2,0,P|196:84|255:77,1,105.000004005432
368,34,99748,2,0,P|398:113|381:190,1,157.500006008148
398,132,100128,1,0,0:0:0:0:
325,239,100508,1,0,0:0:0:0:
247,288,100888,6,0,B|162:305|118:227|181:114|137:73|21:71|0:119,1,367.500014019013
164,242,101267,2,0,P|155:212|150:192,1,52.5000020027161
133,138,101647,2,0,P|106:104|87:96,1,52.5000020027161
45,92,102027,1,0,0:0:0:0:
62,170,102407,2,0,P|69:233|103:286,1,105.000004005432
165,319,103166,6,0,P|85:342|55:333,1,105.000004005432
11,257,103736,1,0,0:0:0:0:
89,176,103926,1,0,0:0:0:0:
195,198,104116,1,0,0:0:0:0:
263,281,104305,2,0,P|220:288|210:282,1,52.5000020027161
136,237,104685,1,0,0:0:0:0:
147,135,104875,1,0,0:0:0:0:
221,66,105065,1,0,0:0:0:0:
331,73,105255,1,0,0:0:0:0:
327,178,105445,6,0,P|410:172|416:146,1,105.000004005432
412,166,105824,2,0,P|436:83|399:17,1,157.500006008148
432,67,106204,1,0,0:0:0:0:
339,74,106584,2,0,P|318:135|298:189,1,105.000004005432
292,274,107343,1,0,0:0:0:0:
256,192,107723,12,0,110002,0:0:0:0:
256,192,108862,12,0,110002,0:0:0:0:
256,192,109242,12,0,110002,0:0:0:0:
256,192,109622,12,0,110002,0:0:0:0:
256,192,110002,6,0,P|323:260|412:190,1,210.000008010865
439,130,111141,2,0,P|366:91|231:95,1,210.000008010865
161,179,112280,2,0,P|123:114|147:30,1,157.500006008148
156,18,113040,1,0,0:0:0:0:
258,101,113419,5,0,0:0:0:0:
256,253,113799,1,0,0:0:0:0:
379,187,114179,1,0,0:0:0:0:
121,66,114559,5,0,0:0:0:0:
64,251,114938,1,0,0:0:0:0:
251,210,115318,1,0,0:0:0:0:
91,76,115698,5,0,0:0:0:0:
87,270,116077,1,0,0:0:0:0:
256,179,116457,1,0,0:0:0:0:
256,192,116837,12,0,122326,0:0:0:0:
349,21,117597,5,0,0:0:0:0:
408,78,117786,1,0,0:0:0:0:
436,144,117976,1,0,0:0:0:0:
436,226,118166,1,0,0:0:0:0:
406,289,118356,1,0,0:0:0:0:
361,335,118546,1,0,0:0:0:0:
297,358,118736,1,0,0:0:0:0:
225,354,118943,1,0,0:0:0:0:
166,321,119143,1,0,0:0:0:0:
120,261,119363,1,0,0:0:0:0:
110,187,119584,1,0,0:0:0:0:
140,115,119856,1,0,0:0:0:0:
194,72,120129,1,0,0:0:0:0:
270,66,120508,1,0,0:0:0:0:
366,166,121114,1,0,0:0:0:0:
