osu file format v14

[General]
AudioFilename: audio.ogg
AudioLeadIn: 0
PreviewTime: 84482
Countdown: 0
SampleSet: Soft
StackLeniency: 0.4
Mode: 0
LetterboxInBreaks: 0
WidescreenStoryboard: 1

[Editor]
Bookmarks: 2757,19309,35861,52413,68964,85516,102068,120689
DistanceSpacing: 1.8
BeatDivisor: 4
GridSize: 4
TimelineZoom: 1.6

[Metadata]
Title:Banka
TitleUnicode:晩夏
Artist:MANY THANKS! feat. Setsunan
ArtistUnicode:MANY THANKS! feat. 薛南
Creator:ktgster
Version:Hyper
Source:THE BMS OF FIGHTERS : ET -Summer Dream Traveler-
Tags:late summer BOF:ET BOFET novelty japanese video game future R&B EighTeen
BeatmapID:4047415
BeatmapSetID:1939593

[Difficulty]
HPDrainRate:4
CircleSize:4
OverallDifficulty:7
ApproachRate:8
SliderMultiplier:1
SliderTickRate:0.5

[Events]
//Background and Video events
0,0,"artworks-Jlpw7VK9i2HATFyl-4ZtE0w-t500x500.jpg",0,0
//Break Periods
//Storyboard Layer 0 (Background)
//Storyboard Layer 1 (Fail)
//Storyboard Layer 2 (Pass)
//Storyboard Layer 3 (Foreground)
//Storyboard Layer 4 (Overlay)
//Storyboard Sound Samples

[TimingPoints]
2758,517.241379310345,4,2,1,60,1,0
18533,-100,4,2,1,5,0,0
18597,-100,4,2,1,60,0,0
35861,-66.6666666666667,4,2,1,70,0,0
66895,-100,4,2,1,70,0,0
68447,-100,4,2,1,5,0,0
68469,-100,4,2,1,70,0,0
76464,-100,4,2,2,70,0,0
79309,-100,4,2,1,70,0,0
79826,-100,4,2,2,70,0,0
81378,-200,4,2,1,70,0,0
84482,-100,4,2,2,60,0,0
85516,-50,4,2,1,80,0,0
102068,-66.6666666666667,4,2,2,80,0,0

[Colours]
Combo1 : 132,193,193
Combo2 : 125,125,255
Combo3 : 255,147,255
Combo4 : 170,85,255

[HitObjects]
480,78,2758,6,0,B|416:78|416:110|416:142|352:141,1,150,2|0,0:3|0:3,0:0:0:0:
292,81,3792,2,0,P|269:117|272:172,1,100,2|0,0:3|0:3,0:0:0:0:
383,300,4826,2,0,L|438:290,1,50,0|2,0:3|0:3,0:0:0:0:
492,351,5344,1,0,0:3:0:0:
280,378,5861,5,0,0:3:0:0:
280,378,5947,2,0,P|267:334|278:290,1,83.3333333333333,2|0,0:3|0:0,0:0:0:0:
380,173,6895,6,0,B|316:173|316:141|316:109|252:109,1,150,2|0,0:3|0:3,0:0:0:0:
192,170,7930,2,0,P|169:134|172:79,2,100,0|0|2,0:3|0:3|0:3,0:0:0:0:
71,290,9482,2,0,L|28:297,2,33.3333333333333,2|0|0,0:3|0:3|0:3,0:0:0:0:
111,330,9999,6,0,P|147:333|186:321,1,66.6666666666667,0|2,0:3|0:3,0:0:0:0:
291,242,10775,1,2,0:3:0:0:
335,169,11033,6,0,B|399:169|399:201|399:233|471:233,1,150,2|0,0:3|0:3,0:0:0:0:
490,313,12068,2,0,P|477:329|395:335,1,100,2|2,0:3|0:3,0:0:0:0:
333,289,12844,1,2,0:3:0:0:
271,167,13102,5,2,0:3:0:0:
208,109,13361,1,0,0:3:0:0:
124,126,13620,1,0,0:3:0:0:
73,288,14137,6,0,L|77:307,5,16.6666666666667,2|0|0|0|0|0,0:3|0:3|0:3|0:3|0:3|0:3,0:0:0:0:
99,327,14654,2,0,L|103:346,5,16.6666666666667,2|0|0|0|0|0,0:3|0:3|0:3|0:3|0:3|0:3,0:0:0:0:
125,366,15171,6,0,B|189:366|189:334|189:302|261:302,1,150,2|0,0:3|0:3,0:0:0:0:
312,362,16206,1,2,0:3:0:0:
312,362,16723,1,0,0:3:0:0:
312,362,17240,1,2,0:3:0:0:
214,166,18641,6,0,L|207:205,3,37.5,2|2|2|2,0:3|0:3|0:3|0:3,0:0:0:0:
203,219,19309,6,0,B|267:219|267:251|267:283|339:283,1,150,2|0,3:3|0:3,0:0:0:0:
390,222,20344,1,8,0:3:0:0:
268,88,20861,1,2,0:3:0:0:
181,61,21120,1,2,0:3:0:0:
96,92,21378,2,0,P|60:126|51:175,1,100,2|2,3:3|0:3,0:0:0:0:
179,361,22413,5,8,0:3:0:0:
179,361,22499,2,0,P|192:317|182:270,1,83.3333333333333,2|2,0:3|0:3,0:0:0:0:
241,114,23447,6,0,B|305:114|305:82|305:50|377:50,1,150,2|0,3:3|0:3,0:0:0:0:
412,123,24482,2,0,P|408:139|397:152,2,33.3333333333333,8|2|2,0:3|0:3|0:3,0:0:0:0:
470,183,24999,2,0,P|473:200|484:213,2,33.3333333333333,2|2|2,0:3|0:3|0:3,0:0:0:0:
404,239,25516,6,0,P|355:224|303:235,1,100,2|0,3:3|0:3,0:0:0:0:
256,259,26206,1,2,0:3:0:0:
256,259,26378,2,0,P|239:271|214:271,1,33.3333333333333,2|8,0:3|0:3,0:0:0:0:
44,187,26874,5,0,0:3:0:0:
44,187,27068,2,0,P|45:162|54:138,1,50,0|2,0:3|0:3,0:0:0:0:
114,78,27585,6,0,B|178:78|178:110|178:142|250:142,1,150,2|0,3:3|0:3,0:0:0:0:
301,202,28620,2,0,P|317:251|300:302,1,100,8|2,0:3|0:3,0:0:0:0:
244,356,29395,1,0,0:3:0:0:
82,305,29654,6,0,L|92:250,1,50,2|2,3:3|0:3,0:0:0:0:
30,195,30171,1,2,0:3:0:0:
30,195,30689,6,0,P|42:184|58:180,2,33.3333333333333,10|2|2,0:3|0:3|0:3,0:0:0:0:
84,100,31206,2,0,P|96:110|112:114,2,33.3333333333333,0|2|2,0:0|0:3|0:3,0:0:0:0:
148,197,31723,6,0,B|212:197|212:165|212:133|276:134,1,150,2|0,3:3|0:3,0:0:0:0:
336,194,32757,2,0,P|359:158|356:103,2,100,2|0|2,0:3|0:3|0:3,0:0:0:0:
59,342,35861,5,4,0:2:0:0:
108,240,36120,2,0,P|136:228|179:232,1,75.0000028610231,2|0,0:3|0:0,0:0:0:0:
257,313,36637,1,2,0:3:0:0:
262,338,36766,1,2,0:3:0:0:
266,364,36895,1,2,0:3:0:0:
352,384,37068,6,0,P|362:368|368:350,1,37.5000014305115,2|2,0:3|0:3,0:0:0:0:
432,312,37348,2,0,P|440:325|445:339,1,31.2500011920929,2|2,0:3|0:3,0:0:0:0:
331,261,37585,1,2,0:3:0:0:
331,261,37714,2,0,P|368:250|385:232,1,62.5000023841859,2|2,0:3|0:3,0:0:0:0:
412,79,38189,5,2,0:3:0:0:
412,79,38382,2,0,P|377:47|331:35,1,93.7500035762788,2|2,0:3|0:3,0:0:0:0:
306,35,38835,1,2,0:3:0:0:
281,44,38964,1,2,0:3:0:0:
222,104,39158,5,2,0:3:0:0:
222,104,39266,2,0,P|234:125|237:148,1,43.7500016689301,2|2,0:3|0:3,0:0:0:0:
120,161,39654,2,0,P|108:184|108:198,1,37.5000014305115,2|2,0:3|0:3,0:0:0:0:
106,306,39999,6,0,P|131:333|167:343,1,75.0000028610231,2|2,0:3|0:3,0:0:0:0:
249,326,40451,1,2,0:3:0:0:
341,219,40775,1,2,0:3:0:0:
346,194,40904,1,0,0:3:0:0:
350,168,41033,1,0,0:3:0:0:
422,140,41206,5,2,0:3:0:0:
422,140,41335,2,0,P|444:161|449:207,1,75.0000028610231,2|2,0:3|0:3,0:0:0:0:
435,250,41723,2,0,P|421:283|422:312,1,62.5000023841859,2|2,0:3|0:3,0:0:0:0:
339,362,42176,6,0,P|338:340|328:320,1,43.7500016689301,2|2,0:3|0:3,0:0:0:0:
288,246,42520,2,0,P|266:203|266:156,1,93.7500035762788,2|2,0:3|0:3,0:0:0:0:
273,132,42973,1,2,0:3:0:0:
288,110,43102,1,0,0:3:0:0:
344,46,43296,5,2,0:3:0:0:
344,46,43404,2,0,P|310:27|236:30,1,112.500004291535,2|2,0:3|0:3,0:0:0:0:
214,40,43921,1,2,0:3:0:0:
85,170,44137,5,0,3:3:0:0:
196,142,44395,1,2,0:3:0:0:
196,142,44589,2,0,P|230:173|241:218,1,93.7500035762788,2|2,0:3|3:3,0:0:0:0:
238,244,45042,1,2,0:3:0:0:
125,351,45344,6,0,P|115:335|109:317,1,37.5000014305115,2|2,0:3|0:3,0:0:0:0:
45,279,45624,2,0,P|37:292|32:306,1,31.2500011920929,2|2,0:3|0:3,0:0:0:0:
146,228,45861,1,2,0:3:0:0:
146,228,45990,2,0,P|109:217|92:199,1,62.5000023841859,2|0,0:3|3:3,0:0:0:0:
164,22,46464,5,2,0:3:0:0:
164,22,46658,2,0,P|198:52|210:97,1,93.7500035762788,2|2,0:3|3:3,0:0:0:0:
212,123,47111,1,2,0:3:0:0:
208,148,47240,1,0,0:3:0:0:
316,218,47434,5,2,0:3:0:0:
316,218,47542,2,0,P|284:216|224:268,1,112.500004291535,2|2,0:3|0:3,0:0:0:0:
218,290,48059,1,2,0:3:0:0:
378,324,48275,5,0,3:3:0:0:
444,234,48533,1,2,0:3:0:0:
444,234,48727,2,0,P|410:203|399:158,1,93.7500035762788,2|2,0:3|0:3,0:0:0:0:
402,132,49180,1,0,0:3:0:0:
411,107,49309,1,0,0:3:0:0:
292,44,49482,5,2,0:3:0:0:
292,44,49611,2,0,P|314:65|317:112,1,75.0000028610231,2|2,0:3|0:3,0:0:0:0:
305,154,49999,2,0,P|291:187|292:216,1,62.5000023841859,2|2,0:3|0:3,0:0:0:0:
319,253,50344,6,0,L|355:259,1,31.2500011920929,0|2,3:3|0:3,0:0:0:0:
380,262,50602,1,2,0:3:0:0:
400,343,50796,2,0,P|366:366|312:361,1,93.7500035762788,2|2,0:3|0:3,0:0:0:0:
291,350,51249,1,0,0:3:0:0:
273,330,51378,1,0,3:3:0:0:
257,247,51572,5,2,0:3:0:0:
257,247,51680,2,0,P|227:256|204:279,1,62.5000023841859,2|2,0:3|0:3,0:0:0:0:
48,106,52413,5,4,3:2:0:0:
148,55,52671,2,0,P|158:88|156:133,1,75.0000028610231,2|0,0:3|3:3,0:0:0:0:
132,238,53189,1,2,0:3:0:0:
157,243,53318,1,2,0:3:0:0:
183,247,53447,1,2,3:3:0:0:
254,209,53620,6,0,P|264:193|270:175,1,37.5000014305115,2|2,0:3|0:3,0:0:0:0:
337,142,53900,2,0,P|345:155|350:169,1,31.2500011920929,2|2,0:3|0:3,0:0:0:0:
329,255,54137,1,2,0:3:0:0:
329,255,54266,2,0,P|366:266|383:284,1,62.5000023841859,2|2,0:3|3:3,0:0:0:0:
490,184,54740,5,2,0:3:0:0:
490,184,54934,2,0,P|477:139|446:105,1,93.7500035762788,2|2,0:3|0:3,0:0:0:0:
421,95,55387,1,2,0:3:0:0:
396,86,55516,1,2,3:3:0:0:
359,169,55710,5,2,0:3:0:0:
359,169,55818,2,0,P|338:181|315:184,1,43.7500016689301,2|2,0:3|0:3,0:0:0:0:
297,82,56206,2,0,P|274:70|260:70,1,37.5000014305115,2|2,0:3|0:3,0:0:0:0:
171,134,56551,6,0,P|198:159|208:195,1,75.0000028610231,2|2,3:3|0:3,0:0:0:0:
201,279,57003,1,2,0:3:0:0:
66,236,57326,1,2,0:3:0:0:
71,211,57456,1,0,0:3:0:0:
75,185,57585,1,0,3:3:0:0:
101,72,57757,5,2,0:3:0:0:
101,72,57887,2,0,P|122:50|169:45,1,75.0000028610231,2|2,0:3|0:3,0:0:0:0:
211,57,58275,2,0,P|244:71|273:70,1,62.5000023841859,2|2,0:3|0:3,0:0:0:0:
170,154,58727,6,0,P|192:155|212:165,1,43.7500016689301,2|2,0:3|0:3,0:0:0:0:
286,205,59072,2,0,P|329:227|376:227,1,93.7500035762788,2|2,0:3|0:3,0:0:0:0:
400,220,59525,1,2,0:3:0:0:
422,205,59654,1,0,3:3:0:0:
486,266,59848,5,2,0:3:0:0:
486,266,59956,2,0,P|502:230|493:157,1,112.500004291535,2|2,0:3|0:3,0:0:0:0:
481,135,60473,1,2,0:3:0:0:
378,48,60689,5,4,3:2:0:0:
271,13,60947,1,0,3:3:0:0:
160,33,61206,1,0,3:3:0:0:
88,119,61464,1,0,3:3:0:0:
70,230,61723,1,0,3:2:0:0:
163,167,61982,1,0,3:3:0:0:
275,158,62240,1,0,3:3:0:0:
367,221,62499,1,0,3:3:0:0:
414,324,62757,5,4,3:2:0:0:
310,367,63016,1,0,3:3:0:0:
198,354,63275,1,0,3:3:0:0:
103,292,63533,1,0,3:3:0:0:
77,182,63792,1,0,3:2:0:0:
174,237,64051,1,0,3:3:0:0:
286,245,64309,1,0,3:3:0:0:
378,181,64568,1,0,3:3:0:0:
416,75,64826,5,4,3:2:0:0:
390,80,64956,1,0,3:3:0:0:
363,84,65085,1,0,3:3:0:0:
337,89,65214,1,0,3:3:0:0:
310,93,65344,2,0,L|273:99,3,37.5000014305115,0|0|0|0,3:3|3:3|3:3|3:3,0:0:0:0:
254,117,65861,2,0,L|217:123,3,37.5000014305115,0|0|0|0,3:3|3:3|3:3|3:3,0:0:0:0:
198,141,66378,2,0,L|161:147,3,37.5000014305115,0|0|0|0,3:3|3:3|3:3|3:3,0:0:0:0:
101,80,67003,5,2,0:3:0:0:
39,251,67930,6,0,P|24:298|37:352,1,104.166666666667,0|0,0:3|0:3,0:0:0:0:
245,371,68986,6,0,P|257:323|239:277,1,100,2|0,0:3|0:3,0:0:0:0:
198,208,69762,1,2,0:3:0:0:
156,139,70042,2,0,P|141:94|152:48,1,95.8333333333333,2|0,0:3|0:3,0:0:0:0:
223,11,70796,1,2,0:3:0:0:
289,56,71055,2,0,L|299:108,2,50,2|0|0,0:3|0:3|0:3,0:0:0:0:
359,18,71831,1,0,0:3:0:0:
415,74,72089,6,0,P|421:101|415:123,1,50,2|0,0:3|0:3,0:0:0:0:
389,198,72607,2,0,P|377:233|388:268,1,75,2|2,0:3|0:3,0:0:0:0:
401,306,73124,6,0,P|353:318|307:300,1,100,2|0,0:3|0:3,0:0:0:0:
238,259,73900,1,2,0:3:0:0:
169,217,74158,2,0,P|122:199|75:211,1,100,2|2,0:3|0:3,0:0:0:0:
16,353,75171,5,2,0:3:0:0:
91,378,75430,1,2,0:3:0:0:
169,361,75689,1,2,0:3:0:0:
235,175,76206,6,0,L|217:78,1,75,10|0,0:3|0:3,0:0:0:0:
218,83,76723,1,10,0:3:0:0:
274,26,76982,1,0,0:3:0:0:
330,82,77240,1,4,0:2:0:0:
69,247,78275,5,0,0:3:0:0:
69,247,78792,1,8,0:3:0:0:
69,247,79309,2,0,L|88:140,1,100,2|0,3:3|0:3,0:0:0:0:
204,36,80344,6,0,P|215:48|219:64,2,33.3333333333333,0|0|2,0:3|0:3|0:3,0:0:0:0:
299,90,80861,2,0,P|289:102|285:118,2,33.3333333333333,8|0|2,0:3|0:3|0:3,0:0:0:0:
252,192,81378,5,2,3:3:0:0:
252,192,82413,1,2,0:3:0:0:
252,192,83447,1,2,3:3:0:0:
252,192,84482,6,0,P|265:237|252:297,1,100,2|2,0:3|3:3,0:0:0:0:
15,132,85516,6,0,P|107:163|171:132,1,150,6|0,3:2|0:0,0:0:0:0:
219,109,86033,2,0,P|260:90|330:102,1,100,8|2,1:3|0:3,0:0:0:0:
448,190,86551,5,2,3:3:0:0:
493,309,86723,2,0,P|474:293|449:287,1,50,2|2,0:3|0:3,0:0:0:0:
420,285,86960,1,0,0:0:0:0:
391,292,87068,1,8,1:3:0:0:
265,366,87326,6,0,L|255:310,1,50,2|0,0:3|0:3,0:0:0:0:
238,243,87585,2,0,P|188:238|141:273,1,100,2|2,3:3|0:3,0:0:0:0:
21,83,88102,6,0,P|62:122|124:118,1,100,8|2,1:3|0:3,0:0:0:0:
174,101,88490,1,2,0:3:0:0:
174,101,88620,2,0,P|216:106|245:137,1,75,0|2,3:3|0:3,0:0:0:0:
270,181,88921,1,2,0:3:0:0:
332,54,89137,2,0,P|377:112|447:132,1,150,10|0,1:3|0:0,0:0:0:0:
474,205,89654,6,0,P|382:236|318:205,1,150,4|0,3:2|0:3,0:0:0:0:
270,181,90171,2,0,P|229:162|159:174,1,100,8|2,1:3|0:3,0:0:0:0:
49,254,90689,6,0,P|57:297|71:316,1,66.6666666666667,2|2,3:3|0:3,0:0:0:0:
141,366,91012,1,2,0:3:0:0:
195,253,91206,2,0,P|166:235|133:231,1,66.6666666666667,10|2,1:3|0:3,0:0:0:0:
281,370,91594,5,2,0:3:0:0:
281,370,91723,1,2,3:3:0:0:
281,370,91852,1,8,0:3:0:0:
332,228,92111,1,0,0:0:0:0:
332,228,92240,1,10,1:3:0:0:
429,343,92499,1,2,0:3:0:0:
478,149,92757,6,0,P|490:101|462:45,1,100,2|2,3:3|0:3,0:0:0:0:
413,14,93145,1,0,0:3:0:0:
413,14,93275,2,0,L|346:24,1,66.6666666666667,10|2,1:3|0:3,0:0:0:0:
206,38,93706,5,2,0:3:0:0:
160,57,93792,2,0,P|139:92|141:134,1,83.3333333333333,4|0,3:2|0:3,0:0:0:0:
251,181,94180,1,0,0:0:0:0:
251,181,94309,2,0,P|246:148|228:120,2,66.6666666666667,10|0|2,1:3|0:3|0:3,0:0:0:0:
172,242,94826,6,0,P|98:238|42:285,1,150,2|2,3:3|0:3,0:0:0:0:
67,357,95344,2,0,P|140:360|196:313,1,150,10|0,1:3|0:3,0:0:0:0:
251,262,95861,5,2,3:3:0:0:
251,262,95990,1,2,0:3:0:0:
243,37,96378,2,0,P|214:53|199:81,1,50,8|0,1:3|0:3,0:0:0:0:
212,148,96637,1,0,0:3:0:0:
212,148,96766,1,0,0:3:0:0:
212,148,96895,6,0,P|281:127|341:51,1,150,2|0,3:3|0:3,0:0:0:0:
361,0,97413,2,0,P|431:21|482:76,1,150,10|0,1:3|0:3,0:0:0:0:
497,150,97930,5,6,3:2:0:0:
452,294,98189,1,0,3:3:0:0:
322,369,98447,1,8,1:3:0:0:
176,331,98706,1,0,3:3:0:0:
121,191,98964,6,0,P|110:164|77:143,1,66.6666666666667,2|2,3:3|0:3,0:0:0:0:
47,134,99223,1,2,3:3:0:0:
197,134,99482,1,10,1:3:0:0:
302,240,99740,1,0,3:3:0:0:
433,312,99999,5,6,3:2:0:0:
480,293,100128,1,0,3:3:0:0:
499,246,100257,1,0,3:3:0:0:
488,197,100387,1,0,3:3:0:0:
447,168,100516,2,0,L|392:158,3,50,0|0|0|0,3:3|3:3|3:3|3:3,0:0:0:0:
347,152,101033,5,2,3:3:0:0:
300,133,101163,1,0,3:3:0:0:
281,86,101292,1,0,3:3:0:0:
292,37,101421,1,0,3:3:0:0:
333,8,101551,2,0,L|389:-2,3,50,10|0|0|0,1:3|3:3|3:3|3:3,0:0:0:0:
419,1,102068,6,0,P|444:29|456:75,1,75.0000028610231,2|2,3:3|0:3,0:0:0:0:
396,139,102520,1,2,0:3:0:0:
396,139,102628,2,0,P|407:170|429:194,1,62.5000023841859,2|2,3:3|0:3,0:0:0:0:
471,238,102973,1,2,0:3:0:0:
507,290,103102,6,0,P|480:298|467:309,1,43.7500016689301,2|2,3:3|0:3,0:0:0:0:
430,372,103404,2,0,P|403:364|390:353,1,43.7500016689301,2|2,0:3|3:3,0:0:0:0:
345,325,103663,2,0,P|317:315|298:318,2,37.5000014305115,2|2|2,0:3|0:3|3:3,0:0:0:0:
401,241,104051,5,2,0:3:0:0:
401,241,104137,2,0,L|387:166,1,75.0000028610231,2|2,3:3|0:3,0:0:0:0:
302,199,104589,1,2,3:0:0:0:
302,199,104697,2,0,L|292:149,1,50.0000019073487,2|2,3:3|0:3,0:0:0:0:
203,158,105064,1,2,0:3:0:0:
203,158,105171,2,0,L|193:108,1,50.0000019073487,2|2,3:3|0:3,0:0:0:0:
344,59,105581,5,2,3:3:0:0:
344,59,105689,2,0,L|371:63,6,25.0000009536744,2|2|2|2|2|2|2,0:3|0:3|0:3|0:3|0:3|0:3|3:3,0:0:0:0:
310,18,106314,2,0,P|298:15|277:15,1,31.2500011920929,2|2,0:3|0:3,0:0:0:0:
246,42,106507,2,0,P|228:44|210:39,1,37.5000014305115,2|2,0:3|0:3,0:0:0:0:
169,25,106723,6,0,P|144:53|132:99,1,75.0000028610231,2|2,3:3|0:3,0:0:0:0:
168,176,107176,1,2,0:3:0:0:
168,176,107283,2,0,P|157:207|135:231,1,62.5000023841859,2|2,3:3|0:3,0:0:0:0:
82,261,107628,1,2,0:3:0:0:
33,205,107779,6,0,P|18:185|12:161,1,50.0000019073487,2|2,3:3|0:3,0:0:0:0:
65,109,108102,2,0,P|85:112|97:119,2,31.250001564622,2|2|2,0:3|3:3|0:3,0:0:0:0:
25,59,108447,2,0,P|9:69|-1:85,2,37.5000014305115,2|2|2,0:3|0:3|0:3,0:0:0:0:
81,37,108792,6,0,L|156:51,1,75.0000028610231,2|2,3:3|0:3,0:0:0:0:
123,136,109245,1,2,3:3:0:0:
123,136,109352,2,0,L|173:146,1,50.0000019073487,2|2,3:3|0:3,0:0:0:0:
164,235,109719,1,2,0:3:0:0:
164,235,109826,2,0,L|214:245,1,50.0000019073487,2|2,3:3|0:3,0:0:0:0:
288,321,110214,5,2,3:3:0:0:
288,321,110344,2,0,L|292:294,5,25.0000009536744,2|2|2|2|2|2,0:3|0:3|0:3|0:3|0:3|0:3,0:0:0:0:
318,270,110861,2,0,L|322:243,5,25.0000009536744,2|2|2|2|2|2,0:3|0:3|0:3|0:3|0:3|0:3,0:0:0:0:
348,219,111378,6,0,P|320:194|274:182,1,75.0000028610231,2|2,3:3|0:3,0:0:0:0:
195,157,111831,1,2,0:3:0:0:
195,157,111939,2,0,P|164:146|140:124,1,62.5000023841859,2|2,3:3|0:3,0:0:0:0:
116,68,112283,1,2,0:3:0:0:
150,15,112413,6,0,P|177:23|190:34,1,43.7500016689301,2|2,3:3|0:3,0:0:0:0:
227,97,112714,2,0,P|254:89|267:78,1,43.7500016689301,2|2,0:3|3:3,0:0:0:0:
311,50,112973,2,0,P|339:40|358:43,2,37.5000014305115,2|2|2,0:3|0:3|3:3,0:0:0:0:
352,122,113361,5,2,0:3:0:0:
352,122,113447,2,0,L|338:197,1,75.0000028610231,2|2,3:3|0:3,0:0:0:0:
253,164,113900,1,2,3:3:0:0:
253,164,114007,2,0,L|243:214,1,50.0000019073487,2|2,3:3|0:3,0:0:0:0:
154,205,114374,1,2,0:3:0:0:
154,205,114482,2,0,L|144:255,1,50.0000019073487,2|2,3:3|0:3,0:0:0:0:
208,351,114891,5,2,3:3:0:0:
208,351,114999,2,0,L|181:355,6,25.0000009536744,2|2|2|2|2|2|2,0:3|0:3|0:3|0:3|0:3|0:3|3:3,0:0:0:0:
242,310,115624,2,0,P|254:307|275:307,1,31.2500011920929,2|2,0:3|0:3,0:0:0:0:
306,334,115818,2,0,P|324:336|342:331,1,37.5000014305115,2|2,0:3|0:3,0:0:0:0:
381,313,116033,6,0,P|406:285|418:239,1,75.0000028610231,2|2,3:3|0:3,0:0:0:0:
349,182,116486,1,2,0:3:0:0:
349,182,116594,2,0,P|360:151|382:127,1,62.5000023841859,2|2,3:3|0:3,0:0:0:0:
434,99,116939,1,2,0:3:0:0:
491,147,117089,6,0,P|505:127|511:103,1,50.0000019073487,2|2,3:3|0:3,0:0:0:0:
494,31,117413,2,0,P|496:11|503:-1,2,31.250001564622,2|2|2,0:3|3:3|0:3,0:0:0:0:
430,28,117757,2,0,P|414:19|403:3,2,37.5000014305115,2|2|2,0:3|0:3|0:3,0:0:0:0:
392,50,118102,6,0,L|317:64,1,75.0000028610231,2|2,3:3|0:3,0:0:0:0:
350,149,118555,1,2,3:3:0:0:
350,149,118663,2,0,L|300:159,1,50.0000019073487,2|2,3:3|0:3,0:0:0:0:
309,248,119029,1,2,0:3:0:0:
309,248,119137,2,0,L|259:258,1,50.0000019073487,2|2,3:3|0:3,0:0:0:0:
108,180,119654,2,0,L|58:190,1,50.0000019073487,2|2,3:3|0:3,0:0:0:0:
