osu file format v14

[General]
AudioFilename: audio.mp3
AudioLeadIn: 0
PreviewTime: 77921
Countdown: 0
SampleSet: Normal
StackLeniency: 0.7
Mode: 1
LetterboxInBreaks: 0
WidescreenStoryboard: 0

[Editor]
Bookmarks: 15681,28148,40616,53084,78019,102954,189837,249252
DistanceSpacing: 0.8
BeatDivisor: 4
GridSize: 8
TimelineZoom: 2.839999

[Metadata]
Title:GAS GAS GAS
TitleUnicode:GAS GAS GAS
Artist:MANUEL
ArtistUnicode:MANUEL
Creator:RuinedChicken
Version:Tofu Delivery Oni
Source:
Tags:eurobeat initiald tofu
BeatmapID:1171438
BeatmapSetID:553247

[Difficulty]
HPDrainRate:5
CircleSize:5
OverallDifficulty:6
ApproachRate:5
SliderMultiplier:1.5
SliderTickRate:1

[Events]
//Background and Video events
0,0,"night-accelerationshort.jpg",0,0
//Break Periods
//Storyboard Layer 0 (Background)
//Storyboard Layer 1 (Fail)
//Storyboard Layer 2 (Pass)
//Storyboard Layer 3 (Foreground)
//Storyboard Layer 4 (Overlay)
//Storyboard Sound Samples

[TimingPoints]
97,389.61038961039,4,1,0,70,1,0
26395,-99.009900990099,4,1,0,70,0,0
26493,-98.0392156862745,4,1,0,70,0,0
26590,-97.0873786407767,4,1,0,70,0,0
26785,-96.1538461538461,4,1,0,70,0,0
26980,-95.2380952380952,4,1,0,70,0,0
27174,-94.3396226415094,4,1,0,70,0,0
27272,-93.4579439252336,4,1,0,70,0,0
27467,-92.5925925925926,4,1,0,70,0,0
27661,-91.743119266055,4,1,0,70,0,0
27759,-90.9090909090909,4,1,0,70,0,0
40616,-86.9565217391304,4,1,0,70,0,1
53084,-86.9565217391304,4,1,0,70,0,0
78019,-90.9090909090909,4,1,0,70,0,0
78603,-83.3333333333333,4,1,0,70,0,0
79382,-76.9230769230769,4,1,0,70,0,0
102954,-86.9565217391304,4,1,0,70,0,1
115421,-86.9565217391304,4,1,0,70,0,0
140356,-90.9090909090909,4,1,0,70,0,0
140940,-83.3333333333333,4,1,0,70,0,0
141719,-76.9230769230769,4,1,0,70,0,0
165097,-77.5193798449612,4,1,0,70,0,0
165194,-78.125,4,1,0,70,0,0
165291,-78.7401574803149,4,1,0,70,0,0
165389,-79.3650793650794,4,1,0,70,0,0
165486,-80,4,1,0,70,0,0
165584,-80.6451612903226,4,1,0,70,0,0
165681,-81.3008130081301,4,1,0,70,0,0
165778,-81.9672131147541,4,1,0,70,0,0
165876,-82.6446280991736,4,1,0,70,0,0
165973,-83.3333333333333,4,1,0,70,0,0
177759,-86.9565217391304,4,1,0,70,0,1
190226,-90.9090909090909,4,1,0,70,0,0
213798,-85.4700854700855,4,1,0,70,0,0
214187,-80.6451612903226,4,1,0,70,0,0
214577,-76.3358778625954,4,1,0,70,0,0
216720,-90.9090909090909,4,1,0,70,0,0
217304,-83.3333333333333,4,1,0,70,0,0
218083,-76.9230769230769,4,1,0,70,0,0
238733,-86.9565217391304,4,1,0,70,0,0
240097,-90.9090909090909,4,1,0,70,0,0
241655,-90.9090909090909,4,1,0,70,0,1
242239,-83.3333333333333,4,1,0,70,0,1
243018,-76.9230769230769,4,1,0,70,0,1
268148,-76.9230769230769,4,1,0,70,0,0

[HitObjects]
256,192,1655,5,8,0:0:0:0:
256,192,1752,1,0,0:0:0:0:
256,192,1850,1,8,0:0:0:0:
256,192,1947,1,8,0:0:0:0:
256,192,2045,1,0,0:0:0:0:
256,192,2142,1,8,0:0:0:0:
256,192,2239,1,0,0:0:0:0:
256,192,2337,1,0,0:0:0:0:
256,192,2434,1,8,0:0:0:0:
256,192,2532,1,0,0:0:0:0:
256,192,2629,1,8,0:0:0:0:
256,192,2726,1,0,0:0:0:0:
256,192,2824,1,0,0:0:0:0:
256,192,2921,1,0,0:0:0:0:
256,192,3019,1,8,0:0:0:0:
256,192,3116,1,0,0:0:0:0:
256,192,3213,1,12,0:0:0:0:
256,192,3408,1,12,0:0:0:0:
256,192,3798,1,12,0:0:0:0:
256,192,3993,1,12,0:0:0:0:
256,200,4382,1,12,0:0:0:0:
256,192,4577,1,12,0:0:0:0:
256,192,4967,1,12,0:0:0:0:
256,192,5356,1,4,0:0:0:0:
256,192,5551,1,12,0:0:0:0:
256,192,5941,1,12,0:0:0:0:
256,192,6330,1,12,0:0:0:0:
256,192,6525,1,12,0:0:0:0:
256,192,6915,1,12,0:0:0:0:
256,192,7109,1,12,0:0:0:0:
256,192,7499,1,12,0:0:0:0:
256,192,7694,1,4,0:0:0:0:
256,192,7889,1,8,0:0:0:0:
256,192,7986,1,8,0:0:0:0:
256,192,8084,1,8,0:0:0:0:
256,192,8181,1,8,0:0:0:0:
256,192,8278,1,0,0:0:0:0:
256,184,8376,1,0,0:0:0:0:
256,192,8473,1,8,0:0:0:0:
256,192,8571,1,8,0:0:0:0:
256,192,8668,5,8,0:0:0:0:
256,192,8765,1,8,0:0:0:0:
256,200,8863,1,8,0:0:0:0:
256,192,8960,1,8,0:0:0:0:
256,192,9058,1,0,0:0:0:0:
256,192,9155,1,8,0:0:0:0:
256,192,9252,1,8,0:0:0:0:
256,192,9350,1,8,0:0:0:0:
256,192,9447,5,0,0:0:0:0:
256,192,9545,1,0,0:0:0:0:
256,192,9642,1,8,0:0:0:0:
256,192,9837,1,0,0:0:0:0:
256,192,10032,1,8,0:0:0:0:
256,192,10226,1,0,0:0:0:0:
256,192,10324,1,0,0:0:0:0:
256,192,10616,1,0,0:0:0:0:
256,192,10713,1,0,0:0:0:0:
256,192,10909,1,0,0:0:0:0:
256,192,11006,1,0,0:0:0:0:
256,192,11103,1,0,0:0:0:0:
256,192,11200,1,8,0:0:0:0:
256,192,11395,1,0,0:0:0:0:
256,192,11493,1,0,0:0:0:0:
256,192,11687,1,0,0:0:0:0:
256,192,11785,1,0,0:0:0:0:
256,192,11882,1,0,0:0:0:0:
256,192,11980,1,8,0:0:0:0:
256,184,12174,1,0,0:0:0:0:
256,192,12272,1,0,0:0:0:0:
256,192,12369,1,8,0:0:0:0:
256,192,12564,1,0,0:0:0:0:
256,192,12661,1,0,0:0:0:0:
256,192,12759,1,8,0:0:0:0:
256,192,12954,1,0,0:0:0:0:
256,192,13148,1,8,0:0:0:0:
256,192,13343,1,0,0:0:0:0:
256,192,13441,1,0,0:0:0:0:
256,192,13733,1,0,0:0:0:0:
256,192,13831,1,0,0:0:0:0:
256,192,14122,1,8,0:0:0:0:
256,192,14220,1,8,0:0:0:0:
256,192,14317,1,0,0:0:0:0:
256,192,14415,1,0,0:0:0:0:
256,192,14512,1,8,0:0:0:0:
256,192,14609,1,0,0:0:0:0:
256,192,14707,1,0,0:0:0:0:
256,192,14804,1,0,0:0:0:0:
256,192,14902,1,8,0:0:0:0:
256,192,14999,1,0,0:0:0:0:
256,192,15097,1,8,0:0:0:0:
256,200,15145,1,8,0:0:0:0:
256,192,15194,1,0,0:0:0:0:
256,192,15291,1,8,0:0:0:0:
256,192,15389,1,8,0:0:0:0:
256,192,15486,1,8,0:0:0:0:
256,192,15584,1,8,0:0:0:0:
256,192,15681,1,0,0:0:0:0:
256,192,15876,1,0,0:0:0:0:
256,192,16071,1,8,0:0:0:0:
256,192,16265,1,0,0:0:0:0:
256,192,16655,1,0,0:0:0:0:
256,192,16850,1,8,0:0:0:0:
256,192,17045,1,0,0:0:0:0:
256,192,17239,1,0,0:0:0:0:
256,192,17337,1,0,0:0:0:0:
256,192,17434,1,0,0:0:0:0:
256,192,17629,1,8,0:0:0:0:
256,192,17824,1,0,0:0:0:0:
256,192,18019,1,0,0:0:0:0:
256,192,18116,1,0,0:0:0:0:
256,192,18213,1,0,0:0:0:0:
256,192,18408,1,8,0:0:0:0:
256,192,18603,1,0,0:0:0:0:
256,192,18798,1,0,0:0:0:0:
256,192,18993,1,0,0:0:0:0:
256,192,19187,1,8,0:0:0:0:
256,192,19382,1,0,0:0:0:0:
256,192,19772,1,0,0:0:0:0:
256,192,19967,1,8,0:0:0:0:
256,192,20161,1,0,0:0:0:0:
256,192,20356,1,8,0:0:0:0:
256,192,20454,1,8,0:0:0:0:
256,192,20551,1,8,0:0:0:0:
256,192,20746,1,0,0:0:0:0:
256,192,20941,1,0,0:0:0:0:
256,192,21135,1,8,0:0:0:0:
256,192,21233,1,8,0:0:0:0:
256,192,21330,1,8,0:0:0:0:
256,192,21525,1,0,0:0:0:0:
256,192,21720,1,8,0:0:0:0:
256,192,21915,1,0,0:0:0:0:
256,192,22109,1,0,0:0:0:0:
256,192,22304,1,8,0:0:0:0:
256,192,22499,1,0,0:0:0:0:
256,192,22889,1,0,0:0:0:0:
256,192,23084,1,8,0:0:0:0:
256,192,23278,1,0,0:0:0:0:
256,192,23473,1,0,0:0:0:0:
256,192,23571,1,0,0:0:0:0:
256,192,23668,1,0,0:0:0:0:
256,192,23863,1,8,0:0:0:0:
256,192,24058,1,0,0:0:0:0:
256,192,24252,1,0,0:0:0:0:
256,192,24350,1,0,0:0:0:0:
256,192,24447,1,0,0:0:0:0:
256,192,24642,1,8,0:0:0:0:
256,192,24837,1,0,0:0:0:0:
256,192,25032,1,0,0:0:0:0:
256,192,25226,1,0,0:0:0:0:
256,192,25421,1,8,0:0:0:0:
256,192,25616,1,0,0:0:0:0:
256,192,26006,1,0,0:0:0:0:
256,192,26200,1,8,0:0:0:0:
256,192,26395,1,0,0:0:0:0:
256,192,26493,1,0,0:0:0:0:
256,192,26590,1,0,0:0:0:0:
256,192,26785,1,8,0:0:0:0:
256,192,26980,1,8,0:0:0:0:
256,192,27174,1,0,0:0:0:0:
256,192,27272,1,8,0:0:0:0:
256,192,27467,1,8,0:0:0:0:
256,192,27661,1,8,0:0:0:0:
256,192,27759,1,8,0:0:0:0:
256,192,27954,1,8,0:0:0:0:
256,192,28051,1,8,0:0:0:0:
256,192,28148,5,0,0:0:0:0:
256,192,28246,1,0,0:0:0:0:
256,192,28343,1,8,0:0:0:0:
256,192,28538,1,0,0:0:0:0:
256,192,28733,1,8,0:0:0:0:
256,192,28928,1,0,0:0:0:0:
256,192,29025,1,0,0:0:0:0:
256,192,29122,1,8,0:0:0:0:
256,192,29317,1,0,0:0:0:0:
256,192,29512,1,8,0:0:0:0:
264,192,29707,1,0,0:0:0:0:
264,192,29804,1,0,0:0:0:0:
264,192,29902,1,8,0:0:0:0:
256,192,29999,1,0,0:0:0:0:
256,192,30096,1,0,0:0:0:0:
256,192,30193,1,0,0:0:0:0:
256,192,30291,1,8,0:0:0:0:
256,192,30486,1,0,0:0:0:0:
256,192,30681,1,8,0:0:0:0:
256,192,30876,1,0,0:0:0:0:
256,192,31071,1,8,0:0:0:0:
256,192,31168,1,0,0:0:0:0:
256,192,31266,1,0,0:0:0:0:
256,192,31460,1,8,0:0:0:0:
256,192,31655,1,0,0:0:0:0:
256,192,31850,1,8,0:0:0:0:
256,192,32045,1,0,0:0:0:0:
256,192,32239,1,8,0:0:0:0:
256,192,32434,1,0,0:0:0:0:
256,192,32629,1,8,0:0:0:0:
256,192,32726,1,0,0:0:0:0:
256,192,32824,1,0,0:0:0:0:
256,192,33019,1,8,0:0:0:0:
256,192,33213,1,0,0:0:0:0:
256,192,33408,1,8,0:0:0:0:
256,192,33603,1,0,0:0:0:0:
256,192,33798,1,8,0:0:0:0:
248,208,33847,1,8,0:0:0:0:
256,192,33895,1,8,0:0:0:0:
256,192,33993,1,8,0:0:0:0:
256,192,34090,1,0,0:0:0:0:
256,192,34187,1,0,0:0:0:0:
256,192,34285,1,0,0:0:0:0:
256,192,34382,1,8,0:0:0:0:
256,192,34577,1,0,0:0:0:0:
256,192,34674,1,0,0:0:0:0:
256,192,34772,1,8,0:0:0:0:
256,192,34967,1,8,0:0:0:0:
256,192,35064,1,8,0:0:0:0:
256,192,35161,1,0,0:0:0:0:
256,192,35356,1,0,0:0:0:0:
256,192,35454,1,8,0:0:0:0:
256,192,35551,1,0,0:0:0:0:
256,192,35648,1,0,0:0:0:0:
256,192,35746,1,8,0:0:0:0:
256,192,35941,1,8,0:0:0:0:
256,192,36038,1,0,0:0:0:0:
256,192,36135,1,8,0:0:0:0:
256,192,36233,1,0,0:0:0:0:
256,192,36330,1,0,0:0:0:0:
256,192,37304,1,0,0:0:0:0:
256,192,37402,1,0,0:0:0:0:
256,192,37499,1,8,0:0:0:0:
256,192,37889,1,8,0:0:0:0:
256,192,38084,1,0,0:0:0:0:
256,192,38181,1,8,0:0:0:0:
256,192,38278,1,0,0:0:0:0:
256,192,38376,1,0,0:0:0:0:
256,192,38473,1,8,0:0:0:0:
256,192,38863,1,12,0:0:0:0:
256,192,39252,1,0,0:0:0:0:
256,192,39642,1,0,0:0:0:0:
256,192,40032,1,8,0:0:0:0:
256,192,40616,5,0,0:0:0:0:
256,192,40713,1,8,0:0:0:0:
256,192,40811,1,8,0:0:0:0:
256,192,40908,1,0,0:0:0:0:
256,192,41006,1,8,0:0:0:0:
256,192,41103,1,8,0:0:0:0:
256,192,41200,1,0,0:0:0:0:
256,192,41298,1,0,0:0:0:0:
256,192,41395,1,0,0:0:0:0:
256,192,41493,1,8,0:0:0:0:
256,192,41590,1,8,0:0:0:0:
256,192,41687,1,0,0:0:0:0:
256,192,41785,1,8,0:0:0:0:
256,192,41882,1,8,0:0:0:0:
256,192,41980,1,0,0:0:0:0:
256,192,42077,1,0,0:0:0:0:
256,192,42174,1,0,0:0:0:0:
256,192,42272,1,8,0:0:0:0:
256,192,42369,1,8,0:0:0:0:
256,192,42467,1,0,0:0:0:0:
256,192,42564,1,8,0:0:0:0:
256,192,42661,1,8,0:0:0:0:
256,192,42759,1,8,0:0:0:0:
256,192,42856,1,0,0:0:0:0:
256,192,42954,1,8,0:0:0:0:
256,192,43051,1,8,0:0:0:0:
256,192,43148,1,8,0:0:0:0:
256,192,43246,1,0,0:0:0:0:
256,192,43343,1,8,0:0:0:0:
256,192,43441,1,8,0:0:0:0:
256,192,43538,1,0,0:0:0:0:
256,192,43635,1,0,0:0:0:0:
256,200,43733,1,0,0:0:0:0:
256,192,43830,1,8,0:0:0:0:
256,192,43928,1,8,0:0:0:0:
256,192,44025,1,0,0:0:0:0:
256,192,44122,1,8,0:0:0:0:
256,192,44220,1,8,0:0:0:0:
256,192,44317,1,0,0:0:0:0:
256,192,44415,1,0,0:0:0:0:
256,192,44512,1,0,0:0:0:0:
256,192,44609,1,8,0:0:0:0:
256,192,44707,1,8,0:0:0:0:
256,192,44804,1,0,0:0:0:0:
256,192,44902,1,8,0:0:0:0:
256,192,44999,1,8,0:0:0:0:
256,192,45097,1,0,0:0:0:0:
256,192,45194,1,0,0:0:0:0:
256,192,45291,1,0,0:0:0:0:
256,192,45389,1,8,0:0:0:0:
256,192,45486,1,8,0:0:0:0:
256,192,45584,1,0,0:0:0:0:
256,192,45681,1,0,0:0:0:0:
256,192,45778,1,8,0:0:0:0:
256,192,45876,1,8,0:0:0:0:
256,192,45973,1,0,0:0:0:0:
256,192,46071,1,8,0:0:0:0:
256,192,46168,1,0,0:0:0:0:
256,192,46265,1,0,0:0:0:0:
256,192,46363,1,0,0:0:0:0:
256,192,46460,1,8,0:0:0:0:
256,192,46558,1,0,0:0:0:0:
256,192,46655,1,8,0:0:0:0:
256,192,46752,1,8,0:0:0:0:
256,192,46850,5,0,0:0:0:0:
256,192,46947,1,8,0:0:0:0:
256,192,47045,1,8,0:0:0:0:
256,192,47142,1,0,0:0:0:0:
256,192,47240,1,8,0:0:0:0:
256,192,47337,1,8,0:0:0:0:
256,192,47434,1,0,0:0:0:0:
256,192,47532,1,0,0:0:0:0:
256,192,47629,1,0,0:0:0:0:
256,192,47727,1,8,0:0:0:0:
256,192,47824,1,8,0:0:0:0:
256,192,47921,1,0,0:0:0:0:
256,192,48019,1,8,0:0:0:0:
256,192,48116,1,8,0:0:0:0:
256,192,48214,1,0,0:0:0:0:
256,192,48311,1,0,0:0:0:0:
256,192,48408,1,0,0:0:0:0:
256,192,48506,1,8,0:0:0:0:
256,192,48603,1,8,0:0:0:0:
256,192,48701,1,0,0:0:0:0:
256,192,48798,1,8,0:0:0:0:
256,192,48895,1,8,0:0:0:0:
256,192,48993,1,0,0:0:0:0:
256,192,49090,1,0,0:0:0:0:
256,192,49187,1,0,0:0:0:0:
256,192,49285,1,8,0:0:0:0:
256,192,49382,1,8,0:0:0:0:
256,192,49480,1,0,0:0:0:0:
256,192,49577,1,8,0:0:0:0:
256,192,49674,1,0,0:0:0:0:
256,192,49772,1,0,0:0:0:0:
256,192,49869,1,0,0:0:0:0:
256,192,49967,1,8,0:0:0:0:
256,192,50064,1,8,0:0:0:0:
256,192,50161,1,0,0:0:0:0:
256,192,50259,1,0,0:0:0:0:
256,192,50356,1,0,0:0:0:0:
256,192,50454,1,8,0:0:0:0:
256,192,50551,1,8,0:0:0:0:
256,192,50648,1,0,0:0:0:0:
256,192,50746,1,0,0:0:0:0:
256,192,50843,1,8,0:0:0:0:
256,192,50941,1,8,0:0:0:0:
256,192,51038,1,0,0:0:0:0:
256,192,51135,1,8,0:0:0:0:
256,192,51233,1,8,0:0:0:0:
256,192,51330,1,0,0:0:0:0:
256,192,51525,1,4,0:0:0:0:
256,192,52304,1,12,0:0:0:0:
256,192,53084,1,0,0:0:0:0:
256,192,53181,1,0,0:0:0:0:
256,192,53278,1,8,0:0:0:0:
256,192,53473,1,0,0:0:0:0:
256,192,53668,1,8,0:0:0:0:
256,192,53765,1,0,0:0:0:0:
256,192,53862,1,0,0:0:0:0:
256,192,53960,1,0,0:0:0:0:
256,192,54058,1,8,0:0:0:0:
256,192,54252,1,0,0:0:0:0:
256,192,54447,1,8,0:0:0:0:
256,192,54545,1,0,0:0:0:0:
264,200,54642,1,0,0:0:0:0:
264,200,54740,1,0,0:0:0:0:
264,200,54837,1,8,0:0:0:0:
256,192,55032,1,0,0:0:0:0:
256,192,55226,1,8,0:0:0:0:
256,200,55324,1,0,0:0:0:0:
256,200,55421,1,0,0:0:0:0:
256,200,55519,1,0,0:0:0:0:
256,200,55616,1,8,0:0:0:0:
256,192,55713,1,0,0:0:0:0:
256,192,55811,1,0,0:0:0:0:
256,192,55908,1,0,0:0:0:0:
256,192,56006,1,8,0:0:0:0:
256,192,56200,1,0,0:0:0:0:
256,192,56395,1,8,0:0:0:0:
256,192,56493,1,8,0:0:0:0:
256,192,56590,1,0,0:0:0:0:
256,192,56687,1,0,0:0:0:0:
256,192,56785,1,8,0:0:0:0:
256,192,56980,1,0,0:0:0:0:
256,192,57174,1,8,0:0:0:0:
256,192,57272,1,0,0:0:0:0:
256,192,57369,1,0,0:0:0:0:
256,192,57467,1,0,0:0:0:0:
256,192,57564,1,8,0:0:0:0:
256,192,57759,5,0,0:0:0:0:
256,192,57856,1,0,0:0:0:0:
256,192,57954,1,0,0:0:0:0:
256,192,58051,1,8,0:0:0:0:
256,192,58148,1,8,0:0:0:0:
256,192,58343,1,0,0:0:0:0:
256,192,58440,1,0,0:0:0:0:
256,192,58538,1,8,0:0:0:0:
256,192,58635,1,8,0:0:0:0:
256,192,58733,1,0,0:0:0:0:
256,192,58830,1,0,0:0:0:0:
256,192,58928,1,8,0:0:0:0:
256,192,59025,1,8,0:0:0:0:
256,192,59122,1,8,0:0:0:0:
256,192,59220,1,8,0:0:0:0:
256,192,59317,1,0,0:0:0:0:
256,200,59415,1,0,0:0:0:0:
256,192,59512,1,8,0:0:0:0:
256,192,59707,1,0,0:0:0:0:
256,192,59902,1,8,0:0:0:0:
256,200,59999,1,0,0:0:0:0:
256,192,60097,1,0,0:0:0:0:
256,200,60194,1,0,0:0:0:0:
256,192,60291,1,8,0:0:0:0:
256,192,60486,1,0,0:0:0:0:
256,192,60681,1,8,0:0:0:0:
256,192,60778,1,0,0:0:0:0:
256,192,60876,1,0,0:0:0:0:
256,200,60973,1,0,0:0:0:0:
256,192,61071,1,8,0:0:0:0:
256,192,61265,1,0,0:0:0:0:
256,192,61460,1,8,0:0:0:0:
256,192,61558,1,0,0:0:0:0:
272,200,61655,1,0,0:0:0:0:
256,192,61752,1,0,0:0:0:0:
256,192,61850,1,8,0:0:0:0:
256,200,61947,1,0,0:0:0:0:
256,192,62045,1,0,0:0:0:0:
256,192,62142,1,0,0:0:0:0:
256,192,62239,1,12,0:0:0:0:
256,192,62629,1,8,0:0:0:0:
256,192,62824,1,0,0:0:0:0:
256,192,63019,1,8,0:0:0:0:
256,192,63213,1,0,0:0:0:0:
256,192,63311,1,8,0:0:0:0:
256,192,63408,1,0,0:0:0:0:
256,192,63603,1,12,0:0:0:0:
256,192,63993,5,0,0:0:0:0:
256,192,64090,1,0,0:0:0:0:
256,192,64187,1,0,0:0:0:0:
256,192,64285,1,8,0:0:0:0:
256,192,64382,1,8,0:0:0:0:
256,192,64480,1,0,0:0:0:0:
256,192,64577,1,0,0:0:0:0:
256,192,64772,1,8,0:0:0:0:
256,192,64869,1,8,0:0:0:0:
256,192,64967,1,0,0:0:0:0:
256,200,65064,1,8,0:0:0:0:
256,200,65161,1,8,0:0:0:0:
256,200,65259,1,0,0:0:0:0:
256,200,65356,1,0,0:0:0:0:
256,200,65551,1,4,0:0:0:0:
256,192,65746,1,8,0:0:0:0:
256,192,65843,1,0,0:0:0:0:
256,192,66038,1,8,0:0:0:0:
256,192,66135,1,0,0:0:0:0:
256,192,66330,1,0,0:0:0:0:
256,192,66428,1,8,0:0:0:0:
256,192,66525,1,0,0:0:0:0:
256,192,66720,1,8,0:0:0:0:
256,192,66915,1,8,0:0:0:0:
256,192,67012,1,0,0:0:0:0:
256,192,67207,1,8,0:0:0:0:
256,192,67304,1,0,0:0:0:0:
256,192,67499,1,0,0:0:0:0:
256,192,67597,1,8,0:0:0:0:
256,192,67694,1,0,0:0:0:0:
256,192,67889,1,8,0:0:0:0:
256,192,67986,1,8,0:0:0:0:
256,192,68084,1,0,0:0:0:0:
256,192,68278,1,0,0:0:0:0:
256,192,68376,1,8,0:0:0:0:
256,192,68473,1,0,0:0:0:0:
256,192,68668,1,8,0:0:0:0:
256,192,68863,1,8,0:0:0:0:
256,192,68960,1,0,0:0:0:0:
256,192,69155,1,8,0:0:0:0:
256,192,69252,1,0,0:0:0:0:
256,192,69447,1,0,0:0:0:0:
256,192,69545,1,8,0:0:0:0:
256,192,69642,1,0,0:0:0:0:
256,192,69837,1,8,0:0:0:0:
256,192,69934,1,8,0:0:0:0:
256,192,70032,1,0,0:0:0:0:
256,192,70226,1,8,0:0:0:0:
256,192,70421,1,0,0:0:0:0:
256,192,70519,1,8,0:0:0:0:
256,192,70713,1,8,0:0:0:0:
256,192,70811,1,0,0:0:0:0:
256,192,71006,1,0,0:0:0:0:
256,192,71103,1,8,0:0:0:0:
256,192,71200,1,8,0:0:0:0:
256,192,71298,1,0,0:0:0:0:
256,192,71395,1,0,0:0:0:0:
256,192,71493,1,8,0:0:0:0:
256,192,71590,1,8,0:0:0:0:
256,192,71687,1,0,0:0:0:0:
256,192,71785,1,8,0:0:0:0:
256,184,71980,1,8,0:0:0:0:
256,192,72174,1,0,0:0:0:0:
256,192,72369,1,0,0:0:0:0:
256,192,72564,1,8,0:0:0:0:
256,192,72759,1,8,0:0:0:0:
256,192,72954,1,0,0:0:0:0:
256,192,73148,1,0,0:0:0:0:
256,192,73538,1,8,0:0:0:0:
256,192,73733,1,0,0:0:0:0:
256,192,73928,1,8,0:0:0:0:
256,192,74122,1,0,0:0:0:0:
256,192,74317,1,0,0:0:0:0:
256,184,74512,1,8,0:0:0:0:
256,184,74707,1,0,0:0:0:0:
256,184,74902,1,8,0:0:0:0:
256,192,75097,1,0,0:0:0:0:
256,192,75291,1,0,0:0:0:0:
256,192,75486,1,8,0:0:0:0:
256,192,75681,1,0,0:0:0:0:
256,192,75876,1,0,0:0:0:0:
256,192,75973,1,0,0:0:0:0:
256,192,76071,1,8,0:0:0:0:
256,192,76168,1,0,0:0:0:0:
256,192,76265,1,8,0:0:0:0:
256,192,76655,1,0,0:0:0:0:
256,192,77045,1,8,0:0:0:0:
256,192,77434,1,0,0:0:0:0:
256,192,78019,5,8,0:0:0:0:
256,192,78116,1,8,0:0:0:0:
256,192,78213,1,0,0:0:0:0:
256,192,78311,1,0,0:0:0:0:
256,192,78408,1,0,0:0:0:0:
256,192,78506,1,0,0:0:0:0:
256,192,78603,1,8,0:0:0:0:
256,192,78700,1,8,0:0:0:0:
256,192,78798,1,8,0:0:0:0:
256,192,78895,1,8,0:0:0:0:
256,192,78993,1,0,0:0:0:0:
256,192,79090,1,0,0:0:0:0:
256,192,79187,1,0,0:0:0:0:
256,192,79285,1,0,0:0:0:0:
256,192,79382,1,8,0:0:0:0:
256,192,79480,1,8,0:0:0:0:
256,192,79577,1,8,0:0:0:0:
256,192,79674,1,8,0:0:0:0:
264,192,79772,1,0,0:0:0:0:
264,192,79869,1,0,0:0:0:0:
256,192,79967,1,8,0:0:0:0:
256,192,80064,1,8,0:0:0:0:
256,192,80161,1,0,0:0:0:0:
256,192,80259,1,0,0:0:0:0:
256,192,80356,1,8,0:0:0:0:
256,192,80454,1,8,0:0:0:0:
256,192,80551,1,0,0:0:0:0:
256,192,80648,1,0,0:0:0:0:
256,192,80746,1,8,0:0:0:0:
256,192,80843,1,8,0:0:0:0:
256,192,80941,1,8,0:0:0:0:
256,192,81038,1,8,0:0:0:0:
256,192,81135,1,0,0:0:0:0:
256,192,81233,1,0,0:0:0:0:
256,192,81330,1,8,0:0:0:0:
256,192,81428,1,8,0:0:0:0:
256,192,81525,1,8,0:0:0:0:
256,192,81622,1,8,0:0:0:0:
256,192,81720,1,8,0:0:0:0:
256,192,81817,1,0,0:0:0:0:
256,192,81915,1,0,0:0:0:0:
256,192,82012,1,0,0:0:0:0:
256,192,82109,1,8,0:0:0:0:
256,192,82207,1,8,0:0:0:0:
256,192,82304,1,8,0:0:0:0:
256,192,82402,1,8,0:0:0:0:
256,192,82499,1,0,0:0:0:0:
256,192,82597,1,0,0:0:0:0:
256,192,82694,1,0,0:0:0:0:
256,192,82791,1,0,0:0:0:0:
256,192,82889,1,8,0:0:0:0:
256,192,82986,1,0,0:0:0:0:
256,192,83084,1,0,0:0:0:0:
256,192,83181,1,0,0:0:0:0:
256,192,83278,1,8,0:0:0:0:
256,192,83376,1,0,0:0:0:0:
256,192,83473,1,8,0:0:0:0:
256,192,83571,1,8,0:0:0:0:
256,192,83668,1,0,0:0:0:0:
256,192,83765,1,0,0:0:0:0:
256,192,83863,1,8,0:0:0:0:
256,192,83960,1,8,0:0:0:0:
256,192,84058,1,0,0:0:0:0:
256,192,84155,1,0,0:0:0:0:
256,192,84252,1,8,0:0:0:0:
256,192,84350,1,8,0:0:0:0:
256,192,84447,1,0,0:0:0:0:
256,192,84545,1,0,0:0:0:0:
256,192,84642,1,0,0:0:0:0:
256,192,84739,1,0,0:0:0:0:
256,192,84837,1,8,0:0:0:0:
256,192,84934,1,8,0:0:0:0:
256,192,85032,1,8,0:0:0:0:
256,192,85129,1,8,0:0:0:0:
256,192,85226,1,0,0:0:0:0:
256,192,85324,1,0,0:0:0:0:
256,192,85421,1,0,0:0:0:0:
256,192,85519,1,0,0:0:0:0:
256,192,85616,1,8,0:0:0:0:
256,192,85713,1,8,0:0:0:0:
256,192,85811,1,8,0:0:0:0:
256,192,85908,1,8,0:0:0:0:
256,192,86006,1,0,0:0:0:0:
256,192,86103,1,0,0:0:0:0:
256,192,86200,1,8,0:0:0:0:
256,192,86298,1,8,0:0:0:0:
256,192,86395,1,0,0:0:0:0:
256,192,86493,1,0,0:0:0:0:
256,192,86590,1,8,0:0:0:0:
256,192,86687,1,8,0:0:0:0:
256,192,86785,1,0,0:0:0:0:
256,192,86882,1,0,0:0:0:0:
256,192,86980,1,0,0:0:0:0:
256,192,87077,1,0,0:0:0:0:
256,192,87174,1,8,0:0:0:0:
256,192,87272,1,8,0:0:0:0:
256,192,87369,1,8,0:0:0:0:
256,192,87467,1,8,0:0:0:0:
256,192,87564,1,0,0:0:0:0:
256,192,87661,1,0,0:0:0:0:
256,192,87759,1,0,0:0:0:0:
256,192,87856,1,8,0:0:0:0:
256,192,87954,1,8,0:0:0:0:
256,192,88051,1,0,0:0:0:0:
256,192,88148,1,0,0:0:0:0:
256,192,88246,1,8,0:0:0:0:
256,192,88343,1,8,0:0:0:0:
256,192,88441,1,0,0:0:0:0:
256,192,88538,1,0,0:0:0:0:
256,192,88635,1,8,0:0:0:0:
256,192,88733,1,8,0:0:0:0:
256,192,88830,1,0,0:0:0:0:
256,192,88928,1,8,0:0:0:0:
256,192,89025,1,8,0:0:0:0:
256,192,89122,1,0,0:0:0:0:
256,192,89220,1,0,0:0:0:0:
256,192,89317,1,0,0:0:0:0:
256,192,89415,1,0,0:0:0:0:
256,192,89512,1,0,0:0:0:0:
256,192,89609,1,0,0:0:0:0:
256,192,89707,1,8,0:0:0:0:
256,192,89804,1,8,0:0:0:0:
256,192,89902,1,0,0:0:0:0:
256,192,89999,1,0,0:0:0:0:
256,192,90097,1,8,0:0:0:0:
256,192,90194,1,8,0:0:0:0:
256,192,90291,1,0,0:0:0:0:
256,192,90389,1,0,0:0:0:0:
256,192,90486,5,8,0:0:0:0:
256,192,90583,1,8,0:0:0:0:
256,192,90680,1,0,0:0:0:0:
256,192,90778,1,0,0:0:0:0:
256,192,90875,1,0,0:0:0:0:
256,192,90973,1,0,0:0:0:0:
256,192,91070,1,8,0:0:0:0:
256,192,91167,1,8,0:0:0:0:
256,192,91265,1,8,0:0:0:0:
256,192,91362,1,8,0:0:0:0:
256,192,91460,1,0,0:0:0:0:
256,192,91557,1,0,0:0:0:0:
256,192,91654,1,0,0:0:0:0:
256,192,91752,1,0,0:0:0:0:
256,192,91849,1,8,0:0:0:0:
256,192,91947,1,8,0:0:0:0:
256,192,92044,1,8,0:0:0:0:
256,192,92141,1,8,0:0:0:0:
264,192,92239,1,0,0:0:0:0:
264,192,92336,1,0,0:0:0:0:
256,192,92434,1,8,0:0:0:0:
256,192,92531,1,8,0:0:0:0:
256,192,92628,1,0,0:0:0:0:
256,192,92726,1,0,0:0:0:0:
256,192,92823,1,8,0:0:0:0:
256,192,92921,1,8,0:0:0:0:
256,192,93018,1,0,0:0:0:0:
256,192,93115,1,0,0:0:0:0:
256,192,93213,1,8,0:0:0:0:
256,192,93310,1,8,0:0:0:0:
256,192,93408,1,8,0:0:0:0:
256,192,93505,1,8,0:0:0:0:
256,192,93602,1,0,0:0:0:0:
256,192,93700,1,0,0:0:0:0:
256,192,93797,1,8,0:0:0:0:
256,192,93895,1,8,0:0:0:0:
256,192,93992,1,8,0:0:0:0:
256,192,94089,1,8,0:0:0:0:
256,192,94187,1,8,0:0:0:0:
256,192,94284,1,0,0:0:0:0:
256,192,94382,1,0,0:0:0:0:
256,192,94479,1,0,0:0:0:0:
256,192,94576,1,8,0:0:0:0:
256,192,94674,1,8,0:0:0:0:
256,192,94771,1,8,0:0:0:0:
256,192,94869,1,8,0:0:0:0:
256,192,94966,1,0,0:0:0:0:
256,192,95064,1,0,0:0:0:0:
256,192,95161,1,0,0:0:0:0:
256,192,95258,1,0,0:0:0:0:
256,192,95356,1,8,0:0:0:0:
256,192,95453,1,0,0:0:0:0:
256,192,95551,1,0,0:0:0:0:
256,192,95648,1,0,0:0:0:0:
256,192,95745,1,8,0:0:0:0:
256,192,95843,1,0,0:0:0:0:
256,192,95940,1,8,0:0:0:0:
256,192,96038,1,8,0:0:0:0:
256,192,96135,1,0,0:0:0:0:
256,192,96232,1,0,0:0:0:0:
256,192,96330,1,8,0:0:0:0:
256,192,96427,1,8,0:0:0:0:
256,192,96525,1,0,0:0:0:0:
256,192,96622,1,0,0:0:0:0:
256,192,96719,1,8,0:0:0:0:
256,192,96817,1,8,0:0:0:0:
256,192,96914,1,0,0:0:0:0:
256,192,97012,1,0,0:0:0:0:
256,192,97109,1,0,0:0:0:0:
256,192,97206,1,0,0:0:0:0:
256,192,97304,1,8,0:0:0:0:
256,192,97401,1,8,0:0:0:0:
256,192,97499,1,8,0:0:0:0:
256,192,97596,1,8,0:0:0:0:
256,192,97693,1,0,0:0:0:0:
256,192,97791,1,0,0:0:0:0:
256,192,97888,1,0,0:0:0:0:
256,192,97986,1,0,0:0:0:0:
256,192,98083,1,8,0:0:0:0:
256,192,98180,1,8,0:0:0:0:
256,192,98278,1,8,0:0:0:0:
256,192,98375,1,8,0:0:0:0:
256,192,98473,1,0,0:0:0:0:
256,192,98570,1,0,0:0:0:0:
256,192,98667,1,8,0:0:0:0:
256,192,98765,1,8,0:0:0:0:
256,192,98862,1,0,0:0:0:0:
256,192,98960,1,0,0:0:0:0:
256,192,99057,1,8,0:0:0:0:
256,192,99154,1,8,0:0:0:0:
256,192,99252,1,0,0:0:0:0:
256,192,99349,1,0,0:0:0:0:
256,192,99447,1,0,0:0:0:0:
256,192,99545,1,8,0:0:0:0:
256,192,99641,1,8,0:0:0:0:
256,192,99739,1,0,0:0:0:0:
256,192,99836,1,8,0:0:0:0:
256,192,100032,1,12,0:0:0:0:
256,192,100421,1,12,0:0:0:0:
256,192,100811,1,12,0:0:0:0:
256,192,101200,1,12,0:0:0:0:
256,192,101395,1,4,0:0:0:0:
256,192,101590,1,0,0:0:0:0:
256,192,101687,1,0,0:0:0:0:
256,192,101785,1,8,0:0:0:0:
256,192,101882,1,0,0:0:0:0:
256,192,101980,1,0,0:0:0:0:
256,192,102077,1,8,0:0:0:0:
256,192,102174,1,4,0:0:0:0:
256,192,102954,5,0,0:0:0:0:
256,192,103051,1,8,0:0:0:0:
256,192,103149,1,8,0:0:0:0:
256,192,103246,1,0,0:0:0:0:
256,192,103344,1,8,0:0:0:0:
256,192,103441,1,8,0:0:0:0:
256,192,103538,1,0,0:0:0:0:
256,192,103636,1,0,0:0:0:0:
256,192,103733,1,0,0:0:0:0:
256,192,103831,1,8,0:0:0:0:
256,192,103928,1,8,0:0:0:0:
256,192,104025,1,0,0:0:0:0:
256,192,104123,1,8,0:0:0:0:
256,192,104220,1,8,0:0:0:0:
256,192,104318,1,0,0:0:0:0:
256,192,104415,1,0,0:0:0:0:
256,192,104512,1,0,0:0:0:0:
256,192,104610,1,8,0:0:0:0:
256,192,104707,1,8,0:0:0:0:
256,192,104805,1,0,0:0:0:0:
256,192,104902,1,8,0:0:0:0:
256,192,104999,1,8,0:0:0:0:
256,192,105097,1,8,0:0:0:0:
256,192,105194,1,0,0:0:0:0:
256,192,105292,1,8,0:0:0:0:
256,192,105389,1,8,0:0:0:0:
256,192,105486,1,8,0:0:0:0:
256,192,105584,1,0,0:0:0:0:
256,192,105681,1,8,0:0:0:0:
256,192,105779,1,8,0:0:0:0:
256,192,105876,1,0,0:0:0:0:
256,192,105973,1,0,0:0:0:0:
256,200,106071,1,0,0:0:0:0:
256,192,106168,1,8,0:0:0:0:
256,192,106266,1,8,0:0:0:0:
256,192,106363,1,0,0:0:0:0:
256,192,106460,1,8,0:0:0:0:
256,192,106558,1,8,0:0:0:0:
256,192,106655,1,0,0:0:0:0:
256,192,106753,1,0,0:0:0:0:
256,192,106850,1,0,0:0:0:0:
256,192,106947,1,8,0:0:0:0:
256,192,107045,1,8,0:0:0:0:
256,192,107142,1,0,0:0:0:0:
256,192,107240,1,8,0:0:0:0:
256,192,107337,1,8,0:0:0:0:
256,192,107435,1,0,0:0:0:0:
256,192,107532,1,0,0:0:0:0:
256,192,107629,1,0,0:0:0:0:
256,192,107727,1,8,0:0:0:0:
256,192,107824,1,8,0:0:0:0:
256,192,107922,1,0,0:0:0:0:
256,192,108019,1,0,0:0:0:0:
256,192,108116,1,8,0:0:0:0:
256,192,108214,1,8,0:0:0:0:
256,192,108311,1,0,0:0:0:0:
256,192,108409,1,8,0:0:0:0:
256,192,108506,1,0,0:0:0:0:
256,192,108603,1,0,0:0:0:0:
256,192,108701,1,0,0:0:0:0:
256,192,108798,1,8,0:0:0:0:
256,192,108896,1,0,0:0:0:0:
256,192,108993,1,8,0:0:0:0:
256,192,109090,1,8,0:0:0:0:
256,192,109188,5,0,0:0:0:0:
256,192,109285,1,8,0:0:0:0:
256,192,109383,1,8,0:0:0:0:
256,192,109480,1,0,0:0:0:0:
256,192,109578,1,8,0:0:0:0:
256,192,109675,1,8,0:0:0:0:
256,192,109772,1,0,0:0:0:0:
256,192,109870,1,0,0:0:0:0:
256,192,109967,1,0,0:0:0:0:
256,192,110065,1,8,0:0:0:0:
256,192,110162,1,8,0:0:0:0:
256,192,110259,1,0,0:0:0:0:
256,192,110357,1,8,0:0:0:0:
256,192,110454,1,8,0:0:0:0:
256,192,110552,1,0,0:0:0:0:
256,192,110649,1,0,0:0:0:0:
256,192,110746,1,0,0:0:0:0:
256,192,110844,1,8,0:0:0:0:
256,192,110941,1,8,0:0:0:0:
256,192,111039,1,0,0:0:0:0:
256,192,111136,1,8,0:0:0:0:
256,192,111233,1,8,0:0:0:0:
256,192,111331,1,0,0:0:0:0:
256,192,111428,1,0,0:0:0:0:
256,192,111525,1,0,0:0:0:0:
256,192,111623,1,8,0:0:0:0:
256,192,111720,1,8,0:0:0:0:
256,192,111818,1,0,0:0:0:0:
256,192,111915,1,8,0:0:0:0:
256,192,112012,1,0,0:0:0:0:
256,192,112110,1,0,0:0:0:0:
256,192,112207,1,0,0:0:0:0:
256,192,112305,1,8,0:0:0:0:
256,192,112402,1,8,0:0:0:0:
256,192,112499,1,0,0:0:0:0:
256,192,112597,1,0,0:0:0:0:
256,192,112694,1,0,0:0:0:0:
256,192,112792,1,8,0:0:0:0:
256,192,112889,1,8,0:0:0:0:
256,192,112986,1,0,0:0:0:0:
256,192,113084,1,0,0:0:0:0:
256,192,113181,1,8,0:0:0:0:
256,192,113279,1,8,0:0:0:0:
256,192,113376,1,0,0:0:0:0:
256,192,113473,1,8,0:0:0:0:
256,192,113571,1,8,0:0:0:0:
256,192,113668,1,0,0:0:0:0:
256,192,113863,1,4,0:0:0:0:
256,192,114642,1,12,0:0:0:0:
256,192,115421,1,0,0:0:0:0:
256,192,115518,1,0,0:0:0:0:
256,192,115615,1,8,0:0:0:0:
256,192,115810,1,0,0:0:0:0:
256,192,116005,1,8,0:0:0:0:
256,192,116102,1,0,0:0:0:0:
256,192,116199,1,0,0:0:0:0:
256,192,116297,1,0,0:0:0:0:
256,192,116395,1,8,0:0:0:0:
256,192,116589,1,0,0:0:0:0:
256,192,116784,1,8,0:0:0:0:
256,192,116882,1,0,0:0:0:0:
264,200,116979,1,0,0:0:0:0:
264,200,117077,1,0,0:0:0:0:
264,200,117174,1,8,0:0:0:0:
256,192,117369,1,0,0:0:0:0:
256,192,117563,1,8,0:0:0:0:
256,200,117661,1,0,0:0:0:0:
256,200,117758,1,0,0:0:0:0:
256,200,117856,1,0,0:0:0:0:
256,200,117953,1,8,0:0:0:0:
256,192,118050,1,0,0:0:0:0:
256,192,118148,1,0,0:0:0:0:
256,192,118245,1,0,0:0:0:0:
256,192,118343,1,8,0:0:0:0:
256,192,118537,1,0,0:0:0:0:
256,192,118732,1,8,0:0:0:0:
256,192,118830,1,8,0:0:0:0:
256,192,118927,1,0,0:0:0:0:
256,192,119024,1,0,0:0:0:0:
256,192,119122,1,8,0:0:0:0:
256,192,119317,1,0,0:0:0:0:
256,192,119511,1,8,0:0:0:0:
256,192,119609,1,0,0:0:0:0:
256,192,119706,1,0,0:0:0:0:
256,192,119804,1,0,0:0:0:0:
256,192,119901,1,8,0:0:0:0:
256,192,120096,5,0,0:0:0:0:
256,192,120193,1,0,0:0:0:0:
256,192,120291,1,0,0:0:0:0:
256,192,120388,1,8,0:0:0:0:
256,192,120485,1,8,0:0:0:0:
256,192,120680,1,0,0:0:0:0:
256,192,120777,1,0,0:0:0:0:
256,192,120875,1,8,0:0:0:0:
256,192,120972,1,8,0:0:0:0:
256,192,121070,1,0,0:0:0:0:
256,192,121167,1,0,0:0:0:0:
256,192,121265,1,8,0:0:0:0:
256,192,121362,1,8,0:0:0:0:
256,192,121459,1,8,0:0:0:0:
256,192,121557,1,8,0:0:0:0:
256,192,121654,1,0,0:0:0:0:
256,200,121752,1,0,0:0:0:0:
256,192,121849,1,8,0:0:0:0:
256,192,122044,1,0,0:0:0:0:
256,192,122239,1,8,0:0:0:0:
256,200,122336,1,0,0:0:0:0:
256,192,122434,1,0,0:0:0:0:
256,200,122531,1,0,0:0:0:0:
256,192,122628,1,8,0:0:0:0:
256,192,122823,1,0,0:0:0:0:
256,192,123018,1,8,0:0:0:0:
256,192,123115,1,0,0:0:0:0:
256,192,123213,1,0,0:0:0:0:
256,200,123310,1,0,0:0:0:0:
256,192,123408,1,8,0:0:0:0:
256,192,123602,1,0,0:0:0:0:
256,192,123797,1,8,0:0:0:0:
256,192,123895,1,0,0:0:0:0:
272,200,123992,1,0,0:0:0:0:
256,192,124089,1,0,0:0:0:0:
256,192,124187,1,8,0:0:0:0:
256,200,124284,1,0,0:0:0:0:
256,192,124382,1,0,0:0:0:0:
256,192,124479,1,0,0:0:0:0:
256,192,124576,1,12,0:0:0:0:
256,192,124966,1,8,0:0:0:0:
256,192,125161,1,0,0:0:0:0:
256,192,125356,1,8,0:0:0:0:
256,192,125550,1,0,0:0:0:0:
256,192,125648,1,8,0:0:0:0:
256,192,125745,1,0,0:0:0:0:
256,192,125940,1,12,0:0:0:0:
256,192,126330,5,0,0:0:0:0:
256,192,126427,1,0,0:0:0:0:
256,192,126524,1,0,0:0:0:0:
256,192,126622,1,8,0:0:0:0:
256,192,126719,1,8,0:0:0:0:
256,192,126817,1,0,0:0:0:0:
256,192,126914,1,0,0:0:0:0:
256,192,127109,1,8,0:0:0:0:
256,192,127206,1,8,0:0:0:0:
256,192,127304,1,0,0:0:0:0:
256,200,127401,1,8,0:0:0:0:
256,200,127498,1,8,0:0:0:0:
256,200,127596,1,0,0:0:0:0:
256,200,127693,1,0,0:0:0:0:
256,200,127888,1,4,0:0:0:0:
256,192,128083,1,8,0:0:0:0:
256,192,128180,1,0,0:0:0:0:
256,192,128375,1,8,0:0:0:0:
256,192,128472,1,0,0:0:0:0:
256,192,128667,1,0,0:0:0:0:
256,192,128765,1,8,0:0:0:0:
256,192,128862,1,0,0:0:0:0:
256,192,129057,1,8,0:0:0:0:
256,192,129252,1,8,0:0:0:0:
256,192,129349,1,0,0:0:0:0:
256,192,129544,1,8,0:0:0:0:
256,192,129641,1,0,0:0:0:0:
256,192,129836,1,0,0:0:0:0:
256,192,129934,1,8,0:0:0:0:
256,192,130031,1,0,0:0:0:0:
256,192,130226,1,8,0:0:0:0:
256,192,130323,1,8,0:0:0:0:
256,192,130421,1,0,0:0:0:0:
256,192,130615,1,0,0:0:0:0:
256,192,130713,1,8,0:0:0:0:
256,192,130810,1,0,0:0:0:0:
256,192,131005,1,8,0:0:0:0:
256,192,131200,1,8,0:0:0:0:
256,192,131297,1,0,0:0:0:0:
256,192,131492,1,8,0:0:0:0:
256,192,131589,1,0,0:0:0:0:
256,192,131784,1,0,0:0:0:0:
256,192,131882,1,8,0:0:0:0:
256,192,131979,1,0,0:0:0:0:
256,192,132174,1,8,0:0:0:0:
256,192,132271,1,8,0:0:0:0:
256,192,132369,1,0,0:0:0:0:
256,192,132563,1,8,0:0:0:0:
256,192,132758,1,0,0:0:0:0:
256,192,132856,1,8,0:0:0:0:
256,192,133050,1,8,0:0:0:0:
256,192,133148,1,0,0:0:0:0:
256,192,133343,1,0,0:0:0:0:
256,192,133440,1,8,0:0:0:0:
256,192,133537,1,8,0:0:0:0:
256,192,133635,1,0,0:0:0:0:
256,192,133732,1,0,0:0:0:0:
256,192,133830,1,8,0:0:0:0:
256,192,133927,1,8,0:0:0:0:
256,192,134024,1,0,0:0:0:0:
256,192,134122,1,8,0:0:0:0:
256,184,134317,1,8,0:0:0:0:
256,192,134511,1,0,0:0:0:0:
256,192,134706,1,0,0:0:0:0:
256,192,134901,1,8,0:0:0:0:
256,192,135096,1,8,0:0:0:0:
256,192,135291,1,0,0:0:0:0:
256,192,135485,1,0,0:0:0:0:
256,192,135875,1,8,0:0:0:0:
256,192,136070,1,0,0:0:0:0:
256,192,136265,1,8,0:0:0:0:
256,192,136459,1,0,0:0:0:0:
256,192,136654,1,0,0:0:0:0:
256,184,136849,1,8,0:0:0:0:
256,184,137044,1,0,0:0:0:0:
256,184,137239,1,8,0:0:0:0:
256,192,137434,1,0,0:0:0:0:
256,192,137628,1,0,0:0:0:0:
256,192,137823,1,8,0:0:0:0:
256,192,138018,1,0,0:0:0:0:
256,192,138213,1,0,0:0:0:0:
256,192,138310,1,0,0:0:0:0:
256,192,138408,1,8,0:0:0:0:
256,192,138505,1,0,0:0:0:0:
256,192,138602,1,8,0:0:0:0:
256,192,138992,1,0,0:0:0:0:
256,192,139382,1,8,0:0:0:0:
256,192,139771,1,0,0:0:0:0:
256,192,140356,5,8,0:0:0:0:
256,192,140453,1,8,0:0:0:0:
256,192,140550,1,0,0:0:0:0:
256,192,140648,1,0,0:0:0:0:
256,192,140745,1,0,0:0:0:0:
256,192,140843,1,0,0:0:0:0:
256,192,140940,1,8,0:0:0:0:
256,192,141037,1,8,0:0:0:0:
256,192,141135,1,8,0:0:0:0:
256,192,141232,1,8,0:0:0:0:
256,192,141330,1,0,0:0:0:0:
256,192,141427,1,0,0:0:0:0:
256,192,141524,1,0,0:0:0:0:
256,192,141622,1,0,0:0:0:0:
256,192,141719,1,8,0:0:0:0:
256,192,141817,1,8,0:0:0:0:
256,192,141914,1,8,0:0:0:0:
256,192,142011,1,8,0:0:0:0:
264,192,142109,1,0,0:0:0:0:
264,192,142206,1,0,0:0:0:0:
256,192,142304,1,8,0:0:0:0:
256,192,142401,1,8,0:0:0:0:
256,192,142498,1,0,0:0:0:0:
256,192,142596,1,0,0:0:0:0:
256,192,142693,1,8,0:0:0:0:
256,192,142791,1,8,0:0:0:0:
256,192,142888,1,0,0:0:0:0:
256,192,142985,1,0,0:0:0:0:
256,192,143083,1,8,0:0:0:0:
256,192,143180,1,8,0:0:0:0:
256,192,143278,1,8,0:0:0:0:
256,192,143375,1,8,0:0:0:0:
256,192,143472,1,0,0:0:0:0:
256,192,143570,1,0,0:0:0:0:
256,192,143667,1,8,0:0:0:0:
256,192,143765,1,8,0:0:0:0:
256,192,143862,1,8,0:0:0:0:
256,192,143959,1,8,0:0:0:0:
256,192,144057,1,8,0:0:0:0:
256,192,144154,1,0,0:0:0:0:
256,192,144252,1,0,0:0:0:0:
256,192,144349,1,0,0:0:0:0:
256,192,144446,1,8,0:0:0:0:
256,192,144544,1,8,0:0:0:0:
256,192,144641,1,8,0:0:0:0:
256,192,144739,1,8,0:0:0:0:
256,192,144836,1,0,0:0:0:0:
256,192,144934,1,0,0:0:0:0:
256,192,145031,1,0,0:0:0:0:
256,192,145128,1,0,0:0:0:0:
256,192,145226,1,8,0:0:0:0:
256,192,145323,1,0,0:0:0:0:
256,192,145421,1,0,0:0:0:0:
256,192,145518,1,0,0:0:0:0:
256,192,145615,1,8,0:0:0:0:
256,192,145713,1,0,0:0:0:0:
256,192,145810,1,8,0:0:0:0:
256,192,145908,1,8,0:0:0:0:
256,192,146005,1,0,0:0:0:0:
256,192,146102,1,0,0:0:0:0:
256,192,146200,1,8,0:0:0:0:
256,192,146297,1,8,0:0:0:0:
256,192,146395,1,0,0:0:0:0:
256,192,146492,1,0,0:0:0:0:
256,192,146589,1,8,0:0:0:0:
256,192,146687,1,8,0:0:0:0:
256,192,146784,1,0,0:0:0:0:
256,192,146882,1,0,0:0:0:0:
256,192,146979,1,0,0:0:0:0:
256,192,147076,1,0,0:0:0:0:
256,192,147174,1,8,0:0:0:0:
256,192,147271,1,8,0:0:0:0:
256,192,147369,1,8,0:0:0:0:
256,192,147466,1,8,0:0:0:0:
256,192,147563,1,0,0:0:0:0:
256,192,147661,1,0,0:0:0:0:
256,192,147758,1,0,0:0:0:0:
256,192,147856,1,0,0:0:0:0:
256,192,147953,1,8,0:0:0:0:
256,192,148050,1,8,0:0:0:0:
256,192,148148,1,8,0:0:0:0:
256,192,148245,1,8,0:0:0:0:
256,192,148343,1,0,0:0:0:0:
256,192,148440,1,0,0:0:0:0:
256,192,148537,1,8,0:0:0:0:
256,192,148635,1,8,0:0:0:0:
256,192,148732,1,0,0:0:0:0:
256,192,148830,1,0,0:0:0:0:
256,192,148927,1,8,0:0:0:0:
256,192,149024,1,8,0:0:0:0:
256,192,149122,1,0,0:0:0:0:
256,192,149219,1,0,0:0:0:0:
256,192,149317,1,0,0:0:0:0:
256,192,149414,1,0,0:0:0:0:
256,192,149511,1,8,0:0:0:0:
256,192,149609,1,8,0:0:0:0:
256,192,149706,1,8,0:0:0:0:
256,192,149804,1,8,0:0:0:0:
256,192,149901,1,0,0:0:0:0:
256,192,149998,1,0,0:0:0:0:
256,192,150096,1,0,0:0:0:0:
256,192,150193,1,8,0:0:0:0:
256,192,150291,1,8,0:0:0:0:
256,192,150388,1,0,0:0:0:0:
256,192,150485,1,0,0:0:0:0:
256,192,150583,1,8,0:0:0:0:
256,192,150680,1,8,0:0:0:0:
256,192,150778,1,0,0:0:0:0:
256,192,150875,1,0,0:0:0:0:
256,192,150972,1,8,0:0:0:0:
256,192,151070,1,8,0:0:0:0:
256,192,151167,1,0,0:0:0:0:
256,192,151265,1,8,0:0:0:0:
256,192,151362,1,8,0:0:0:0:
256,192,151459,1,0,0:0:0:0:
256,192,151557,1,0,0:0:0:0:
256,192,151654,1,0,0:0:0:0:
256,192,151752,1,0,0:0:0:0:
256,192,151849,1,0,0:0:0:0:
256,192,151946,1,0,0:0:0:0:
256,192,152044,1,8,0:0:0:0:
256,192,152141,1,8,0:0:0:0:
256,192,152239,1,0,0:0:0:0:
256,192,152336,1,0,0:0:0:0:
256,192,152434,1,8,0:0:0:0:
256,192,152531,1,8,0:0:0:0:
256,192,152628,1,0,0:0:0:0:
256,192,152726,1,0,0:0:0:0:
256,192,152823,5,8,0:0:0:0:
256,192,152920,1,8,0:0:0:0:
256,192,153017,1,0,0:0:0:0:
256,192,153115,1,0,0:0:0:0:
256,192,153212,1,0,0:0:0:0:
256,192,153310,1,0,0:0:0:0:
256,192,153407,1,8,0:0:0:0:
256,192,153504,1,8,0:0:0:0:
256,192,153602,1,8,0:0:0:0:
256,192,153699,1,8,0:0:0:0:
256,192,153797,1,0,0:0:0:0:
256,192,153894,1,0,0:0:0:0:
256,192,153991,1,0,0:0:0:0:
256,192,154089,1,0,0:0:0:0:
256,192,154186,1,8,0:0:0:0:
256,192,154284,1,8,0:0:0:0:
256,192,154381,1,8,0:0:0:0:
256,192,154478,1,8,0:0:0:0:
264,192,154576,1,0,0:0:0:0:
264,192,154673,1,0,0:0:0:0:
256,192,154771,1,8,0:0:0:0:
256,192,154868,1,8,0:0:0:0:
256,192,154965,1,0,0:0:0:0:
256,192,155063,1,0,0:0:0:0:
256,192,155160,1,8,0:0:0:0:
256,192,155258,1,8,0:0:0:0:
256,192,155355,1,0,0:0:0:0:
256,192,155452,1,0,0:0:0:0:
256,192,155550,1,8,0:0:0:0:
256,192,155647,1,8,0:0:0:0:
256,192,155745,1,8,0:0:0:0:
256,192,155842,1,8,0:0:0:0:
256,192,155939,1,0,0:0:0:0:
256,192,156037,1,0,0:0:0:0:
256,192,156134,1,8,0:0:0:0:
256,192,156232,1,8,0:0:0:0:
256,192,156329,1,8,0:0:0:0:
256,192,156426,1,8,0:0:0:0:
256,192,156524,1,8,0:0:0:0:
256,192,156621,1,0,0:0:0:0:
256,192,156719,1,0,0:0:0:0:
256,192,156816,1,0,0:0:0:0:
256,192,156913,1,8,0:0:0:0:
256,192,157011,1,8,0:0:0:0:
256,192,157108,1,8,0:0:0:0:
256,192,157206,1,8,0:0:0:0:
256,192,157303,1,0,0:0:0:0:
256,192,157401,1,0,0:0:0:0:
256,192,157498,1,0,0:0:0:0:
256,192,157595,1,0,0:0:0:0:
256,192,157693,1,8,0:0:0:0:
256,192,157790,1,0,0:0:0:0:
256,192,157888,1,0,0:0:0:0:
256,192,157985,1,0,0:0:0:0:
256,192,158082,1,8,0:0:0:0:
256,192,158180,1,0,0:0:0:0:
256,192,158277,1,8,0:0:0:0:
256,192,158375,1,8,0:0:0:0:
256,192,158472,1,0,0:0:0:0:
256,192,158569,1,0,0:0:0:0:
256,192,158667,1,8,0:0:0:0:
256,192,158764,1,8,0:0:0:0:
256,192,158862,1,0,0:0:0:0:
256,192,158959,1,0,0:0:0:0:
256,192,159056,1,8,0:0:0:0:
256,192,159154,1,8,0:0:0:0:
256,192,159251,1,0,0:0:0:0:
256,192,159349,1,0,0:0:0:0:
256,192,159446,1,0,0:0:0:0:
256,192,159543,1,0,0:0:0:0:
256,192,159641,1,8,0:0:0:0:
256,192,159738,1,8,0:0:0:0:
256,192,159836,1,8,0:0:0:0:
256,192,159933,1,8,0:0:0:0:
256,192,160030,1,0,0:0:0:0:
256,192,160128,1,0,0:0:0:0:
256,192,160225,1,0,0:0:0:0:
256,192,160323,1,0,0:0:0:0:
256,192,160420,1,8,0:0:0:0:
256,192,160517,1,8,0:0:0:0:
256,192,160615,1,8,0:0:0:0:
256,192,160712,1,8,0:0:0:0:
256,192,160810,1,0,0:0:0:0:
256,192,160907,1,0,0:0:0:0:
256,192,161004,1,8,0:0:0:0:
256,192,161102,1,8,0:0:0:0:
256,192,161199,1,0,0:0:0:0:
256,192,161297,1,0,0:0:0:0:
256,192,161394,1,8,0:0:0:0:
256,192,161491,1,8,0:0:0:0:
256,192,161589,1,0,0:0:0:0:
256,192,161686,1,0,0:0:0:0:
256,192,161784,1,0,0:0:0:0:
256,192,161882,1,8,0:0:0:0:
256,192,161978,1,8,0:0:0:0:
256,192,162076,1,0,0:0:0:0:
256,192,162173,1,8,0:0:0:0:
256,192,162369,1,12,0:0:0:0:
256,192,162758,1,12,0:0:0:0:
256,192,163148,1,12,0:0:0:0:
256,192,163537,1,12,0:0:0:0:
256,192,163732,1,4,0:0:0:0:
256,192,163927,1,0,0:0:0:0:
256,192,164024,1,0,0:0:0:0:
256,192,164122,1,8,0:0:0:0:
256,192,164219,1,0,0:0:0:0:
256,192,164317,1,0,0:0:0:0:
256,192,164414,1,8,0:0:0:0:
256,192,164511,1,4,0:0:0:0:
256,192,164707,1,0,0:0:0:0:
256,192,164804,1,0,0:0:0:0:
256,192,164902,1,8,0:0:0:0:
256,192,164999,1,0,0:0:0:0:
256,192,165097,1,8,0:0:0:0:
256,192,165194,1,8,0:0:0:0:
256,192,165291,1,0,0:0:0:0:
256,192,165389,1,0,0:0:0:0:
256,192,165486,1,0,0:0:0:0:
256,192,165584,1,0,0:0:0:0:
256,192,165681,1,8,0:0:0:0:
256,192,165778,1,0,0:0:0:0:
256,192,165876,1,0,0:0:0:0:
256,192,165973,1,0,0:0:0:0:
256,192,166071,1,0,0:0:0:0:
256,192,166168,1,0,0:0:0:0:
256,192,166265,1,0,0:0:0:0:
256,192,166363,1,0,0:0:0:0:
256,192,166460,1,8,0:0:0:0:
256,192,166558,1,0,0:0:0:0:
256,192,166655,1,0,0:0:0:0:
256,192,166752,1,0,0:0:0:0:
256,192,166850,5,8,0:0:0:0:
256,192,167045,1,0,0:0:0:0:
256,192,167142,1,0,0:0:0:0:
256,192,167239,1,0,0:0:0:0:
256,192,167337,1,0,0:0:0:0:
256,192,167434,1,8,0:0:0:0:
256,192,167629,1,0,0:0:0:0:
256,192,167726,1,0,0:0:0:0:
256,192,167824,1,8,0:0:0:0:
256,192,167921,1,0,0:0:0:0:
256,192,168019,1,8,0:0:0:0:
256,192,168116,1,0,0:0:0:0:
256,192,168213,1,8,0:0:0:0:
256,192,168408,1,8,0:0:0:0:
256,192,168506,1,0,0:0:0:0:
256,192,168603,1,0,0:0:0:0:
256,192,168700,1,0,0:0:0:0:
256,192,168798,1,8,0:0:0:0:
256,192,168895,1,0,0:0:0:0:
256,192,168993,1,8,0:0:0:0:
256,192,169090,1,0,0:0:0:0:
256,192,169187,1,8,0:0:0:0:
256,192,169285,1,0,0:0:0:0:
256,192,169382,1,0,0:0:0:0:
256,192,169480,1,0,0:0:0:0:
256,192,169577,1,8,0:0:0:0:
256,192,169674,1,0,0:0:0:0:
256,192,169772,1,0,0:0:0:0:
256,192,169869,1,0,0:0:0:0:
256,192,169967,1,8,0:0:0:0:
256,192,170064,1,8,0:0:0:0:
256,192,170161,1,0,0:0:0:0:
256,192,170259,1,0,0:0:0:0:
256,192,170356,1,8,0:0:0:0:
264,192,170454,1,8,0:0:0:0:
256,192,170551,1,0,0:0:0:0:
256,192,170648,1,0,0:0:0:0:
256,192,170746,1,8,0:0:0:0:
256,192,170843,1,8,0:0:0:0:
256,192,170941,1,0,0:0:0:0:
256,192,171038,1,8,0:0:0:0:
264,192,171135,1,8,0:0:0:0:
256,192,171233,1,0,0:0:0:0:
256,192,171330,1,0,0:0:0:0:
256,192,171428,1,0,0:0:0:0:
256,192,171525,1,8,0:0:0:0:
256,192,171720,1,0,0:0:0:0:
256,192,171817,1,0,0:0:0:0:
256,192,171915,1,8,0:0:0:0:
256,192,172110,1,8,0:0:0:0:
256,192,172207,1,8,0:0:0:0:
256,192,172304,1,0,0:0:0:0:
256,192,172499,1,0,0:0:0:0:
256,192,172597,1,8,0:0:0:0:
256,192,172694,1,0,0:0:0:0:
256,192,172791,1,0,0:0:0:0:
256,192,172889,1,8,0:0:0:0:
256,192,173084,1,8,0:0:0:0:
256,192,173181,1,0,0:0:0:0:
256,192,173278,1,8,0:0:0:0:
256,192,173376,1,0,0:0:0:0:
256,192,173473,1,0,0:0:0:0:
264,192,173668,1,0,0:0:0:0:
264,192,173765,1,0,0:0:0:0:
264,192,173863,1,0,0:0:0:0:
264,192,173960,1,0,0:0:0:0:
256,192,174058,1,8,0:0:0:0:
256,192,174155,1,0,0:0:0:0:
256,192,174252,1,0,0:0:0:0:
256,192,174350,1,0,0:0:0:0:
256,192,174447,1,8,0:0:0:0:
256,192,174545,1,0,0:0:0:0:
256,192,174642,1,8,0:0:0:0:
256,192,174739,1,8,0:0:0:0:
256,192,174837,1,8,0:0:0:0:
256,192,174934,1,0,0:0:0:0:
256,192,175032,1,8,0:0:0:0:
256,192,175129,1,8,0:0:0:0:
256,192,175226,1,8,0:0:0:0:
256,192,175324,1,0,0:0:0:0:
256,192,175372,1,0,0:0:0:0:
256,192,175421,1,0,0:0:0:0:
256,192,175519,1,0,0:0:0:0:
256,192,175616,1,0,0:0:0:0:
256,192,175713,1,0,0:0:0:0:
256,192,175811,1,0,0:0:0:0:
256,192,175908,1,8,0:0:0:0:
256,192,176006,1,8,0:0:0:0:
256,192,176103,1,8,0:0:0:0:
256,192,176200,1,4,0:0:0:0:
256,192,176980,1,4,0:0:0:0:
256,192,177759,5,0,0:0:0:0:
256,192,177856,1,8,0:0:0:0:
256,192,177954,1,8,0:0:0:0:
256,192,178051,1,0,0:0:0:0:
256,192,178149,1,8,0:0:0:0:
256,192,178246,1,8,0:0:0:0:
256,192,178343,1,0,0:0:0:0:
256,192,178441,1,0,0:0:0:0:
256,192,178538,1,0,0:0:0:0:
256,192,178636,1,8,0:0:0:0:
256,192,178733,1,8,0:0:0:0:
256,192,178830,1,0,0:0:0:0:
256,192,178928,1,8,0:0:0:0:
256,192,179025,1,8,0:0:0:0:
256,192,179123,1,0,0:0:0:0:
256,192,179220,1,0,0:0:0:0:
256,192,179317,1,0,0:0:0:0:
256,192,179415,1,8,0:0:0:0:
256,192,179512,1,8,0:0:0:0:
256,192,179610,1,0,0:0:0:0:
256,192,179707,1,8,0:0:0:0:
256,192,179804,1,8,0:0:0:0:
256,192,179902,1,8,0:0:0:0:
256,192,179999,1,0,0:0:0:0:
256,192,180097,1,8,0:0:0:0:
256,192,180194,1,8,0:0:0:0:
256,192,180291,1,8,0:0:0:0:
256,192,180389,1,0,0:0:0:0:
256,192,180486,1,8,0:0:0:0:
256,192,180584,1,8,0:0:0:0:
256,192,180681,1,0,0:0:0:0:
256,192,180778,1,0,0:0:0:0:
256,200,180876,1,0,0:0:0:0:
256,192,180973,1,8,0:0:0:0:
256,192,181071,1,8,0:0:0:0:
256,192,181168,1,0,0:0:0:0:
256,192,181265,1,8,0:0:0:0:
256,192,181363,1,8,0:0:0:0:
256,192,181460,1,0,0:0:0:0:
256,192,181558,1,0,0:0:0:0:
256,192,181655,1,0,0:0:0:0:
256,192,181752,1,8,0:0:0:0:
256,192,181850,1,8,0:0:0:0:
256,192,181947,1,0,0:0:0:0:
256,192,182045,1,8,0:0:0:0:
256,192,182142,1,8,0:0:0:0:
256,192,182240,1,0,0:0:0:0:
256,192,182337,1,0,0:0:0:0:
256,192,182434,1,0,0:0:0:0:
256,192,182532,1,8,0:0:0:0:
256,192,182629,1,8,0:0:0:0:
256,192,182727,1,0,0:0:0:0:
256,192,182824,1,0,0:0:0:0:
256,192,182921,1,8,0:0:0:0:
256,192,183019,1,8,0:0:0:0:
256,192,183116,1,0,0:0:0:0:
256,192,183214,1,8,0:0:0:0:
256,192,183311,1,0,0:0:0:0:
256,192,183408,1,0,0:0:0:0:
256,192,183506,1,0,0:0:0:0:
256,192,183603,1,8,0:0:0:0:
256,192,183701,1,0,0:0:0:0:
256,192,183798,1,8,0:0:0:0:
256,192,183895,1,8,0:0:0:0:
256,192,183993,5,0,0:0:0:0:
256,192,184090,1,8,0:0:0:0:
256,192,184188,1,8,0:0:0:0:
256,192,184285,1,0,0:0:0:0:
256,192,184383,1,8,0:0:0:0:
256,192,184480,1,8,0:0:0:0:
256,192,184577,1,0,0:0:0:0:
256,192,184675,1,0,0:0:0:0:
256,192,184772,1,0,0:0:0:0:
256,192,184870,1,8,0:0:0:0:
256,192,184967,1,8,0:0:0:0:
256,192,185064,1,0,0:0:0:0:
256,192,185162,1,8,0:0:0:0:
256,192,185259,1,8,0:0:0:0:
256,192,185357,1,0,0:0:0:0:
256,192,185454,1,0,0:0:0:0:
256,192,185551,1,0,0:0:0:0:
256,192,185649,1,8,0:0:0:0:
256,192,185746,1,8,0:0:0:0:
256,192,185844,1,0,0:0:0:0:
256,192,185941,1,8,0:0:0:0:
256,192,186038,1,8,0:0:0:0:
256,192,186136,1,0,0:0:0:0:
256,192,186233,1,0,0:0:0:0:
256,192,186330,1,0,0:0:0:0:
256,192,186428,1,8,0:0:0:0:
256,192,186525,1,8,0:0:0:0:
256,192,186623,1,0,0:0:0:0:
256,192,186720,1,8,0:0:0:0:
256,192,186817,1,0,0:0:0:0:
256,192,186915,1,0,0:0:0:0:
256,192,187012,1,0,0:0:0:0:
256,192,187110,1,8,0:0:0:0:
256,192,187207,1,8,0:0:0:0:
256,192,187304,1,0,0:0:0:0:
256,192,187402,1,0,0:0:0:0:
256,192,187499,1,0,0:0:0:0:
256,192,187597,1,8,0:0:0:0:
256,192,187694,1,8,0:0:0:0:
256,192,187791,1,0,0:0:0:0:
256,192,187889,1,0,0:0:0:0:
256,192,187986,1,8,0:0:0:0:
256,192,188084,1,8,0:0:0:0:
256,192,188181,1,0,0:0:0:0:
256,192,188278,1,8,0:0:0:0:
256,192,188376,1,8,0:0:0:0:
256,192,188473,1,0,0:0:0:0:
256,192,188668,1,4,0:0:0:0:
256,192,189447,1,12,0:0:0:0:
264,192,190226,1,4,0:0:0:0:
264,192,190421,1,4,0:0:0:0:
256,192,190615,1,8,0:0:0:0:
256,192,190810,1,4,0:0:0:0:
256,192,192368,1,8,0:0:0:0:
256,200,192466,1,0,0:0:0:0:
256,200,192563,1,0,0:0:0:0:
256,200,192661,1,0,0:0:0:0:
256,200,192758,1,8,0:0:0:0:
256,192,192855,1,0,0:0:0:0:
256,192,192953,1,0,0:0:0:0:
256,192,193050,1,0,0:0:0:0:
256,192,193148,1,12,0:0:0:0:
256,192,195097,1,8,0:0:0:0:
256,192,195291,1,8,0:0:0:0:
256,192,195486,1,8,0:0:0:0:
256,192,195681,1,0,0:0:0:0:
256,192,195778,1,0,0:0:0:0:
256,192,195876,1,0,0:0:0:0:
256,192,195973,1,8,0:0:0:0:
256,192,196071,1,0,0:0:0:0:
256,192,196168,1,0,0:0:0:0:
256,192,196265,1,0,0:0:0:0:
256,192,196363,1,0,0:0:0:0:
256,192,196460,1,12,0:0:0:0:
256,192,196850,1,12,0:0:0:0:
256,192,198603,5,4,0:0:0:0:
256,192,198798,1,4,0:0:0:0:
256,192,198993,1,4,0:0:0:0:
256,192,199187,1,12,0:0:0:0:
256,192,200843,5,0,0:0:0:0:
256,192,200940,1,0,0:0:0:0:
256,192,201037,1,0,0:0:0:0:
256,192,201135,1,8,0:0:0:0:
256,192,201232,1,8,0:0:0:0:
256,192,201330,1,0,0:0:0:0:
256,192,201427,1,0,0:0:0:0:
256,192,201622,1,8,0:0:0:0:
256,192,201719,1,8,0:0:0:0:
256,192,201817,1,0,0:0:0:0:
256,200,201914,1,8,0:0:0:0:
256,200,202011,1,8,0:0:0:0:
256,200,202109,1,0,0:0:0:0:
256,200,202206,1,0,0:0:0:0:
256,192,202402,1,8,0:0:0:0:
256,192,202499,1,8,0:0:0:0:
256,192,202597,1,0,0:0:0:0:
256,192,202694,1,8,0:0:0:0:
256,192,202889,1,8,0:0:0:0:
256,192,202986,1,0,0:0:0:0:
256,192,203181,1,8,0:0:0:0:
256,192,203279,1,0,0:0:0:0:
256,192,203473,1,0,0:0:0:0:
256,192,203571,1,8,0:0:0:0:
256,192,203668,1,0,0:0:0:0:
256,192,203863,1,8,0:0:0:0:
256,192,204058,1,8,0:0:0:0:
256,192,204155,1,0,0:0:0:0:
256,192,204642,1,8,0:0:0:0:
256,192,205032,1,0,0:0:0:0:
256,192,205421,1,8,0:0:0:0:
256,192,205811,5,0,0:0:0:0:
256,192,205909,1,0,0:0:0:0:
256,192,206006,1,8,0:0:0:0:
256,192,206201,1,0,0:0:0:0:
256,192,206396,1,8,0:0:0:0:
256,192,206591,1,0,0:0:0:0:
256,192,206688,1,0,0:0:0:0:
256,192,206785,1,8,0:0:0:0:
256,192,206980,1,0,0:0:0:0:
256,192,207175,1,8,0:0:0:0:
264,192,207370,1,0,0:0:0:0:
264,192,207467,1,0,0:0:0:0:
264,192,207565,1,8,0:0:0:0:
256,192,207662,1,0,0:0:0:0:
256,192,207759,1,0,0:0:0:0:
256,192,207856,1,0,0:0:0:0:
256,192,207954,1,8,0:0:0:0:
256,192,208148,1,0,0:0:0:0:
256,192,208343,1,8,0:0:0:0:
256,192,208538,1,0,0:0:0:0:
256,192,208733,1,8,0:0:0:0:
256,192,208928,1,0,0:0:0:0:
256,184,209123,1,8,0:0:0:0:
256,192,209317,1,0,0:0:0:0:
256,192,209512,1,0,0:0:0:0:
256,192,209707,1,8,0:0:0:0:
256,192,209902,1,8,0:0:0:0:
256,192,210097,1,0,0:0:0:0:
256,192,210291,1,0,0:0:0:0:
256,192,210681,1,8,0:0:0:0:
256,192,210876,1,0,0:0:0:0:
256,192,211071,1,8,0:0:0:0:
256,192,211265,1,0,0:0:0:0:
256,192,211460,1,0,0:0:0:0:
256,184,211655,1,8,0:0:0:0:
256,184,211850,1,0,0:0:0:0:
256,184,212045,1,8,0:0:0:0:
256,192,212240,1,0,0:0:0:0:
256,192,212434,1,0,0:0:0:0:
256,192,212629,1,8,0:0:0:0:
256,192,212824,1,0,0:0:0:0:
256,192,213019,1,0,0:0:0:0:
256,192,213116,1,0,0:0:0:0:
256,192,213214,1,8,0:0:0:0:
256,192,213311,1,0,0:0:0:0:
256,192,213408,1,8,0:0:0:0:
256,192,213798,1,0,0:0:0:0:
256,192,214187,5,8,0:0:0:0:
256,192,214577,1,0,0:0:0:0:
256,192,216720,5,8,0:0:0:0:
256,192,216817,1,8,0:0:0:0:
256,192,216914,1,0,0:0:0:0:
256,192,217012,1,0,0:0:0:0:
256,192,217109,1,0,0:0:0:0:
256,192,217207,1,0,0:0:0:0:
256,192,217304,1,8,0:0:0:0:
256,192,217401,1,8,0:0:0:0:
256,192,217499,1,8,0:0:0:0:
256,192,217596,1,8,0:0:0:0:
256,192,217694,1,0,0:0:0:0:
256,192,217791,1,0,0:0:0:0:
256,192,217888,1,0,0:0:0:0:
256,192,217986,1,0,0:0:0:0:
256,192,218083,1,8,0:0:0:0:
256,192,218181,1,8,0:0:0:0:
256,192,218278,1,8,0:0:0:0:
256,192,218375,1,8,0:0:0:0:
264,192,218473,1,0,0:0:0:0:
264,192,218570,1,0,0:0:0:0:
256,192,218668,1,8,0:0:0:0:
256,192,218765,1,8,0:0:0:0:
256,192,218862,1,0,0:0:0:0:
256,192,218960,1,0,0:0:0:0:
256,192,219057,1,8,0:0:0:0:
256,192,219155,1,8,0:0:0:0:
256,192,219252,1,0,0:0:0:0:
256,192,219349,1,0,0:0:0:0:
256,192,219447,1,8,0:0:0:0:
256,192,219544,1,8,0:0:0:0:
256,192,219642,1,8,0:0:0:0:
256,192,219739,1,8,0:0:0:0:
256,192,219836,1,0,0:0:0:0:
256,192,219934,1,0,0:0:0:0:
256,192,220031,1,8,0:0:0:0:
256,192,220129,1,8,0:0:0:0:
256,192,220226,1,8,0:0:0:0:
256,192,220323,1,8,0:0:0:0:
256,192,220421,1,8,0:0:0:0:
256,192,220518,1,0,0:0:0:0:
256,192,220616,1,0,0:0:0:0:
256,192,220713,1,0,0:0:0:0:
256,192,220810,1,8,0:0:0:0:
256,192,220908,1,8,0:0:0:0:
256,192,221005,1,8,0:0:0:0:
256,192,221103,1,8,0:0:0:0:
256,192,221200,1,0,0:0:0:0:
256,192,221298,1,0,0:0:0:0:
256,192,221395,1,0,0:0:0:0:
256,192,221492,1,0,0:0:0:0:
256,192,221590,1,8,0:0:0:0:
256,192,221687,1,0,0:0:0:0:
256,192,221785,1,0,0:0:0:0:
256,192,221882,1,0,0:0:0:0:
256,192,221979,1,8,0:0:0:0:
256,192,222077,1,0,0:0:0:0:
256,192,222174,1,8,0:0:0:0:
256,192,222272,1,8,0:0:0:0:
256,192,222369,1,0,0:0:0:0:
256,192,222466,1,0,0:0:0:0:
256,192,222564,1,8,0:0:0:0:
256,192,222661,1,8,0:0:0:0:
256,192,222759,1,0,0:0:0:0:
256,192,222856,1,0,0:0:0:0:
256,192,222953,1,8,0:0:0:0:
256,192,223051,1,8,0:0:0:0:
256,192,223148,1,0,0:0:0:0:
256,192,223246,1,0,0:0:0:0:
256,192,223343,1,0,0:0:0:0:
256,192,223440,1,0,0:0:0:0:
256,192,223538,1,8,0:0:0:0:
256,192,223635,1,8,0:0:0:0:
256,192,223733,1,8,0:0:0:0:
256,192,223830,1,8,0:0:0:0:
256,192,223927,1,0,0:0:0:0:
256,192,224025,1,0,0:0:0:0:
256,192,224122,1,0,0:0:0:0:
256,192,224220,1,0,0:0:0:0:
256,192,224317,1,8,0:0:0:0:
256,192,224414,1,8,0:0:0:0:
256,192,224512,1,8,0:0:0:0:
256,192,224609,1,8,0:0:0:0:
256,192,224707,1,0,0:0:0:0:
256,192,224804,1,0,0:0:0:0:
256,192,224901,1,8,0:0:0:0:
256,192,224999,1,8,0:0:0:0:
256,192,225096,1,0,0:0:0:0:
256,192,225194,1,0,0:0:0:0:
256,192,225291,1,8,0:0:0:0:
256,192,225388,1,8,0:0:0:0:
256,192,225486,1,0,0:0:0:0:
256,192,225583,1,0,0:0:0:0:
256,192,225681,1,0,0:0:0:0:
256,192,225778,1,0,0:0:0:0:
256,192,225875,1,8,0:0:0:0:
256,192,225973,1,8,0:0:0:0:
256,192,226070,1,8,0:0:0:0:
256,192,226168,1,8,0:0:0:0:
256,192,226265,1,0,0:0:0:0:
256,192,226362,1,0,0:0:0:0:
256,192,226460,1,0,0:0:0:0:
256,192,226557,1,8,0:0:0:0:
256,192,226655,1,8,0:0:0:0:
256,192,226752,1,0,0:0:0:0:
256,192,226849,1,0,0:0:0:0:
256,192,226947,1,8,0:0:0:0:
256,192,227044,1,8,0:0:0:0:
256,192,227142,1,0,0:0:0:0:
256,192,227239,1,0,0:0:0:0:
256,192,227336,1,8,0:0:0:0:
256,192,227434,1,8,0:0:0:0:
256,192,227531,1,0,0:0:0:0:
256,192,227629,1,8,0:0:0:0:
256,192,227726,1,8,0:0:0:0:
256,192,227823,1,0,0:0:0:0:
256,192,227921,1,0,0:0:0:0:
256,192,228018,1,0,0:0:0:0:
256,192,228116,1,0,0:0:0:0:
256,192,228213,1,0,0:0:0:0:
256,192,228310,1,0,0:0:0:0:
256,192,228408,1,8,0:0:0:0:
256,192,228505,1,8,0:0:0:0:
256,192,228603,1,0,0:0:0:0:
256,192,228700,1,0,0:0:0:0:
256,192,228798,1,8,0:0:0:0:
256,192,228895,1,8,0:0:0:0:
256,192,228992,1,0,0:0:0:0:
256,192,229090,1,0,0:0:0:0:
256,192,229187,5,8,0:0:0:0:
256,192,229284,1,8,0:0:0:0:
256,192,229381,1,0,0:0:0:0:
256,192,229479,1,0,0:0:0:0:
256,192,229576,1,0,0:0:0:0:
256,192,229674,1,0,0:0:0:0:
256,192,229771,1,8,0:0:0:0:
256,192,229868,1,8,0:0:0:0:
256,192,229966,1,8,0:0:0:0:
256,192,230063,1,8,0:0:0:0:
256,192,230161,1,0,0:0:0:0:
256,192,230258,1,0,0:0:0:0:
256,192,230355,1,0,0:0:0:0:
256,192,230453,1,0,0:0:0:0:
256,192,230550,1,8,0:0:0:0:
256,192,230648,1,8,0:0:0:0:
256,192,230745,1,8,0:0:0:0:
256,192,230842,1,8,0:0:0:0:
264,192,230940,1,0,0:0:0:0:
264,192,231037,1,0,0:0:0:0:
256,192,231135,1,8,0:0:0:0:
256,192,231232,1,8,0:0:0:0:
256,192,231329,1,0,0:0:0:0:
256,192,231427,1,0,0:0:0:0:
256,192,231524,1,8,0:0:0:0:
256,192,231622,1,8,0:0:0:0:
256,192,231719,1,0,0:0:0:0:
256,192,231816,1,0,0:0:0:0:
256,192,231914,1,8,0:0:0:0:
256,192,232011,1,8,0:0:0:0:
256,192,232109,1,8,0:0:0:0:
256,192,232206,1,8,0:0:0:0:
256,192,232303,1,0,0:0:0:0:
256,192,232401,1,0,0:0:0:0:
256,192,232498,1,8,0:0:0:0:
256,192,232596,1,8,0:0:0:0:
256,192,232693,1,8,0:0:0:0:
256,192,232790,1,8,0:0:0:0:
256,192,232888,1,8,0:0:0:0:
256,192,232985,1,0,0:0:0:0:
256,192,233083,1,0,0:0:0:0:
256,192,233180,1,0,0:0:0:0:
256,192,233277,1,8,0:0:0:0:
256,192,233375,1,8,0:0:0:0:
256,192,233472,1,8,0:0:0:0:
256,192,233570,1,8,0:0:0:0:
256,192,233667,1,0,0:0:0:0:
256,192,233765,1,0,0:0:0:0:
256,192,233862,1,0,0:0:0:0:
256,192,233959,1,0,0:0:0:0:
256,192,234057,1,8,0:0:0:0:
256,192,234154,1,0,0:0:0:0:
256,192,234252,1,0,0:0:0:0:
256,192,234349,1,0,0:0:0:0:
256,192,234446,1,8,0:0:0:0:
256,192,234544,1,0,0:0:0:0:
256,192,234641,1,8,0:0:0:0:
256,192,234739,1,8,0:0:0:0:
256,192,234836,1,0,0:0:0:0:
256,192,234933,1,0,0:0:0:0:
256,192,235031,1,8,0:0:0:0:
256,192,235128,1,8,0:0:0:0:
256,192,235226,1,0,0:0:0:0:
256,192,235323,1,0,0:0:0:0:
256,192,235420,1,8,0:0:0:0:
256,192,235518,1,8,0:0:0:0:
256,192,235615,1,0,0:0:0:0:
256,192,235713,1,0,0:0:0:0:
256,192,235810,1,0,0:0:0:0:
256,192,235907,1,0,0:0:0:0:
256,192,236005,1,8,0:0:0:0:
256,192,236102,1,8,0:0:0:0:
256,192,236200,1,8,0:0:0:0:
256,192,236297,1,8,0:0:0:0:
256,192,236394,1,0,0:0:0:0:
256,192,236492,1,0,0:0:0:0:
256,192,236589,1,0,0:0:0:0:
256,192,236687,1,0,0:0:0:0:
256,192,236784,1,8,0:0:0:0:
256,192,236881,1,8,0:0:0:0:
256,192,236979,1,8,0:0:0:0:
256,192,237076,1,8,0:0:0:0:
256,192,237174,1,0,0:0:0:0:
256,192,237271,1,0,0:0:0:0:
256,192,237368,1,8,0:0:0:0:
256,192,237466,1,8,0:0:0:0:
256,192,237563,1,0,0:0:0:0:
256,192,237661,1,0,0:0:0:0:
256,192,237758,1,8,0:0:0:0:
256,192,237855,1,8,0:0:0:0:
256,192,237953,1,0,0:0:0:0:
256,192,238050,1,0,0:0:0:0:
256,192,238148,1,0,0:0:0:0:
256,192,238246,1,8,0:0:0:0:
256,192,238342,1,8,0:0:0:0:
256,192,238440,1,0,0:0:0:0:
256,192,238537,1,8,0:0:0:0:
256,192,238733,1,12,0:0:0:0:
256,192,239122,1,12,0:0:0:0:
256,192,239512,1,12,0:0:0:0:
256,192,239901,1,12,0:0:0:0:
256,192,240096,1,4,0:0:0:0:
256,192,240291,1,0,0:0:0:0:
256,192,240388,1,0,0:0:0:0:
256,192,240486,1,8,0:0:0:0:
256,192,240583,1,0,0:0:0:0:
256,192,240681,1,0,0:0:0:0:
256,192,240778,1,8,0:0:0:0:
256,192,240875,1,4,0:0:0:0:
256,192,241071,1,0,0:0:0:0:
256,192,241168,1,0,0:0:0:0:
256,192,241266,1,8,0:0:0:0:
256,192,241363,1,0,0:0:0:0:
256,192,241461,1,8,0:0:0:0:
256,192,241558,1,8,0:0:0:0:
256,192,241655,5,0,0:0:0:0:
256,192,241752,1,8,0:0:0:0:
256,192,241850,1,8,0:0:0:0:
256,192,241947,1,0,0:0:0:0:
256,192,242045,1,8,0:0:0:0:
256,192,242142,1,8,0:0:0:0:
256,192,242239,1,0,0:0:0:0:
256,192,242337,5,0,0:0:0:0:
256,192,242434,1,0,0:0:0:0:
256,192,242532,1,8,0:0:0:0:
256,192,242629,1,8,0:0:0:0:
256,192,242726,1,0,0:0:0:0:
256,192,242824,1,8,0:0:0:0:
256,192,242921,1,8,0:0:0:0:
256,192,243019,1,0,0:0:0:0:
256,192,243116,1,0,0:0:0:0:
256,192,243213,1,0,0:0:0:0:
256,192,243311,1,8,0:0:0:0:
256,192,243408,1,8,0:0:0:0:
256,192,243506,5,0,0:0:0:0:
256,192,243603,1,8,0:0:0:0:
256,192,243700,1,8,0:0:0:0:
256,192,243798,1,8,0:0:0:0:
256,192,243895,1,0,0:0:0:0:
256,192,243993,1,8,0:0:0:0:
256,192,244090,1,8,0:0:0:0:
256,192,244187,1,8,0:0:0:0:
256,192,244285,1,0,0:0:0:0:
256,192,244382,1,8,0:0:0:0:
256,192,244480,1,8,0:0:0:0:
256,192,244577,1,0,0:0:0:0:
256,192,244674,1,0,0:0:0:0:
256,200,244772,1,0,0:0:0:0:
256,192,244869,1,8,0:0:0:0:
256,192,244967,1,8,0:0:0:0:
256,192,245064,1,0,0:0:0:0:
256,192,245161,1,8,0:0:0:0:
256,192,245259,1,8,0:0:0:0:
256,192,245356,1,0,0:0:0:0:
256,192,245454,1,0,0:0:0:0:
256,192,245551,1,0,0:0:0:0:
256,192,245648,1,8,0:0:0:0:
256,192,245746,1,8,0:0:0:0:
256,192,245843,1,0,0:0:0:0:
256,192,245941,1,8,0:0:0:0:
256,192,246038,1,8,0:0:0:0:
256,192,246136,1,0,0:0:0:0:
256,192,246233,1,0,0:0:0:0:
256,192,246330,1,0,0:0:0:0:
256,192,246428,1,8,0:0:0:0:
256,192,246525,1,8,0:0:0:0:
256,192,246623,1,0,0:0:0:0:
256,192,246720,1,0,0:0:0:0:
256,192,246817,1,8,0:0:0:0:
256,192,246915,1,8,0:0:0:0:
256,192,247012,1,0,0:0:0:0:
256,192,247110,1,8,0:0:0:0:
256,192,247207,1,0,0:0:0:0:
256,192,247304,1,0,0:0:0:0:
256,192,247402,1,0,0:0:0:0:
256,192,247499,1,8,0:0:0:0:
256,192,247597,1,0,0:0:0:0:
256,192,247694,1,8,0:0:0:0:
256,192,247791,1,8,0:0:0:0:
256,192,247889,5,0,0:0:0:0:
256,192,247986,1,8,0:0:0:0:
256,192,248084,1,8,0:0:0:0:
256,192,248181,1,0,0:0:0:0:
256,192,248279,1,8,0:0:0:0:
256,192,248376,1,8,0:0:0:0:
256,192,248473,1,0,0:0:0:0:
256,192,248571,1,0,0:0:0:0:
256,192,248668,1,0,0:0:0:0:
256,192,248766,1,8,0:0:0:0:
256,192,248863,1,8,0:0:0:0:
256,192,248960,1,0,0:0:0:0:
256,192,249058,1,8,0:0:0:0:
256,192,249155,1,8,0:0:0:0:
256,192,249253,1,0,0:0:0:0:
256,192,249350,1,0,0:0:0:0:
256,192,249447,1,0,0:0:0:0:
256,192,249545,1,8,0:0:0:0:
256,192,249642,1,8,0:0:0:0:
256,192,249740,1,0,0:0:0:0:
256,192,249837,1,8,0:0:0:0:
256,192,249934,1,8,0:0:0:0:
256,192,250032,1,0,0:0:0:0:
256,192,250129,1,0,0:0:0:0:
256,192,250226,1,0,0:0:0:0:
256,192,250324,1,8,0:0:0:0:
256,192,250421,1,8,0:0:0:0:
256,192,250519,1,0,0:0:0:0:
256,192,250616,1,8,0:0:0:0:
256,192,250713,1,0,0:0:0:0:
256,192,250811,1,0,0:0:0:0:
256,192,250908,1,0,0:0:0:0:
256,192,251006,1,8,0:0:0:0:
256,192,251103,1,8,0:0:0:0:
256,192,251200,1,0,0:0:0:0:
256,192,251298,1,0,0:0:0:0:
256,192,251395,1,0,0:0:0:0:
256,192,251493,1,8,0:0:0:0:
256,192,251590,1,8,0:0:0:0:
256,192,251687,1,0,0:0:0:0:
256,192,251785,1,0,0:0:0:0:
256,192,251882,1,8,0:0:0:0:
256,192,251980,1,8,0:0:0:0:
256,192,252077,1,0,0:0:0:0:
256,192,252174,1,8,0:0:0:0:
256,192,252272,1,8,0:0:0:0:
256,192,252369,1,0,0:0:0:0:
256,192,252467,1,0,0:0:0:0:
256,192,252564,1,0,0:0:0:0:
256,192,252661,1,8,0:0:0:0:
256,192,252759,1,8,0:0:0:0:
256,192,252856,1,0,0:0:0:0:
256,192,252954,1,8,0:0:0:0:
256,192,253051,1,8,0:0:0:0:
256,192,253148,1,0,0:0:0:0:
256,192,253246,1,0,0:0:0:0:
256,192,253343,1,0,0:0:0:0:
256,192,253441,1,8,0:0:0:0:
256,192,253538,1,8,0:0:0:0:
256,192,253635,1,0,0:0:0:0:
256,192,253733,1,8,0:0:0:0:
256,192,253830,1,8,0:0:0:0:
256,192,253928,1,0,0:0:0:0:
256,192,254025,1,0,0:0:0:0:
256,192,254122,5,0,0:0:0:0:
256,192,254219,1,8,0:0:0:0:
256,192,254317,1,8,0:0:0:0:
256,192,254414,1,0,0:0:0:0:
256,192,254512,1,8,0:0:0:0:
256,192,254609,1,8,0:0:0:0:
256,192,254706,1,0,0:0:0:0:
256,192,254804,1,0,0:0:0:0:
256,192,254901,1,0,0:0:0:0:
256,192,254999,1,8,0:0:0:0:
256,192,255096,1,8,0:0:0:0:
256,192,255193,1,0,0:0:0:0:
256,192,255291,1,8,0:0:0:0:
256,192,255388,1,8,0:0:0:0:
256,192,255486,1,0,0:0:0:0:
256,192,255583,1,0,0:0:0:0:
256,192,255680,1,0,0:0:0:0:
256,192,255778,1,8,0:0:0:0:
256,192,255875,1,8,0:0:0:0:
256,192,255973,1,0,0:0:0:0:
256,192,256070,1,8,0:0:0:0:
256,192,256167,1,8,0:0:0:0:
256,192,256265,1,8,0:0:0:0:
256,192,256362,1,0,0:0:0:0:
256,192,256460,1,8,0:0:0:0:
256,192,256557,1,8,0:0:0:0:
256,192,256654,1,8,0:0:0:0:
256,192,256752,1,0,0:0:0:0:
256,192,256849,1,8,0:0:0:0:
256,192,256947,1,8,0:0:0:0:
256,192,257044,1,0,0:0:0:0:
256,192,257141,1,0,0:0:0:0:
256,200,257239,1,0,0:0:0:0:
256,192,257336,1,8,0:0:0:0:
256,192,257434,1,8,0:0:0:0:
256,192,257531,1,0,0:0:0:0:
256,192,257628,1,8,0:0:0:0:
256,192,257726,1,8,0:0:0:0:
256,192,257823,1,0,0:0:0:0:
256,192,257921,1,0,0:0:0:0:
256,192,258018,1,0,0:0:0:0:
256,192,258115,1,8,0:0:0:0:
256,192,258213,1,8,0:0:0:0:
256,192,258310,1,0,0:0:0:0:
256,192,258408,1,8,0:0:0:0:
256,192,258505,1,8,0:0:0:0:
256,192,258603,1,0,0:0:0:0:
256,192,258700,1,0,0:0:0:0:
256,192,258797,1,0,0:0:0:0:
256,192,258895,1,8,0:0:0:0:
256,192,258992,1,8,0:0:0:0:
256,192,259090,1,0,0:0:0:0:
256,192,259187,1,0,0:0:0:0:
256,192,259284,1,8,0:0:0:0:
256,192,259382,1,8,0:0:0:0:
256,192,259479,1,0,0:0:0:0:
256,192,259577,1,8,0:0:0:0:
256,192,259674,1,0,0:0:0:0:
256,192,259771,1,0,0:0:0:0:
256,192,259869,1,0,0:0:0:0:
256,192,259966,1,8,0:0:0:0:
256,192,260064,1,0,0:0:0:0:
256,192,260161,1,8,0:0:0:0:
256,192,260258,1,8,0:0:0:0:
256,192,260356,5,0,0:0:0:0:
256,192,260453,1,8,0:0:0:0:
256,192,260551,1,8,0:0:0:0:
256,192,260648,1,0,0:0:0:0:
256,192,260746,1,8,0:0:0:0:
256,192,260843,1,8,0:0:0:0:
256,192,260940,1,0,0:0:0:0:
256,192,261038,1,0,0:0:0:0:
256,192,261135,1,0,0:0:0:0:
256,192,261233,1,8,0:0:0:0:
256,192,261330,1,8,0:0:0:0:
256,192,261427,1,0,0:0:0:0:
256,192,261525,1,8,0:0:0:0:
256,192,261622,1,8,0:0:0:0:
256,192,261720,1,0,0:0:0:0:
256,192,261817,1,0,0:0:0:0:
256,192,261914,1,0,0:0:0:0:
256,192,262012,1,8,0:0:0:0:
256,192,262109,1,8,0:0:0:0:
256,192,262207,1,0,0:0:0:0:
256,192,262304,1,8,0:0:0:0:
256,192,262401,1,8,0:0:0:0:
256,192,262499,1,0,0:0:0:0:
256,192,262596,1,0,0:0:0:0:
256,192,262693,1,0,0:0:0:0:
256,192,262791,1,8,0:0:0:0:
256,192,262888,1,8,0:0:0:0:
256,192,262986,1,0,0:0:0:0:
256,192,263083,1,8,0:0:0:0:
256,192,263180,1,0,0:0:0:0:
256,192,263278,1,0,0:0:0:0:
256,192,263375,1,0,0:0:0:0:
256,192,263473,1,8,0:0:0:0:
256,192,263570,1,8,0:0:0:0:
256,192,263667,1,0,0:0:0:0:
256,192,263765,1,0,0:0:0:0:
256,192,263862,1,0,0:0:0:0:
256,192,263960,1,8,0:0:0:0:
256,192,264057,1,8,0:0:0:0:
256,192,264154,1,0,0:0:0:0:
256,192,264252,1,0,0:0:0:0:
256,192,264349,1,8,0:0:0:0:
256,192,264447,1,8,0:0:0:0:
256,192,264544,1,0,0:0:0:0:
256,192,264641,1,8,0:0:0:0:
256,192,264739,1,8,0:0:0:0:
256,192,264836,1,0,0:0:0:0:
256,192,264934,1,8,0:0:0:0:
256,192,265032,1,8,0:0:0:0:
256,192,265129,1,0,0:0:0:0:
256,192,265226,1,0,0:0:0:0:
256,192,265324,1,8,0:0:0:0:
256,192,265421,1,8,0:0:0:0:
256,192,265519,1,0,0:0:0:0:
256,192,265616,1,0,0:0:0:0:
256,192,265713,1,8,0:0:0:0:
256,192,265811,1,8,0:0:0:0:
256,192,265908,1,0,0:0:0:0:
256,192,266006,1,0,0:0:0:0:
256,192,266103,1,8,0:0:0:0:
256,192,266200,1,0,0:0:0:0:
256,184,266298,1,8,0:0:0:0:
256,192,266395,1,8,0:0:0:0:
256,192,266493,1,8,0:0:0:0:
256,192,266590,5,0,0:0:0:0:
256,192,266687,1,0,0:0:0:0:
256,192,266785,1,8,0:0:0:0:
256,192,266882,1,8,0:0:0:0:
256,192,266980,1,0,0:0:0:0:
256,192,267077,1,8,0:0:0:0:
256,192,267174,1,0,0:0:0:0:
256,192,267272,1,0,0:0:0:0:
256,192,267369,1,8,0:0:0:0:
256,192,267467,1,0,0:0:0:0:
256,192,267564,1,8,0:0:0:0:
256,192,267661,1,0,0:0:0:0:
256,192,267759,1,0,0:0:0:0:
256,192,267856,1,0,0:0:0:0:
256,192,267954,1,8,0:0:0:0:
256,192,268051,1,0,0:0:0:0:
256,192,268148,1,12,0:0:0:0:
