osu file format v14

[General]
AudioFilename: audio.mp3
AudioLeadIn: 0
PreviewTime: 12228
Countdown: 0
SampleSet: Soft
StackLeniency: 0.7
Mode: 0
LetterboxInBreaks: 0
WidescreenStoryboard: 1

[Editor]
DistanceSpacing: 1.1
BeatDivisor: 4
GridSize: 4
TimelineZoom: 1

[Metadata]
Title:Detekoi Tobikiri ZENKAI Power! (TV Size)
TitleUnicode:でてこいとびきりZENKAIパワー!(TVサイズ)
Artist:MANNA
ArtistUnicode:MANNA
Creator:ezek
Version:Normal
Source:ドラゴンボールZ
Tags:dragon ball z goku ending dete koi
BeatmapID:1577973
BeatmapSetID:741406

[Difficulty]
HPDrainRate:4
CircleSize:3
OverallDifficulty:4
ApproachRate:4
SliderMultiplier:1.5
SliderTickRate:1

[Events]
//Background and Video events
0,0,"powah.jpg",0,0
Video,-348,"Powa.avi"
//Break Periods
//Storyboard Layer 0 (Background)
//Storyboard Layer 1 (Fail)
//Storyboard Layer 2 (Pass)
//Storyboard Layer 3 (Foreground)
//Storyboard Sound Samples

[TimingPoints]
4261,490.33628897152,4,2,1,60,1,0
12106,-100,4,1,0,60,0,0
74868,490.33628897152,4,1,0,60,1,0
90541,490.33628897152,4,1,0,60,1,0

[Colours]
Combo1 : 15,170,22
Combo2 : 0,0,179
Combo3 : 255,181,106
Combo4 : 214,12,43

[HitObjects]
48,96,4261,6,0,B|104:32|184:64,1,150,2|2,0:0|0:0,0:0:0:0:
256,100,4996,1,0,0:0:0:0:
328,64,5241,2,0,B|408:32|464:96,1,150,2|2,0:0|0:0,0:0:0:0:
424,168,5977,1,0,0:0:0:0:
492,320,6467,6,0,L|342:304,1,150,0|0,0:0|0:0,0:0:0:0:
288,244,7203,2,0,B|204:248|172:324,1,150,2|2,0:0|0:0,0:0:0:0:
103,369,7938,1,0,0:0:0:0:
52,304,8183,6,0,L|-24:296,2,75,2|0|2,0:0|0:0|0:0,0:0:0:0:
160,176,9164,2,0,B|188:96|144:108|180:20,1,150,2|2,0:0|0:0,0:0:0:0:
260,28,9899,1,0,0:0:0:0:
260,28,10145,5,4,0:0:0:0:
468,148,12106,6,0,L|468:300,1,150,0|0,0:0|0:0,0:0:0:0:
400,344,12841,1,0,0:0:0:0:
331,297,13087,2,0,B|260:249|187:291,1,150,2|0,0:0|0:0,0:0:0:0:
36,352,14067,5,2,0:0:0:0:
88,196,14558,2,0,B|100:164|88:120,1,75,2|0,0:0|0:0,0:0:0:0:
68,44,15048,1,2,0:0:0:0:
220,104,15538,1,2,0:0:0:0:
364,24,16029,6,0,B|388:84|388:84|392:172,1,150,0|0,0:0|0:0,0:0:0:0:
312,196,16764,1,0,0:0:0:0:
236,232,17009,2,0,B|192:300|260:368,1,150,2|0,0:0|0:0,0:0:0:0:
424,352,17990,6,0,P|460:304|488:200,1,150,2|2,0:0|0:0,0:0:0:0:
472,140,18725,1,0,0:0:0:0:
392,152,18971,2,0,L|220:152,1,150,2|2,0:0|0:0,0:0:0:0:
160,152,19706,1,0,0:0:0:0:
160,152,19951,6,0,B|168:216|116:248,2,112.5,0|8|8,0:0|0:0|0:0,0:0:0:0:
180,71,20932,2,0,B|240:12|318:35,1,150,0|0,0:0|0:0,0:0:0:0:
476,88,21913,6,0,L|492:168,1,75,0|2,0:0|0:0,0:0:0:0:
460,240,22403,2,0,L|384:260,1,75,0|2,0:0|0:0,0:0:0:0:
312,296,22893,1,0,0:0:0:0:
148,296,23384,1,0,0:0:0:0:
112,136,23874,6,0,B|52:124|-8:172,2,112.5,0|8|8,0:0|0:0|0:0,0:0:0:0:
164,200,24855,1,0,0:0:0:0:
328,192,25345,1,0,0:0:0:0:
404,48,25835,6,0,B|464:36|524:84,2,112.5,0|8|8,0:0|0:0|0:0,0:0:0:0:
332,92,26816,2,0,L|182:99,1,150,0|8,0:0|0:0,0:0:0:0:
104,76,27551,1,4,0:2:0:0:
40,128,27797,5,2,0:0:0:0:
52,292,28287,1,2,0:0:0:0:
204,356,28777,1,2,0:0:0:0:
364,312,29268,1,2,0:0:0:0:
456,176,29758,6,0,B|456:116|436:72|380:48,1,150,2|2,0:0|0:0,0:0:0:0:
308,44,30493,1,2,0:0:0:0:
252,104,30739,2,0,B|252:164|272:208|328:232,1,150,2|2,0:0|0:0,0:0:0:0:
396,260,31474,1,4,0:0:0:0:
380,340,31719,6,0,B|308:360|308:360|228:332,2,150,6|2|2,2:0|2:0|2:0,0:0:0:0:
308,192,33190,1,2,2:0:0:0:
244,40,33681,6,0,B|316:20|316:20|396:48,2,150,2|2|0,2:0|2:0|0:0,0:0:0:0:
92,104,35152,2,0,L|92:180,1,75,0|0,0:0|0:0,0:0:0:0:
112,260,35642,6,0,B|80:300|8:292|-12:240,2,150,2|2|2,0:0|0:0|0:0,0:0:0:0:
256,180,37113,1,8,0:0:0:0:
400,260,37603,2,0,B|432:300|504:292|524:240,2,150,2|2|2,0:0|0:0|0:0,0:0:0:0:
256,180,39074,2,0,L|256:100,1,75,0|8,0:0|0:0,0:0:0:0:
200,44,39565,6,0,B|144:44|144:44|96:68|100:124,2,150,2|2|2,0:0|0:0|0:0,0:0:0:0:
256,200,41036,1,8,0:0:0:0:
312,44,41526,2,0,B|368:44|368:44|416:68|412:124,2,150,2|2|2,0:0|0:0|0:0,0:0:0:0:
256,200,42997,2,0,L|256:280,1,75,0|8,0:0|0:0,0:0:0:0:
316,332,43487,5,0,0:0:0:0:
472,276,43978,1,8,0:0:0:0:
396,132,44468,2,0,L|440:20,2,112.5,2|2|2,0:0|0:0|0:0,0:0:0:0:
320,168,45449,5,0,0:0:0:0:
180,84,45939,1,8,0:0:0:0:
56,196,46429,2,0,L|44:312,2,112.5,2|2|2,0:0|0:0|0:0,0:0:0:0:
76,116,47410,5,0,0:0:0:0:
212,208,47900,1,0,0:0:0:0:
320,84,48391,2,0,B|392:36|468:88,1,150,0|0,0:0|0:0,0:0:0:0:
500,156,49126,1,8,0:0:0:0:
480,236,49371,6,0,B|400:328|356:240|276:312,1,225,0|0,0:0|0:0,0:0:0:0:
208,356,50352,1,0,0:0:0:0:
128,332,50597,2,0,L|12:336,1,112.5,8|8,0:0|0:0,0:0:0:0:
52,216,51333,6,0,B|92:156|188:172|188:172|192:92|288:76,1,300
448,48,52804,1,8,0:0:0:0:
436,212,53294,6,0,L|512:208,2,75,0|0|8,0:0|0:0|0:0,0:0:0:0:
372,264,54030,1,0,0:0:0:0:
308,316,54275,2,0,B|256:308|256:308|220:328|220:328|164:316,1,150,0|8,0:0|0:0,0:0:0:0:
84,296,55010,1,4,0:2:0:0:
4,276,55255,5,2,2:0:0:0:
48,116,55746,1,2,2:0:0:0:
212,116,56236,1,2,2:0:0:0:
280,268,56726,1,2,2:0:0:0:
440,224,57217,6,0,B|468:164|452:120|413:89,1,150,2|2,2:0|2:0,2:0:0:0:
256,44,58197,2,0,B|217:74|201:118|229:178,1,150,2|0,2:0|0:0,2:0:0:0:
268,252,58933,1,4,0:2:0:0:
212,312,59178,6,0,L|136:320,2,75,0|0|0,0:0|0:0|0:0,0:0:0:0:
288,340,59914,1,0,0:0:0:0:
364,372,60159,2,0,B|416:344|432:296|416:236,1,150,0|2,0:0|0:0,0:0:0:0:
268,180,61140,6,0,B|254:128|270:80|322:52,1,150,0|0,0:0|0:0,0:0:0:0:
398,23,61875,1,0,0:0:0:0:
436,96,62120,2,0,L|512:96,2,75,0|0|0,0:0|0:0|0:0,0:0:0:0:
324,220,63101,5,0,0:0:0:0:
192,84,63591,2,0,B|144:72|118:88,1,75,0|0,0:0|0:0,0:0:0:0:
40,116,64082,1,0,0:0:0:0:
28,276,64572,2,0,B|76:288|101:271,1,75,0|0,0:0|0:0,0:0:0:0:
168,224,65062,6,0,B|224:232|224:232|256:252|256:252|312:260,1,150,2|2,0:0|0:0,0:0:0:0:
448,168,66043,2,0,B|392:160|392:160|360:140|360:140|304:132,1,150,2|2,0:0|0:0,0:0:0:0:
144,88,67024,6,0,B|78:240|240:214|187:364,1,300,2|0,0:0|0:0,0:0:0:0:
32,304,68495,1,8,0:0:0:0:
40,140,68985,6,0,L|32:64,2,75,0|2|0,0:0|0:0|0:0,0:0:0:0:
116,172,69720,1,2,0:0:0:0:
184,128,69966,2,0,B|184:79|160:16,2,112.5,0|8|8,0:0|0:0|0:0,0:0:0:0:
268,128,70946,6,0,B|268:79|288:16,2,112.5,0|8|8,0:0|0:0|0:0,0:0:0:0:
224,196,71927,1,0,0:0:0:0:
312,336,72417,1,0,0:0:0:0:
312,336,72662,6,0,B|268:336|240:356|240:356|205:339|164:330,1,150,8|0,0:0|0:0,0:0:0:0:
92,300,73398,1,8,0:0:0:0:
12,156,73888,1,8,0:0:0:0:
124,36,74379,1,8,0:0:0:0:
228,164,74869,6,0,B|288:168|320:128|320:128|292:36|292:36|332:-4|388:4,1,300,4|0,0:0|0:0,0:0:0:0:
496,92,76340,1,0,0:0:0:0:
475,257,76830,6,0,B|476:348|384:354,1,150,2|2,0:0|0:0,0:0:0:0:
312,316,77564,1,0,0:0:0:0:
244,360,77811,1,2,0:0:0:0:
112,260,78301,1,2,0:0:0:0:
240,152,78790,5,2,0:0:0:0:
496,360,79772,1,4,2:2:0:0:
496,360,80017,1,4,2:2:0:0:
496,112,80753,5,4,2:2:0:0:
496,112,80998,1,4,2:2:0:0:
248,112,81732,1,4,2:2:0:0:
248,112,81977,2,0,L|256:268,1,150,4|0,2:2|0:0,2:0:0:0:
220,336,82714,5,2,0:0:0:0:
56,348,83203,1,2,0:0:0:0:
8,192,83695,1,2,0:0:0:0:
120,72,84185,1,2,0:0:0:0:
256,168,84674,6,0,B|292:160|300:148|320:128,1,75,2|0,0:0|0:0,0:0:0:0:
356,56,85166,2,0,B|374:37|382:25|418:17,1,75,2|0,0:0|0:0,0:0:0:0:
492,52,85656,1,2,0:0:0:0:
392,184,86145,1,2,0:0:0:0:
432,344,86636,6,0,B|492:352|500:336|500:336|524:288,2,112.5,2|8|8,0:0|0:0|0:0,0:0:0:0:
352,320,87616,2,0,L|172:320,1,150
92,196,88598,6,0,B|46:162|69:150|31:117,2,100,4|0|0,3:0|0:0|0:0,0:0:0:0:
190,147,89579,2,0,B|235:180|212:192|250:225,2,100,4|0|0,3:0|0:0|0:0,0:0:0:0:
108,84,90541,5,0,3:0:0:0:
256,192,91031,12,4,92257,2:0:0:0:
