osu file format v14

[General]
AudioFilename: audio.mp3
AudioLeadIn: 0
PreviewTime: 12228
Countdown: 0
SampleSet: Soft
StackLeniency: 0.7
Mode: 0
LetterboxInBreaks: 0
WidescreenStoryboard: 0

[Editor]
Bookmarks: 35642,43487
DistanceSpacing: 1
BeatDivisor: 4
GridSize: 4
TimelineZoom: 1

[Metadata]
Title:Detekoi Tobikiri ZENKAI Power! (TV Size)
TitleUnicode:でてこいとびきりZENKAIパワー!(TVサイズ)
Artist:MANNA
ArtistUnicode:MANNA
Creator:ezek
Version:FULL POWER!
Source:ドラゴンボールZ
Tags:dragon ball z goku ending dete koi
BeatmapID:1564125
BeatmapSetID:741406

[Difficulty]
HPDrainRate:6
CircleSize:4
OverallDifficulty:6
ApproachRate:7
SliderMultiplier:1.8
SliderTickRate:1

[Events]
//Background and Video events
0,0,"powah.jpg",0,0
Video,-348,"Powa.avi"
//Break Periods
//Storyboard Layer 0 (Background)
//Storyboard Layer 1 (Fail)
//Storyboard Layer 2 (Pass)
//Storyboard Layer 3 (Foreground)
//Storyboard Sound Samples

[TimingPoints]
4261,490.33628897152,4,2,1,60,1,0
10145,-153.846153846154,4,2,1,60,0,0
12106,-100,4,1,0,60,0,0
74868,490.33628897152,4,1,0,60,1,0
90541,490.33628897152,4,1,0,60,1,0

[Colours]
Combo1 : 15,170,22
Combo2 : 0,0,179
Combo3 : 255,181,106
Combo4 : 214,12,43

[HitObjects]
24,184,4260,6,0,B|48:116|128:108,1,135,2|0,0:0|0:0,0:0:0:0:
172,104,4751,1,2,0:0:0:0:
212,184,4996,1,0,0:0:0:0:
256,104,5241,2,0,L|256:12,2,90,2|0|2,0:0|0:0|0:0,0:0:0:0:
300,184,5977,1,0,0:0:0:0:
344,104,6222,6,0,B|412:128|420:208,1,135,2|0,0:0|0:0,0:0:0:0:
416,252,6712,1,2,0:0:0:0:
344,304,6957,1,0,0:0:0:0:
256,288,7203,2,0,B|240:336|268:332|256:376,2,90,2|0|2,0:0|0:0|0:0,0:0:0:0:
168,304,7938,1,0,0:0:0:0:
96,252,8183,6,0,L|96:160,1,90,2|0,0:0|0:0,0:0:0:0:
96,162,8551,1,0,0:0:0:0:
96,162,8674,1,2,0:0:0:0:
32,100,8919,1,0,0:0:0:0:
104,48,9164,2,0,B|168:12|232:48,1,135,2|0,0:0|0:0,0:0:0:0:
272,68,9654,1,2,0:0:0:0:
228,148,9899,1,0,0:0:0:0:
272,228,10145,6,0,L|96:228,1,175.499991966248,4|4,0:0|0:0,0:0:0:0:
188,348,11493,1,0,3:0:0:0:
188,348,11616,1,0,3:0:0:0:
272,348,11861,1,4,1:2:0:0:
356,348,12106,5,0,0:0:0:0:
420,284,12351,2,0,B|448:240|420:200,1,90,2|0,0:0|0:0,0:0:0:0:
356,136,12841,1,0,0:0:0:0:
292,200,13087,2,0,L|192:200,1,90,2|0,0:0|0:0,0:0:0:0:
164,224,13454,2,0,L|24:224,1,135,2|0,0:0|0:0,0:0:0:0:
12,136,14067,5,2,0:0:0:0:
72,68,14312,1,0,0:0:0:0:
160,60,14558,1,2,0:0:0:0:
228,116,14803,1,0,0:0:0:0:
296,172,15048,2,2,B|356:192|424:172|448:112,1,180
468,292,16029,5,0,0:0:0:0:
408,356,16274,2,0,B|364:368|364:368|320:356,1,90,2|0,0:0|0:0,0:0:0:0:
256,292,16764,1,0,0:0:0:0:
190,356,17009,2,0,B|148:368|148:368|104:356,1,90,2|0,0:0|0:0,0:0:0:0:
68,332,17377,2,0,B|40:280|96:256|72:201,1,135,2|0,0:0|0:0,0:0:0:0:
16,132,17990,5,2,0:0:0:0:
100,92,18235,1,0,0:0:0:0:
100,92,18358,1,0,0:0:0:0:
100,92,18480,1,2,0:0:0:0:
168,152,18725,1,0,0:0:0:0:
236,96,18971,2,2,B|272:40|368:48|388:104,1,180
460,152,19706,2,0,B|424:208|328:200|308:144,1,180
232,192,20442,6,0,L|240:284,1,90
304,348,20932,2,0,B|376:364|368:312|448:344,1,135,0|8,0:0|0:0,0:0:0:0:
480,352,21422,2,0,B|512:320|500:264,1,90,0|8,0:0|0:0,0:0:0:0:
448,196,21913,5,0,0:0:0:0:
376,252,22158,1,2,0:0:0:0:
316,188,22403,1,0,0:0:0:0:
384,132,22648,1,2,0:0:0:0:
320,68,22893,1,0,0:0:0:0:
320,68,23138,1,2,0:0:0:0:
320,68,23384,1,0,0:0:0:0:
320,68,23629,1,2,0:0:0:0:
244,112,23874,6,0,B|192:124|148:104|128:60,1,135,0|8,0:0|0:0,0:0:0:0:
108,24,24364,2,0,B|80:4|52:0|16:16,1,90,0|8,0:0|0:0,0:0:0:0:
32,116,24855,1,0,0:0:0:0:
32,116,25100,1,2,0:0:0:0:
32,116,25345,1,0,0:0:0:0:
32,116,25590,1,2,0:0:0:0:
116,152,25835,6,0,B|136:184|128:216|128:216|88:272,1,135,0|8,0:0|0:0,0:0:0:0:
60,304,26326,2,0,B|48:356|88:384,1,90,0|8,0:0|0:0,0:0:0:0:
168,340,26816,1,0,0:0:0:0:
168,340,26939,1,8,0:0:0:0:
260,340,27184,1,0,0:0:0:0:
260,340,27306,1,8,0:0:0:0:
348,340,27551,1,4,0:2:0:0:
428,232,27797,6,2,B|392:188|344:180|344:180|300:248,1,180
84,232,28777,2,2,B|120:188|168:180|168:180|212:248,1,180
210,246,29513,1,0,0:0:0:0:
256,168,29758,6,2,B|312:100|208:76|256:0,1,180
332,44,30493,1,2,0:0:0:0:
192,128,30739,1,2,0:0:0:0:
192,128,31229,2,0,L|84:112,1,90,2|4,0:0|0:0,0:0:0:0:
40,240,31719,6,0,B|80:236|92:248|129:244,1,90,6|0,2:0|2:0,2:0:0:0:
76,316,32210,2,0,B|116:312|128:324|165:320,1,90,2|0,2:0|2:0,2:0:0:0:
212,244,32700,6,0,B|252:240|264:252|301:248,1,90,2|0,2:0|2:0,2:0:0:0:
248,320,33190,2,0,B|288:316|300:328|337:324,1,90,2|0,2:0|2:0,2:0:0:0:
380,244,33681,6,0,B|420:240|432:252|469:248,1,90,2|0,2:0|2:0,2:0:0:0:
416,320,34171,2,0,B|456:316|468:328|505:324,1,90,2|0,2:0|2:0,2:0:0:0:
488,176,34661,1,0,0:0:0:0:
488,176,34784,1,0,0:0:0:0:
488,176,34907,1,0,0:0:0:0:
400,168,35152,1,0,0:0:0:0:
400,168,35274,1,0,0:0:0:0:
400,168,35397,1,0,0:0:0:0:
312,156,35642,6,0,B|312:100|376:56|448:88,2,180,2|2|2,0:0|0:0|0:0,0:0:0:0:
256,328,37113,1,8,0:0:0:0:
200,156,37603,2,0,B|200:100|136:56|64:88,2,180,2|2|2,0:0|0:0|0:0,0:0:0:0:
136,276,38952,1,8,0:0:0:0:
136,276,39074,2,0,L|228:276,1,90,0|8,0:0|0:0,0:0:0:0:
316,264,39565,6,0,B|336:320|300:360|300:360|220:360,2,180,2|2|2,0:0|0:0|0:0,0:0:0:0:
152,192,41036,1,8,0:0:0:0:
316,120,41526,2,0,B|336:64|300:24|300:24|220:24,2,180,2|2|2,0:0|0:0|0:0,0:0:0:0:
200,192,42874,1,8,0:0:0:0:
200,192,42997,2,0,L|104:192,1,90,0|8,0:0|0:0,0:0:0:0:
52,260,43487,5,0,0:0:0:0:
124,316,43733,1,2,0:0:0:0:
212,304,43978,1,8,0:0:0:0:
280,244,44223,1,0,0:0:0:0:
344,180,44468,2,2,B|416:152|468:204,2,135
280,244,45449,5,0,0:0:0:0:
190,261,45694,1,2,0:0:0:0:
117,210,45939,1,8,0:0:0:0:
84,126,46184,1,0,0:0:0:0:
140,56,46429,2,2,B|192:0|264:24,2,135
172,140,47410,6,0,B|242:163|294:107,1,135,0|8,0:0|0:0,0:0:0:0:
316,68,47900,1,0,0:0:0:0:
404,44,48146,1,8,0:0:0:0:
380,132,48391,2,0,B|332:220|404:296,1,180
476,352,49126,1,8,0:0:0:0:
332,328,49371,6,0,B|276:324|244:368|244:368|208:292|88:308,1,270
12,328,50352,1,0,0:0:0:0:
28,240,50597,1,8,0:0:0:0:
28,240,50720,1,8,0:0:0:0:
28,240,50842,1,8,0:0:0:0:
28,240,50965,1,8,0:0:0:0:
108,196,51210,1,8,0:0:0:0:
108,196,51333,6,0,B|168:200|212:164|200:76,1,180,0|8,0:0|0:0,0:0:0:0:
256,4,52068,1,8,0:0:0:0:
312,76,52313,2,0,B|300:164|344:200|404:196,1,180,0|8,0:0|0:0,0:0:0:0:
464,264,53049,1,0,0:0:0:0:
376,284,53294,6,0,B|324:284|300:324,1,90
212,324,53784,2,0,B|188:284|136:284,1,90,8|0,0:0|0:0,0:0:0:0:
108,196,54275,1,0,0:0:0:0:
404,196,54765,1,8,0:0:0:0:
404,196,55010,1,4,0:2:0:0:
480,248,55255,6,0,B|456:288|404:288,1,90,2|0,2:0|2:0,2:0:0:0:
404,196,55746,2,0,B|380:156|328:156,1,90,2|0,2:0|2:0,2:0:0:0:
332,244,56236,6,0,B|308:284|256:284,1,90,2|0,2:0|2:0,2:0:0:0:
256,192,56726,2,0,B|232:152|180:152,1,90,2|0,2:0|2:0,2:0:0:0:
184,244,57217,6,0,B|160:284|108:284,1,90,2|0,2:0|2:0,2:0:0:0:
108,192,57707,2,0,B|84:152|32:152,1,90,2|0,2:0|2:0,2:0:0:0:
32,60,58197,1,0,2:0:0:0:
116,96,58443,1,0,2:0:0:0:
204,52,58688,1,0,0:0:0:0:
204,52,58810,1,0,0:0:0:0:
204,52,58933,1,4,0:2:0:0:
284,96,59178,6,0,L|312:56,4,45
276,184,59914,2,0,L|248:224,4,45
364,164,60649,1,2,0:0:0:0:
364,164,60894,1,2,0:0:0:0:
436,220,61140,5,0,0:0:0:0:
436,220,61262,1,0,0:0:0:0:
404,304,61507,1,0,0:0:0:0:
404,304,61630,1,0,0:0:0:0:
316,304,61875,1,0,0:0:0:0:
288,220,62120,2,0,B|244:208|200:232,2,90
316,304,62856,1,2,0:0:0:0:
244,356,63101,5,0,0:0:0:0:
244,356,63223,1,0,0:0:0:0:
160,320,63469,1,0,0:0:0:0:
160,320,63591,2,0,L|143:266,1,45
171,238,63836,2,0,L|154:184,1,45
177,154,64082,1,0,0:0:0:0:
177,154,64204,1,0,0:0:0:0:
216,72,64449,1,0,0:0:0:0:
216,72,64572,2,0,L|260:72,1,45
300,52,64817,2,0,L|348:52,1,45
376,20,65062,6,2,B|424:48|424:48|456:120|400:160,1,180
136,20,66043,2,2,B|88:48|88:48|56:120|112:160,1,180
272,240,67024,6,0,B|205:208|135:259|140:320,1,180,2|4,0:0|0:2,0:0:0:0:
229,321,67759,1,0,0:0:0:0:
308,368,68004,1,0,0:0:0:0:
384,320,68249,2,0,B|428:300|472:320,1,90,2|0,0:0|0:0,0:0:0:0:
472,140,68985,5,0,0:0:0:0:
404,200,69230,2,0,L|312:200,1,90,2|0,0:0|0:0,0:0:0:0:
240,252,69720,1,2,0:0:0:0:
168,200,69966,2,0,B|160:156|160:156|168:112,1,90,0|2,0:0|0:0,0:0:0:0:
168,111,70333,1,0,0:0:0:0:
168,111,70456,1,0,0:0:0:0:
256,92,70701,1,2,0:0:0:0:
330,141,70946,1,0,0:0:0:0:
330,141,71069,6,0,B|385:163|430:104,1,90,0|8,0:0|0:0,0:0:0:0:
440,87,71437,2,0,B|445:38|392:9,1,90,0|8,0:0|0:0,0:0:0:0:
316,48,71927,2,0,B|248:68|248:28|176:48,1,135,0|8,0:0|0:0,0:0:0:0:
152,80,72417,2,0,B|132:120|156:168,1,90,0|8,0:0|0:0,0:0:0:0:
220,228,72908,5,0,0:0:0:0:
176,308,73153,1,0,0:0:0:0:
92,340,73398,1,8,0:0:0:0:
92,340,73521,1,8,0:0:0:0:
92,340,73643,1,0,0:0:0:0:
108,252,73888,1,8,0:0:0:0:
108,252,74011,1,0,0:0:0:0:
128,164,74256,1,0,0:0:0:0:
128,164,74379,1,8,0:0:0:0:
160,32,74746,5,8,0:0:0:0:
160,32,74868,2,0,B|196:84|272:88|320:52,1,180,4|0,0:0|0:0,0:0:0:0:
440,184,75848,2,0,B|404:132|328:128|280:164,1,180
208,220,76584,1,0,0:0:0:0:
136,164,76829,5,2,0:0:0:0:
216,324,77319,1,2,0:0:0:0:
304,324,77564,1,0,0:0:0:0:
256,248,77810,1,2,0:0:0:0:
412,156,78300,1,2,0:0:0:0:
100,156,78790,5,2,0:0:0:0:
100,156,79035,1,2,0:0:0:0:
100,244,79281,1,0,0:0:0:0:
328,64,79771,5,4,2:2:0:0:
184,64,80016,1,4,2:2:0:0:
328,320,80752,5,4,2:2:0:0:
184,320,80997,1,4,2:2:0:0:
328,64,81732,5,4,2:2:0:0:
184,64,81977,1,4,2:2:0:0:
428,180,82713,6,0,B|388:228|324:232|324:232|304:288,1,180,2|2,0:0|0:0,0:0:0:0:
256,364,83448,1,0,0:0:0:0:
208,288,83694,2,0,B|188:232|188:232|124:228|84:180,1,180,2|2,0:0|0:0,0:0:0:0:
64,92,84429,1,0,0:0:0:0:
148,124,84674,6,0,B|196:132|228:92,1,90,2|0,0:0|0:0,0:0:0:0:
292,32,85165,2,0,B|324:-8|372:0,1,90,2|0,0:0|0:0,0:0:0:0:
436,60,85655,1,2,0:0:0:0:
312,192,86145,1,2,0:0:0:0:
436,324,86636,5,2,0:0:0:0:
436,324,86881,1,2,0:0:0:0:
348,332,87126,2,0,L|304:324,3,45
260,316,87616,2,0,B|192:292|132:336,1,135,0|8,0:0|0:0,0:0:0:0:
92,360,88107,1,0,0:0:0:0:
144,168,88597,6,0,L|152:44,2,120,4|0|0,3:0|0:0|0:0,0:0:0:0:
368,168,89578,2,0,L|360:44,2,120,4|0|0,3:0|0:0|0:0,0:0:0:0:
256,352,90541,5,0,3:0:0:0:
256,192,91031,12,4,92257,2:0:0:0:
