osu file format v14

[General]
AudioFilename: audio.mp3
AudioLeadIn: 0
PreviewTime: 12228
Countdown: 0
SampleSet: Soft
StackLeniency: 0.7
Mode: 0
LetterboxInBreaks: 0
WidescreenStoryboard: 1

[Editor]
DistanceSpacing: 1.1
BeatDivisor: 4
GridSize: 4
TimelineZoom: 1

[Metadata]
Title:Detekoi Tobikiri ZENKAI Power! (TV Size)
TitleUnicode:でてこいとびきりZENKAIパワー!(TVサイズ)
Artist:MANNA
ArtistUnicode:MANNA
Creator:ezek
Version:Easy
Source:ドラゴンボールZ
Tags:dragon ball z goku ending dete koi
BeatmapID:1619802
BeatmapSetID:741406

[Difficulty]
HPDrainRate:3
CircleSize:3
OverallDifficulty:3
ApproachRate:3
SliderMultiplier:1.1
SliderTickRate:1

[Events]
//Background and Video events
0,0,"powah.jpg",0,0
Video,-348,"Powa.avi"
//Break Periods
//Storyboard Layer 0 (Background)
//Storyboard Layer 1 (Fail)
//Storyboard Layer 2 (Pass)
//Storyboard Layer 3 (Foreground)
//Storyboard Sound Samples

[TimingPoints]
4261,490.33628897152,4,2,1,60,1,0
12106,-100,4,1,0,60,0,0
74868,490.33628897152,4,1,0,60,1,0
90541,490.33628897152,4,1,0,60,1,0

[Colours]
Combo1 : 15,170,22
Combo2 : 0,0,179
Combo3 : 255,181,106
Combo4 : 214,12,43

[HitObjects]
54,139,4261,6,0,L|54:251,1,110,2|2,0:0|0:0,0:0:0:0:
126,345,5241,2,0,L|235:349,1,110,2|2,0:0|0:0,0:0:0:0:
331,275,6222,2,0,L|331:163,1,110,2|2,0:0|0:0,0:0:0:0:
259,69,7202,2,0,L|149:64,1,110,2|2,0:0|0:0,0:0:0:0:
140,185,8183,6,0,L|136:255,2,55,2|0|2,0:0|0:0|0:0,0:0:0:0:
259,166,9164,2,0,B|319:165|364:193,1,110,2|2,0:0|0:0,0:0:0:0:
452,276,10145,1,4,0:0:0:0:
208,348,12106,6,0,L|152:357|101:339,1,110,0|0,0:0|0:0,0:0:0:0:
21,248,13087,2,0,L|21:138,1,110,2|0,0:0|0:0,0:0:0:0:
101,44,14067,2,0,L|152:27|208:36,2,110,2|2|2,0:0|0:0|0:0,0:0:0:0:
21,138,15538,1,2,0:0:0:0:
91,236,16029,6,0,B|151:237|196:209,1,110,0|0,0:0|0:0,0:0:0:0:
316,209,17009,2,0,B|361:237|421:236,1,110,2|0,0:0|0:0,0:0:0:0:
446,117,17990,2,0,B|401:89|341:90,1,110,2|2,0:0|0:0,0:0:0:0:
234,153,18971,2,0,B|176:164|180:140|112:152,1,110,2|0,0:0|0:0,0:0:0:0:
24,216,19951,6,0,L|24:336,1,110
140,296,20932,1,0,0:0:0:0:
256,328,21422,1,0,0:0:0:0:
372,296,21913,2,0,L|446:215|381:126|458:41,1,330
336,24,23874,6,0,L|224:24,1,110
104,24,24855,1,0,0:0:0:0:
104,144,25345,1,0,0:0:0:0:
12,224,25835,2,0,B|40:272|104:276|104:276|156:328|200:321,1,220
280,228,27306,1,8,0:0:0:0:
360,316,27797,6,0,B|428:336|452:280,1,110,2|2,0:0|0:0,0:0:0:0:
452,160,28777,2,0,B|428:104|360:124,1,110,2|2,0:0|0:0,0:0:0:0:
276,212,29758,1,2,0:0:0:0:
156,212,30248,2,0,L|88:212,2,55,2|2|2,0:0|0:0|0:0,0:0:0:0:
276,212,31229,1,2,0:0:0:0:
214,100,31719,6,0,B|232:4|275:34,2,110,6|2|2,2:0|2:0|2:0,0:0:0:0:
136,192,33190,1,2,2:0:0:0:
214,283,33681,2,0,B|232:380|275:349,2,110,2|2|0,2:0|2:0|0:0,0:0:0:0:
296,192,35152,1,0,0:0:0:0:
404,248,35642,6,0,L|404:372,2,110,2|2|2,0:0|0:0|0:0,0:0:0:0:
512,192,37113,1,8,0:0:0:0:
404,136,37603,2,0,L|404:12,2,110,2|2|2,0:0|0:0|0:0,0:0:0:0:
296,192,39074,1,0,0:0:0:0:
180,192,39565,6,0,L|68:192,2,110,2|2|2,0:0|0:0|0:0,0:0:0:0:
300,192,41036,1,8,0:0:0:0:
408,136,41526,2,0,B|432:192|408:244,2,110,2|2|2,0:0|0:0|0:0,0:0:0:0:
300,80,42997,1,0,0:0:0:0:
196,144,43487,6,0,B|208:216|208:216|224:308|156:341,1,220,0|2,0:0|0:0,0:0:0:0:
36,360,44958,1,0,0:0:0:0:
4,244,45449,2,0,B|-8:172|-8:172|-24:80|43:46,1,220,0|2,0:0|0:0,0:0:0:0:
160,16,46920,1,0,0:0:0:0:
256,92,47410,6,0,L|256:216,2,110,0|0|0,0:0|0:0|0:0,0:0:0:0:
364,40,48881,1,0,0:0:0:0:
480,72,49371,2,0,B|464:140|392:160|392:160|420:248,1,220,0|0,0:0|0:0,0:0:0:0:
179,334,51333,6,0,B|116:372|56:284|104:208|166:228,1,220,0|0,0:0|0:0,0:0:0:0:
280,260,52804,1,8,0:0:0:0:
400,260,53294,1,0,0:0:0:0:
340,156,53784,2,0,L|340:96,2,55,8|0|0,0:0|0:0|0:0,0:0:0:0:
280,260,54765,1,8,0:0:0:0:
176,200,55255,6,0,B|120:224|68:200,1,110,2|2,2:0|2:0,0:0:0:0:
16,92,56236,2,0,B|72:68|124:92,1,110,2|2,2:0|2:0,0:0:0:0:
236,128,57217,2,0,L|346:128,1,110,2|2,2:0|2:0,0:0:0:0:
348,248,58197,2,0,L|348:358,1,110,0|0,2:0|0:0,0:0:0:0:
448,288,59178,6,0,L|504:288,2,55
348,220,60159,2,0,B|292:204|292:236|240:220,1,110,0|2,0:0|0:0,0:0:0:0:
132,168,61140,2,0,B|108:220|132:276,1,110
240,220,62120,2,0,L|296:220,2,55
148,140,63101,5,0,0:0:0:0:
256,88,63591,2,0,L|256:33,2,55,0|0|0,0:0|0:0|0:0,0:0:0:0:
364,140,64572,1,0,0:0:0:0:
420,248,65062,5,2,0:0:0:0:
316,312,65553,1,2,0:0:0:0:
196,312,66043,1,2,0:0:0:0:
92,248,66533,1,2,0:0:0:0:
124,132,67024,6,0,B|176:20|336:20|388:132,1,330,2|0,0:0|0:0,0:0:0:0:
380,252,68985,2,0,B|368:316|316:336,1,110,0|0,0:0|0:0,0:0:0:0:
196,336,69966,2,0,B|144:316|132:252,1,110,0|0,0:0|0:0,0:0:0:0:
148,132,70946,6,0,B|200:124|256:144|256:144|312:124|364:132,1,220,0|0,0:0|0:0,0:0:0:0:
312,304,72662,2,0,L|200:304,1,110,8|0,0:0|0:0,0:0:0:0:
56,44,74868,6,0,B|149:86|173:158|133:230|53:190|5:250|17:322|150:359,1,440,4|2,0:0|0:0,0:0:0:0:
256,300,77319,2,0,L|256:244,2,55,2|0|2,0:0|0:0|0:0,0:0:0:0:
364,356,78300,1,2,0:0:0:0:
472,300,78790,6,0,B|476:248|460:244|460:184,1,110,2|0,0:0|0:0,0:0:0:0:
488,72,79771,1,4,2:2:0:0:
256,140,80752,1,4,2:2:0:0:
24,72,81732,1,4,2:2:0:0:
88,304,82713,6,0,L|139:321|195:312,1,110,2|2,0:0|0:0,0:0:0:0:
316,312,83694,2,0,L|372:321|423:304,1,110,2|2,0:0|0:0,0:0:0:0:
468,192,84674,1,2,0:0:0:0:
424,80,85165,1,2,0:0:0:0:
304,76,85655,2,0,L|304:192,1,110,2|2,0:0|0:0,0:0:0:0:
301,309,86636,6,0,B|212:368|168:260|92:317,1,220,2|0,0:0|0:0,0:0:0:0:
24,216,88107,1,8,0:0:0:0:
112,136,88597,6,0,L|128:52,2,73.3333333333333,4|0|0,3:0|0:0|0:0,0:0:0:0:
180,176,89578,2,0,L|164:260,2,73.3333333333333,4|0|0,3:0|0:0|0:0,0:0:0:0:
256,192,90541,12,4,92257,2:0:0:0:
