osu file format v14

[General]
AudioFilename: audio.mp3
AudioLeadIn: 0
PreviewTime: 51031
Countdown: 0
SampleSet: Soft
StackLeniency: 0.7
Mode: 3
LetterboxInBreaks: 0
SpecialStyle: 0
WidescreenStoryboard: 0

[Editor]
DistanceSpacing: 1.3
BeatDivisor: 4
GridSize: 32
TimelineZoom: 1.8

[Metadata]
Title:Kizuna no Kiseki (TV Size)
TitleUnicode:絆ノ奇跡 (TV Size)
Artist:MAN WITH A MISSION x milet
ArtistUnicode:MAN WITH A MISSION × milet
Creator:Kibitz
Version:Miracle Bond
Source:「鬼滅の刃」刀鍛冶の里編
Tags:Kimetsu no Yaiba -Swordsmith Village Arc- swordsmith arc demon slayer kamado tanjiro nezuko mitsuri kanroji muichiro tokito katanakaji no sato-hen sato hen rock j-rock jrock japanese anime japan op opening 1 one トーキョー・タナカ Tokyo Tanaka ジャンケン・ジョニー Jean-Ken Johnny jean ken Kamikaze Boy カミカゼ・ボーイ DJ Santa Monica ディージェイ・サンタ・モニカ Spear Rib スペア・リブ 5 wolves wolf マン・ウィズ・ア・ミッション MWAM ミレイ Mirei male female vocal vocals vocalist ver. version short yhsh denyi
BeatmapID:4121559
BeatmapSetID:1984411

[Difficulty]
HPDrainRate:8
CircleSize:4
OverallDifficulty:8
ApproachRate:5
SliderMultiplier:1.4
SliderTickRate:1

[Events]
//Background and Video events
Video,-350,"kizuna_no_kiseki.mp4"
0,0,"Kimetsu.jpg",0,0
//Break Periods
//Storyboard Layer 0 (Background)
//Storyboard Layer 1 (Fail)
//Storyboard Layer 2 (Pass)
//Storyboard Layer 3 (Foreground)
//Storyboard Layer 4 (Overlay)
//Storyboard Sound Samples

[TimingPoints]
296,352.941176470588,4,2,1,50,1,0
51119,-100,4,2,1,50,0,1
77766,-100,4,2,1,50,0,0

[HitObjects]
64,192,296,5,0,0:0:0:0:
320,192,296,1,0,0:0:0:0:
448,192,296,1,0,0:0:0:0:
320,192,472,1,0,0:0:0:0:
448,192,472,1,0,0:0:0:0:
64,192,648,1,0,0:0:0:0:
192,192,648,1,0,0:0:0:0:
64,192,825,1,0,0:0:0:0:
320,192,825,1,0,0:0:0:0:
192,192,1001,1,0,0:0:0:0:
448,192,1001,1,0,0:0:0:0:
320,192,1178,1,0,0:0:0:0:
448,192,1178,1,0,0:0:0:0:
192,192,1354,1,0,0:0:0:0:
64,192,1531,1,0,0:0:0:0:
448,192,1531,1,0,0:0:0:0:
320,192,1884,1,0,0:0:0:0:
448,192,1884,1,0,0:0:0:0:
64,192,2060,1,0,0:0:0:0:
192,192,2060,1,0,0:0:0:0:
448,192,2237,1,0,0:0:0:0:
320,192,2325,1,0,0:0:0:0:
64,192,2413,1,0,0:0:0:0:
192,192,2413,1,0,0:0:0:0:
320,192,2590,1,0,0:0:0:0:
192,192,2678,1,0,0:0:0:0:
320,192,2766,1,0,0:0:0:0:
448,192,2766,1,0,0:0:0:0:
64,192,2943,1,0,0:0:0:0:
192,192,2943,1,0,0:0:0:0:
64,192,3119,1,0,0:0:0:0:
320,192,3119,1,0,0:0:0:0:
448,192,3119,1,0,0:0:0:0:
320,192,3295,1,0,0:0:0:0:
448,192,3295,1,0,0:0:0:0:
64,192,3472,1,0,0:0:0:0:
192,192,3472,1,0,0:0:0:0:
320,192,3648,1,0,0:0:0:0:
448,192,3648,1,0,0:0:0:0:
64,192,3825,1,0,0:0:0:0:
448,192,3825,1,0,0:0:0:0:
64,192,4001,1,0,0:0:0:0:
192,192,4001,1,0,0:0:0:0:
320,192,4178,1,0,0:0:0:0:
192,192,4354,1,0,0:0:0:0:
448,192,4354,1,0,0:0:0:0:
64,192,4531,128,0,5854:0:0:0:0:
320,192,4531,1,0,0:0:0:0:
192,192,4707,1,0,0:0:0:0:
448,192,4884,1,0,0:0:0:0:
320,192,5060,1,0,0:0:0:0:
192,192,5148,1,0,0:0:0:0:
320,192,5237,1,0,0:0:0:0:
448,192,5237,1,0,0:0:0:0:
192,192,5413,128,0,5854:0:0:0:0:
448,192,5413,1,0,0:0:0:0:
320,192,5590,128,0,5854:0:0:0:0:
64,192,5943,1,2,0:0:0:0:
192,192,5943,1,4,0:0:0:0:
320,192,5943,1,0,0:0:0:0:
448,192,5943,1,0,0:0:0:0:
64,192,6119,1,0,0:0:0:0:
320,192,6119,1,0,0:0:0:0:
192,192,6295,1,8,0:0:0:0:
320,192,6295,1,0,0:0:0:45:finish2.wav
448,192,6295,1,0,0:0:0:0:
64,192,6472,1,0,0:0:0:0:
192,192,6472,1,0,0:0:0:0:
64,192,6648,1,2,0:0:0:0:
320,192,6648,1,0,0:0:0:40:finish2.wav
320,192,6825,1,0,0:0:0:0:
448,192,6825,1,0,0:0:0:0:
64,192,7001,1,8,0:0:0:0:
192,192,7001,1,0,0:0:0:35:finish2.wav
448,192,7001,1,0,0:0:0:0:
192,192,7178,1,0,0:0:0:0:
320,192,7178,1,0,0:0:0:0:
64,192,7354,1,2,0:0:0:0:
320,192,7354,1,0,0:0:0:40:finish2.wav
192,192,7531,1,0,0:0:0:0:
448,192,7531,1,0,0:0:0:0:
64,192,7707,1,8,0:0:0:0:
192,192,7707,1,0,0:0:0:43:finish2.wav
320,192,7707,1,0,0:0:0:0:
64,192,7884,1,0,0:0:0:0:
448,192,7884,1,0,0:0:0:0:
320,192,8060,1,2,0:0:0:0:
448,192,8060,1,0,0:0:0:40:finish2.wav
64,192,8237,1,0,0:0:0:0:
192,192,8237,1,0,0:0:0:0:
64,192,8413,1,8,0:0:0:0:
320,192,8413,1,0,0:0:0:38:finish2.wav
448,192,8413,1,0,0:0:0:0:
192,192,8590,1,0,0:0:0:0:
320,192,8590,1,0,0:0:0:0:
64,192,8766,1,2,0:0:0:0:
448,192,8766,1,0,0:0:0:25:finish2.wav
64,192,8943,1,0,0:0:0:0:
320,192,8943,1,0,0:0:0:0:
192,192,9119,1,8,0:0:0:0:
320,192,9119,1,0,0:0:0:30:finish2.wav
448,192,9119,1,0,0:0:0:0:
64,192,9295,1,0,0:0:0:0:
192,192,9295,1,0,0:0:0:0:
320,192,9472,1,2,0:0:0:0:
448,192,9472,1,0,0:0:0:28:finish2.wav
192,192,9648,1,0,0:0:0:0:
320,192,9648,1,0,0:0:0:0:
64,192,9825,1,8,0:0:0:0:
192,192,9825,1,0,0:0:0:25:finish2.wav
448,192,9825,1,0,0:0:0:0:
320,192,10001,1,0,0:0:0:0:
448,192,10001,1,0,0:0:0:0:
64,192,10178,1,2,0:0:0:0:
192,192,10178,1,0,0:0:0:30:finish2.wav
192,192,10354,1,0,0:0:0:0:
320,192,10354,1,0,0:0:0:0:
64,192,10531,1,8,0:0:0:0:
320,192,10531,1,0,0:0:0:28:finish2.wav
448,192,10531,1,0,0:0:0:0:
64,192,10707,1,0,0:0:0:0:
192,192,10707,1,0,0:0:0:0:
320,192,10884,1,2,0:0:0:0:
448,192,10884,1,0,0:0:0:25:finish2.wav
320,192,11060,1,2,0:0:0:0:
448,192,11060,1,0,0:0:0:0:
64,192,11237,1,8,0:0:0:0:
192,192,11237,1,0,0:0:0:0:
448,192,11237,1,0,0:0:0:0:
64,192,11413,1,2,0:0:0:0:
192,192,11413,1,0,0:0:0:0:
64,192,11590,1,2,0:0:0:0:
192,192,11590,1,4,0:0:0:0:
320,192,11590,1,0,0:0:0:0:
448,192,11590,1,0,0:0:0:0:
320,192,11766,1,0,0:0:0:0:
448,192,11766,1,0,0:0:0:0:
64,192,11943,1,8,0:0:0:0:
192,192,11943,1,0,0:0:0:45:finish2.wav
320,192,11943,1,0,0:0:0:0:
64,192,12119,1,0,0:0:0:0:
448,192,12119,1,0,0:0:0:0:
192,192,12295,1,2,0:0:0:0:
448,192,12295,1,0,0:0:0:40:finish2.wav
64,192,12472,1,0,0:0:0:0:
320,192,12472,1,0,0:0:0:0:
64,192,12648,1,8,0:0:0:0:
192,192,12648,1,0,0:0:0:40:finish2.wav
320,192,12648,1,0,0:0:0:0:
192,192,12825,1,0,0:0:0:0:
448,192,12825,1,0,0:0:0:0:
320,192,13001,1,2,0:0:0:0:
448,192,13001,1,0,0:0:0:45:finish2.wav
64,192,13178,1,0,0:0:0:0:
192,192,13178,1,0,0:0:0:0:
64,192,13354,1,8,0:0:0:0:
320,192,13354,1,0,0:0:0:40:finish2.wav
448,192,13354,1,0,0:0:0:0:
192,192,13531,1,0,0:0:0:0:
448,192,13531,1,0,0:0:0:0:
64,192,13707,1,2,0:0:0:0:
192,192,13707,1,0,0:0:0:35:finish2.wav
320,192,13884,1,0,0:0:0:0:
448,192,13884,1,0,0:0:0:0:
64,192,14060,1,8,0:0:0:0:
192,192,14060,1,0,0:0:0:30:finish2.wav
448,192,14060,1,0,0:0:0:0:
64,192,14237,1,0,0:0:0:0:
192,192,14237,1,0,0:0:0:0:
320,192,14413,1,2,0:0:0:0:
448,192,14413,1,0,0:0:0:35:finish2.wav
64,192,14590,1,0,0:0:0:0:
320,192,14590,1,0,0:0:0:0:
64,192,14766,1,8,0:0:0:0:
192,192,14766,1,0,0:0:0:40:finish2.wav
448,192,14766,1,0,0:0:0:0:
320,192,14943,1,0,0:0:0:0:
448,192,14943,1,0,0:0:0:0:
64,192,15119,1,8,0:0:0:0:
192,192,15119,1,0,0:0:0:50:finish2.wav
320,192,15119,1,0,0:0:0:0:
448,192,15119,1,0,0:0:0:0:
64,192,15295,1,2,0:0:0:0:
192,192,15295,1,0,0:0:0:0:
320,192,15472,1,2,0:0:0:0:
448,192,15472,1,0,0:0:0:0:
64,192,15648,1,4,0:0:0:0:
192,192,15648,1,8,0:0:0:0:
320,192,15648,1,0,0:0:0:0:
448,192,15648,1,0,0:0:0:0:
64,192,15825,1,0,0:0:0:0:
192,192,15825,1,0,0:0:0:0:
320,192,16001,1,2,0:0:0:0:
448,192,16001,1,0,0:0:0:0:
64,192,16178,1,8,0:0:0:0:
192,192,16178,1,0,0:0:0:50:finish2.wav
320,192,16178,1,0,0:0:0:0:
448,192,16178,1,0,0:0:0:0:
64,192,16354,1,2,0:0:0:0:
192,192,16354,1,0,0:0:0:0:
64,192,16531,1,8,0:0:0:0:
320,192,16531,1,0,0:0:0:0:
448,192,16531,1,0,0:0:0:0:
192,192,16707,1,8,0:0:0:0:
320,192,16707,1,0,0:0:0:0:
448,192,16707,1,0,0:0:0:0:
64,192,16884,1,8,0:0:0:0:
192,192,16884,1,0,0:0:0:0:
448,192,16884,1,0,0:0:0:0:
64,192,17060,1,8,0:0:0:0:
192,192,17060,1,0,0:0:0:0:
320,192,17060,1,0,0:0:0:0:
320,192,17237,1,2,0:0:0:0:
448,192,17237,1,0,0:0:0:0:
192,192,17413,128,0,17590:0:0:0:0:
64,192,17590,128,0,17766:0:0:0:0:
448,192,17590,128,0,17766:0:0:0:0:
320,192,17766,128,0,18295:0:0:0:0:
64,192,18119,1,0,0:0:0:40:kick2.wav
448,192,18119,1,0,0:0:0:0:
64,192,18295,128,0,18472:0:0:0:0:
192,192,18295,128,0,18472:0:0:0:0:
320,192,18472,128,0,18648:0:0:0:0:
448,192,18472,128,0,18825:0:0:0:0:
64,192,18648,1,0,0:0:0:0:
192,192,18825,128,0,19001:0:0:0:40:kick2.wav
320,192,18825,128,0,19178:0:0:0:0:
448,192,19001,128,0,19178:0:0:0:0:
64,192,19178,1,0,0:0:0:0:
192,192,19178,128,0,19531:0:0:0:0:
320,192,19354,1,0,0:0:0:0:
64,192,19531,128,0,19884:0:0:0:0:
192,192,19707,128,0,19884:0:0:0:40:kick2.wav
320,192,19707,1,0,0:0:0:0:
448,192,19884,128,0,20237:0:0:0:0:
64,192,20060,1,0,0:0:0:40:kick2.wav
320,192,20060,1,0,0:0:0:0:
192,192,20237,128,0,20590:0:0:0:0:
320,192,20237,128,0,20413:0:0:0:0:
64,192,20413,128,0,20590:0:0:0:0:
448,192,20590,128,0,20766:0:0:0:0:
192,192,20766,1,0,0:0:0:0:
320,192,20943,128,0,21119:0:0:0:40:kick2.wav
64,192,21119,128,0,21295:0:0:0:0:
192,192,21119,128,0,21295:0:0:0:0:
448,192,21295,128,0,21472:0:0:0:0:
64,192,21472,1,0,0:0:0:0:
320,192,21472,128,0,21825:0:0:0:0:
192,192,21648,1,0,0:0:0:40:kick2.wav
448,192,21648,128,0,21825:0:0:0:0:
64,192,21825,128,0,22001:0:0:0:0:
192,192,21825,128,0,22178:0:0:0:0:
320,192,22001,1,0,0:0:0:0:
64,192,22178,128,0,22531:0:0:0:0:
192,192,22354,1,0,0:0:0:40:kick2.wav
448,192,22354,1,0,0:0:0:0:
320,192,22531,128,0,22707:0:0:0:0:
192,192,22707,128,0,22884:0:0:0:0:
320,192,22884,1,0,0:0:0:40:kick2.wav
448,192,22884,128,0,23237:0:0:0:0:
64,192,23060,128,0,23237:0:0:0:0:
192,192,23237,128,0,23413:0:0:0:0:
320,192,23237,128,0,23413:0:0:0:0:
64,192,23413,128,0,23943:0:0:0:0:
448,192,23590,1,0,0:0:0:0:
192,192,23766,1,0,0:0:0:40:kick2.wav
320,192,23766,1,0,0:0:0:0:
320,192,23943,128,0,24119:0:0:0:0:
448,192,23943,128,0,24119:0:0:0:0:
192,192,24119,128,0,24472:0:0:0:0:
64,192,24295,1,0,0:0:0:0:
320,192,24472,128,0,24648:0:0:0:40:kick2.wav
448,192,24472,1,0,0:0:0:0:
64,192,24648,128,0,24825:0:0:0:0:
192,192,24648,128,0,24825:0:0:0:0:
448,192,24825,128,0,25001:0:0:0:0:
320,192,25001,1,0,0:0:0:0:
64,192,25178,1,0,0:0:0:40:kick2.wav
192,192,25178,1,0,0:0:0:0:
320,192,25354,128,0,25531:0:0:0:0:
192,192,25531,128,0,25707:0:0:0:0:
64,192,25707,1,0,0:0:0:40:kick2.wav
320,192,25707,128,0,26060:0:0:0:0:
448,192,25884,128,0,26060:0:0:0:0:
64,192,26060,128,0,26237:0:0:0:0:
192,192,26060,128,0,26237:0:0:0:0:
448,192,26237,128,0,26590:0:0:0:0:
192,192,26413,1,0,0:0:0:0:
64,192,26590,1,0,0:0:0:40:kick2.wav
320,192,26590,1,0,0:0:0:0:
192,192,26678,1,0,0:0:0:0:
64,192,26766,128,0,26943:0:0:0:0:
448,192,26766,128,0,26943:0:0:0:0:
320,192,26943,128,0,27295:0:0:0:0:
448,192,27119,1,0,0:0:0:0:
64,192,27295,128,0,27648:0:0:0:40:kick2.wav
192,192,27295,128,0,27472:0:0:0:0:
448,192,27472,1,0,0:0:0:0:
320,192,27648,128,0,28178:0:0:0:0:
64,192,27825,1,0,0:0:0:0:
192,192,28001,128,0,28178:0:0:0:0:
64,192,28178,128,0,28443:0:0:0:0:
448,192,28178,128,0,28443:0:0:0:0:
192,192,28531,1,2,0:0:0:0:
320,192,28531,1,4,0:0:0:0:
448,192,28531,1,0,0:0:0:0:
320,192,28707,1,2,0:0:0:0:
448,192,28707,1,0,0:0:0:0:
64,192,28884,1,8,0:0:0:0:
192,192,28884,1,0,0:0:0:0:
448,192,28884,1,0,0:0:0:0:
64,192,29060,1,2,0:0:0:0:
320,192,29060,1,0,0:0:0:0:
192,192,29237,1,0,0:0:0:0:
320,192,29413,1,2,0:0:0:0:
448,192,29413,1,0,0:0:0:0:
64,192,29590,1,8,0:0:0:0:
320,192,29590,1,0,0:0:0:0:
448,192,29590,1,0,0:0:0:0:
192,192,29766,1,0,0:0:0:0:
320,192,29854,1,0,0:0:0:0:
448,192,29943,1,0,0:0:0:0:
64,192,30119,1,2,0:0:0:0:
192,192,30119,1,0,0:0:0:0:
64,192,30295,1,8,0:0:0:0:
192,192,30295,1,0,0:0:0:0:
448,192,30295,1,0,0:0:0:0:
320,192,30472,1,0,0:0:0:0:
192,192,30648,1,2,0:0:0:0:
448,192,30648,1,0,0:0:0:0:
192,192,30825,1,2,0:0:0:0:
448,192,30825,1,0,0:0:0:0:
64,192,31001,1,8,0:0:0:0:
320,192,31001,1,0,0:0:0:0:
448,192,31001,1,0,0:0:0:0:
192,192,31178,1,0,0:0:0:0:
64,192,31354,1,2,0:0:0:0:
320,192,31354,1,0,0:0:0:0:
64,192,31531,1,2,0:0:0:0:
320,192,31531,1,0,0:0:0:0:
64,192,31707,1,8,0:0:0:0:
192,192,31707,1,0,0:0:0:0:
448,192,31707,1,0,0:0:0:0:
320,192,31884,1,2,0:0:0:0:
448,192,31884,1,0,0:0:0:0:
192,192,32060,1,0,0:0:0:0:
64,192,32237,1,2,0:0:0:0:
320,192,32237,1,0,0:0:0:0:
64,192,32413,1,8,0:0:0:0:
192,192,32413,1,0,0:0:0:0:
320,192,32413,1,0,0:0:0:0:
448,192,32590,1,0,0:0:0:0:
192,192,32766,1,0,0:0:0:0:
320,192,32943,1,2,0:0:0:0:
448,192,32943,1,0,0:0:0:0:
64,192,33119,1,8,0:0:0:0:
192,192,33119,1,0,0:0:0:0:
448,192,33119,1,0,0:0:0:0:
320,192,33295,1,0,0:0:0:0:
64,192,33472,1,2,0:0:0:0:
448,192,33472,1,0,0:0:0:0:
448,192,33648,1,2,0:0:0:0:
64,192,33648,1,0,0:0:0:0:
320,192,33825,1,8,0:0:0:0:
192,192,33825,1,0,0:0:0:0:
448,192,33825,1,0,0:0:0:0:
192,192,34001,1,2,0:0:0:0:
64,192,34001,1,0,0:0:0:0:
64,192,34178,1,2,0:0:0:0:
320,192,34178,1,4,0:0:0:0:
448,192,34178,1,0,0:0:0:0:
192,192,34354,1,2,0:0:0:0:
320,192,34354,1,0,0:0:0:0:
64,192,34531,1,8,0:0:0:0:
192,192,34531,1,0,0:0:0:0:
448,192,34531,1,0,0:0:0:0:
448,192,34707,1,2,0:0:0:0:
320,192,34707,1,0,0:0:0:0:
64,192,34884,1,0,0:0:0:0:
320,192,35060,1,2,0:0:0:0:
448,192,35060,1,0,0:0:0:0:
64,192,35237,1,8,0:0:0:0:
192,192,35237,1,0,0:0:0:0:
448,192,35237,1,0,0:0:0:0:
320,192,35413,1,0,0:0:0:0:
192,192,35501,1,0,0:0:0:0:
64,192,35590,1,0,0:0:0:0:
320,192,35766,1,2,0:0:0:0:
448,192,35766,1,0,0:0:0:0:
64,192,35943,1,8,0:0:0:0:
192,192,35943,1,0,0:0:0:0:
448,192,35943,1,0,0:0:0:0:
320,192,36119,1,0,0:0:0:0:
64,192,36295,1,2,0:0:0:0:
192,192,36295,1,0,0:0:0:0:
320,192,36472,1,2,0:0:0:0:
448,192,36472,1,0,0:0:0:0:
64,192,36648,1,8,0:0:0:0:
320,192,36648,1,0,0:0:0:0:
448,192,36648,1,0,0:0:0:0:
64,192,36825,1,2,0:0:0:0:
192,192,36825,1,0,0:0:0:0:
64,192,37001,1,8,0:0:0:0:
192,192,37001,1,4,0:0:0:0:
320,192,37001,1,0,0:0:0:0:
448,192,37001,1,0,0:0:0:0:
320,192,37178,1,2,0:0:0:0:
448,192,37178,1,0,0:0:0:0:
320,192,37354,1,2,0:0:0:0:
448,192,37354,1,0,0:0:0:0:
64,192,37531,1,8,0:0:0:0:
192,192,37531,1,4,0:0:0:0:
320,192,37531,1,0,0:0:0:0:
448,192,37531,1,0,0:0:0:0:
64,192,37707,1,2,0:0:0:0:
192,192,37707,1,0,0:0:0:0:
64,192,37884,1,2,0:0:0:0:
192,192,37884,1,0,0:0:0:0:
64,192,38060,1,8,0:0:0:0:
192,192,38060,1,4,0:0:0:0:
320,192,38060,1,0,0:0:0:0:
448,192,38060,1,0,0:0:0:0:
320,192,38237,1,2,0:0:0:0:
448,192,38237,1,0,0:0:0:0:
64,192,38413,1,2,0:0:0:0:
192,192,38413,1,0,0:0:0:0:
64,192,38590,1,8,0:0:0:0:
192,192,38590,1,4,0:0:0:0:
320,192,38590,1,0,0:0:0:0:
448,192,38590,1,0,0:0:0:0:
192,192,38766,1,2,0:0:0:0:
448,192,38766,1,0,0:0:0:0:
64,192,38943,1,2,0:0:0:0:
320,192,38943,1,0,0:0:0:0:
64,192,39119,1,8,0:0:0:0:
192,192,39119,1,0,0:0:0:0:
448,192,39119,1,0,0:0:0:0:
192,192,39295,1,8,0:0:0:0:
320,192,39295,1,0,0:0:0:0:
448,192,39295,1,0,0:0:0:0:
64,192,39472,1,8,0:0:0:0:
320,192,39472,1,0,0:0:0:0:
448,192,39472,1,0,0:0:0:0:
64,192,39648,1,8,0:0:0:0:
192,192,39648,1,0,0:0:0:0:
320,192,39648,1,0,0:0:0:0:
192,192,39825,1,2,0:0:0:0:
448,192,39825,128,0,40531:0:0:0:0:
320,192,40090,128,0,40531:0:0:0:0:
192,192,40354,128,0,40531:0:0:0:0:
64,192,40531,128,0,41237:0:0:0:40:LR_Clap Long.wav
192,192,40795,128,0,41237:0:0:0:0:
320,192,41060,128,0,41237:0:0:0:0:
448,192,41237,128,0,41943:0:0:0:0:
192,192,41501,128,0,41943:0:0:0:0:
64,192,41766,128,0,41943:0:0:0:0:
320,192,41943,128,0,42295:0:0:0:0:
192,192,42295,1,0,0:0:0:0:
320,192,42648,1,0,0:0:0:0:
448,192,42648,128,0,43354:0:0:0:0:
64,192,42913,128,0,43354:0:0:0:0:
192,192,43178,128,0,43354:0:0:0:0:
320,192,43354,128,0,44060:0:0:0:40:LR_Clap Long.wav
64,192,43531,1,0,0:0:0:0:
192,192,43619,128,0,44060:0:0:0:0:
64,192,43884,128,0,44060:0:0:0:0:
448,192,44060,128,0,44766:0:0:0:0:
320,192,44325,128,0,44766:0:0:0:0:
192,192,44590,128,0,44766:0:0:0:0:
64,192,44766,128,0,45119:0:0:0:0:
448,192,45119,1,0,0:0:0:0:
64,192,45472,1,0,0:0:0:50:kick2.wav
192,192,45472,1,0,0:0:0:0:
448,192,45472,1,0,0:0:0:0:
192,192,45648,1,0,0:0:0:0:
448,192,45737,1,0,0:0:0:0:
64,192,45825,1,0,0:0:0:50:kick2.wav
320,192,45825,1,0,0:0:0:0:
320,192,46001,1,0,0:0:0:0:
64,192,46178,1,0,0:0:0:50:kick2.wav
192,192,46178,1,0,0:0:0:40:LR_Clap Long.wav
448,192,46178,1,0,0:0:0:0:
64,192,46354,1,0,0:0:0:0:
320,192,46443,1,0,0:0:0:0:
192,192,46531,1,0,0:0:0:50:kick2.wav
448,192,46531,1,0,0:0:0:0:
448,192,46707,1,0,0:0:0:0:
64,192,46884,1,0,0:0:0:50:kick2.wav
320,192,46884,1,0,0:0:0:0:
320,192,47060,1,0,0:0:0:0:
192,192,47148,1,0,0:0:0:0:
64,192,47237,1,0,0:0:0:50:kick2.wav
448,192,47237,1,0,0:0:0:0:
64,192,47413,1,0,0:0:0:0:
192,192,47590,1,0,0:0:0:50:kick2.wav
320,192,47590,1,0,0:0:0:40:LR_Clap Long.wav
448,192,47590,1,0,0:0:0:0:
192,192,47766,1,0,0:0:0:0:
64,192,47943,1,0,0:0:0:50:kick2.wav
448,192,47943,1,0,0:0:0:0:
448,192,48119,1,0,0:0:0:0:
64,192,48295,1,0,0:0:0:55:kick2.wav
192,192,48295,1,0,0:0:0:0:
64,192,48472,1,0,0:0:0:55:kick2.wav
192,192,48472,1,0,0:0:0:0:
320,192,48648,1,0,0:0:0:55:kick2.wav
448,192,48648,1,0,0:0:0:0:
320,192,48825,1,0,0:0:0:55:kick2.wav
448,192,48825,1,0,0:0:0:0:
64,192,49001,1,0,0:0:0:45:kick2.wav
192,192,49001,1,0,0:0:0:0:
320,192,49090,1,0,0:0:0:45:kick2.wav
448,192,49090,1,0,0:0:0:0:
64,192,49178,1,0,0:0:0:45:kick2.wav
192,192,49178,1,0,0:0:0:0:
320,192,49266,1,0,0:0:0:45:kick2.wav
448,192,49266,1,0,0:0:0:0:
64,192,49354,1,0,0:0:0:45:kick2.wav
192,192,49354,1,0,0:0:0:0:
320,192,49443,1,0,0:0:0:45:kick2.wav
448,192,49443,1,0,0:0:0:0:
64,192,49531,1,0,0:0:0:45:kick2.wav
192,192,49531,1,0,0:0:0:0:
320,192,49619,1,0,0:0:0:45:kick2.wav
448,192,49619,1,0,0:0:0:0:
64,192,49707,128,0,50237:0:0:0:0:
320,192,50237,128,0,50413:0:0:0:0:
192,192,50413,128,0,51119:0:0:0:0:
64,192,51119,1,4,0:0:0:0:
320,192,51119,1,2,0:0:0:0:
448,192,51119,128,0,51472:0:0:0:0:
64,192,51472,1,8,0:0:0:0:
192,192,51472,128,0,51648:0:0:0:70:HatOpen.wav
320,192,51472,1,0,0:0:0:0:
320,192,51648,128,0,52001:0:0:0:0:
64,192,51825,1,2,0:0:0:0:
448,192,51825,1,0,0:0:0:70:HatOpen.wav
192,192,52001,1,0,0:0:0:0:
64,192,52178,128,8,52354:0:0:0:0:
320,192,52178,1,0,0:0:0:70:HatOpen.wav
448,192,52178,1,0,0:0:0:0:
320,192,52354,128,0,52707:0:0:0:0:
64,192,52531,1,2,0:0:0:0:
448,192,52531,1,0,0:0:0:70:HatOpen.wav
192,192,52707,1,0,0:0:0:0:
64,192,52884,1,8,0:0:0:0:
192,192,52884,1,0,0:0:0:70:HatOpen.wav
448,192,52884,128,0,53060:0:0:0:0:
64,192,53060,128,0,53413:0:0:0:0:
192,192,53237,1,2,0:0:0:0:
448,192,53237,1,0,0:0:0:70:HatOpen.wav
320,192,53413,1,0,0:0:0:0:
192,192,53590,128,8,53766:0:0:0:0:
320,192,53590,1,0,0:0:0:70:HatOpen.wav
448,192,53590,1,0,0:0:0:0:
448,192,53766,128,0,54295:0:0:0:0:
64,192,53943,1,2,0:0:0:0:
192,192,53943,1,0,0:0:0:70:HatOpen.wav
320,192,54119,1,0,0:0:0:0:
64,192,54295,128,8,54472:0:0:0:0:
192,192,54295,1,0,0:0:0:70:HatOpen.wav
320,192,54295,1,0,0:0:0:0:
448,192,54472,128,0,55001:0:0:0:0:
64,192,54648,1,2,0:0:0:0:
320,192,54648,1,0,0:0:0:70:HatOpen.wav
192,192,54825,1,0,0:0:0:0:
64,192,55001,128,8,55178:0:0:0:0:
192,192,55001,1,0,0:0:0:70:HatOpen.wav
320,192,55001,1,0,0:0:0:0:
320,192,55178,128,0,55531:0:0:0:0:
64,192,55354,1,2,0:0:0:0:
448,192,55354,1,0,0:0:0:70:HatOpen.wav
192,192,55531,128,0,55707:0:0:0:0:
64,192,55707,1,8,0:0:0:0:
320,192,55707,1,0,0:0:0:70:HatOpen.wav
448,192,55707,1,0,0:0:0:0:
64,192,55884,128,0,56237:0:0:0:0:
320,192,56060,1,2,0:0:0:0:
448,192,56060,1,0,0:0:0:70:HatOpen.wav
192,192,56237,1,2,0:0:0:0:
448,192,56237,128,0,56413:0:0:0:0:
64,192,56413,1,8,0:0:0:0:
192,192,56413,1,0,0:0:0:70:HatOpen.wav
320,192,56413,1,0,0:0:0:0:
320,192,56590,1,2,0:0:0:0:
448,192,56590,1,0,0:0:0:0:
64,192,56766,128,2,57119:0:0:0:0:
192,192,56766,1,4,0:0:0:0:
448,192,56766,1,0,0:0:0:0:
320,192,56943,1,0,0:0:0:0:
192,192,57119,1,8,0:0:0:0:
320,192,57119,128,0,57295:0:0:0:70:HatOpen.wav
448,192,57119,1,0,0:0:0:0:
192,192,57295,128,0,57648:0:0:0:0:
64,192,57472,1,2,0:0:0:0:
448,192,57472,1,0,0:0:0:70:HatOpen.wav
320,192,57648,1,0,0:0:0:0:
64,192,57825,1,8,0:0:0:0:
192,192,57825,1,0,0:0:0:70:HatOpen.wav
448,192,57825,128,0,58001:0:0:0:0:
64,192,58001,128,0,58531:0:0:0:0:
192,192,58178,1,2,0:0:0:0:
448,192,58178,1,0,0:0:0:70:HatOpen.wav
320,192,58354,1,0,0:0:0:0:
192,192,58531,1,8,0:0:0:0:
320,192,58531,128,0,58707:0:0:0:70:HatOpen.wav
448,192,58531,1,0,0:0:0:0:
192,192,58707,128,0,59060:0:0:0:0:
320,192,58884,1,2,0:0:0:0:
448,192,58884,1,0,0:0:0:70:HatOpen.wav
448,192,59060,1,0,0:0:0:0:
64,192,59237,128,8,59413:0:0:0:0:
192,192,59237,1,0,0:0:0:70:HatOpen.wav
320,192,59237,1,0,0:0:0:0:
320,192,59413,128,0,59943:0:0:0:0:
64,192,59590,1,2,0:0:0:0:
448,192,59590,1,0,0:0:0:70:HatOpen.wav
192,192,59766,1,0,0:0:0:0:
64,192,59943,1,8,0:0:0:0:
192,192,59943,128,0,60119:0:0:0:70:HatOpen.wav
448,192,59943,1,0,0:0:0:0:
64,192,60119,128,0,60648:0:0:0:0:
192,192,60295,1,2,0:0:0:0:
320,192,60295,1,0,0:0:0:70:HatOpen.wav
448,192,60472,1,0,0:0:0:0:
192,192,60648,1,8,0:0:0:0:
320,192,60648,1,0,0:0:0:70:HatOpen.wav
448,192,60648,128,0,60825:0:0:0:0:
192,192,60825,128,0,61178:0:0:0:0:
64,192,61001,1,2,0:0:0:0:
448,192,61001,1,0,0:0:0:70:HatOpen.wav
320,192,61178,128,0,61354:0:0:0:0:
64,192,61354,1,8,0:0:0:0:
192,192,61354,1,0,0:0:0:70:HatOpen.wav
448,192,61354,1,0,0:0:0:0:
448,192,61531,128,0,61884:0:0:0:0:
64,192,61707,1,2,0:0:0:0:
320,192,61707,1,0,0:0:0:70:HatOpen.wav
64,192,61884,1,8,0:0:0:0:
192,192,61884,1,0,0:0:0:0:
320,192,61884,1,0,0:0:0:0:
192,192,62060,1,8,0:0:0:0:
320,192,62060,1,0,0:0:0:0:
448,192,62060,1,0,0:0:0:0:
64,192,62237,1,8,0:0:0:0:
448,192,62237,1,0,0:0:0:0:
64,192,62413,1,2,0:0:0:0:
192,192,62413,128,4,62678:0:0:0:0:
320,192,62413,1,0,0:0:0:0:
448,192,62590,1,0,0:0:0:0:
320,192,62678,128,0,62854:0:0:0:0:
64,192,62766,1,8,0:0:0:0:
448,192,62766,1,0,0:0:0:70:HatOpen.wav
64,192,62943,128,0,63119:0:0:0:0:
320,192,63119,1,2,0:0:0:0:
448,192,63119,128,0,63472:0:0:0:70:HatOpen.wav
64,192,63295,1,2,0:0:0:0:
192,192,63295,1,0,0:0:0:0:
64,192,63472,1,8,0:0:0:0:
192,192,63472,1,0,0:0:0:70:HatOpen.wav
320,192,63472,1,0,0:0:0:0:
320,192,63648,1,2,0:0:0:0:
448,192,63648,1,0,0:0:0:0:
64,192,63825,128,2,64090:0:0:0:0:
192,192,63825,1,0,0:0:0:70:HatOpen.wav
320,192,64001,1,0,0:0:0:0:
448,192,64090,128,0,64266:0:0:0:0:
192,192,64178,1,8,0:0:0:0:
320,192,64178,1,0,0:0:0:70:HatOpen.wav
192,192,64354,128,0,64531:0:0:0:0:
64,192,64443,1,8,0:0:0:0:
320,192,64531,128,2,64884:0:0:0:0:
448,192,64531,1,0,0:0:0:70:HatOpen.wav
64,192,64707,1,2,0:0:0:0:
192,192,64707,1,0,0:0:0:0:
64,192,64884,1,8,0:0:0:0:
192,192,64884,1,0,0:0:0:70:HatOpen.wav
448,192,64884,1,0,0:0:0:0:
320,192,65060,1,2,0:0:0:0:
448,192,65060,1,0,0:0:0:0:
64,192,65237,128,2,65590:0:0:0:0:
192,192,65237,1,0,0:0:0:70:HatOpen.wav
448,192,65413,1,0,0:0:0:0:
192,192,65590,1,8,0:0:0:0:
320,192,65590,128,0,65766:0:0:0:70:HatOpen.wav
448,192,65590,1,0,0:0:0:0:
192,192,65766,128,0,65943:0:0:0:0:
64,192,65943,1,2,0:0:0:0:
448,192,65943,1,0,0:0:0:70:HatOpen.wav
320,192,66119,1,2,0:0:0:0:
448,192,66119,128,0,66472:0:0:0:0:
64,192,66295,1,8,0:0:0:0:
192,192,66295,1,0,0:0:0:70:HatOpen.wav
320,192,66295,1,0,0:0:0:0:
64,192,66472,1,2,0:0:0:0:
192,192,66472,128,0,66825:0:0:0:0:
320,192,66648,1,2,0:0:0:0:
448,192,66648,1,0,0:0:0:70:HatOpen.wav
320,192,66825,128,0,67001:0:0:0:0:
64,192,67001,1,8,0:0:0:0:
192,192,67001,1,0,0:0:0:70:HatOpen.wav
448,192,67001,1,0,0:0:0:0:
64,192,67178,1,2,0:0:0:0:
192,192,67178,1,0,0:0:0:0:
64,192,67354,1,8,0:0:0:0:
192,192,67354,1,0,0:0:0:70:HatOpen.wav
320,192,67354,1,0,0:0:0:0:
448,192,67354,1,0,0:0:0:0:
320,192,67531,1,2,0:0:0:0:
448,192,67531,1,0,0:0:0:0:
64,192,67707,1,8,0:0:0:0:
192,192,67707,1,0,0:0:0:70:HatOpen.wav
320,192,67707,1,0,0:0:0:0:
448,192,67707,1,0,0:0:0:0:
192,192,67884,1,2,0:0:0:0:
320,192,67884,1,0,0:0:0:0:
64,192,68060,1,2,0:0:0:0:
192,192,68060,1,4,0:0:0:0:
320,192,68060,128,0,68325:0:0:0:0:
448,192,68060,1,0,0:0:0:0:
64,192,68237,1,0,0:0:0:0:
192,192,68325,128,0,68501:0:0:0:0:
64,192,68413,1,8,0:0:0:0:
448,192,68413,1,0,0:0:0:70:HatOpen.wav
448,192,68590,128,0,68766:0:0:0:0:
64,192,68766,128,2,69119:0:0:0:0:
192,192,68766,1,0,0:0:0:70:HatOpen.wav
320,192,68943,1,2,0:0:0:0:
448,192,68943,1,0,0:0:0:0:
192,192,69119,1,8,0:0:0:0:
320,192,69119,1,0,0:0:0:70:HatOpen.wav
448,192,69119,1,0,0:0:0:0:
64,192,69295,1,2,0:0:0:0:
192,192,69295,1,0,0:0:0:0:
320,192,69472,1,2,0:0:0:0:
448,192,69472,128,0,69737:0:0:0:70:HatOpen.wav
192,192,69648,1,0,0:0:0:0:
64,192,69737,128,0,69913:0:0:0:0:
192,192,69825,1,8,0:0:0:0:
320,192,69825,1,0,0:0:0:70:HatOpen.wav
320,192,70001,128,0,70178:0:0:0:0:
448,192,70090,1,8,0:0:0:0:
64,192,70178,1,2,0:0:0:0:
192,192,70178,128,0,70531:0:0:0:70:HatOpen.wav
320,192,70354,1,2,0:0:0:0:
448,192,70354,1,0,0:0:0:0:
64,192,70531,1,8,0:0:0:0:
320,192,70531,1,0,0:0:0:70:HatOpen.wav
448,192,70531,1,0,0:0:0:0:
64,192,70707,1,2,0:0:0:0:
192,192,70707,1,0,0:0:0:0:
64,192,70884,1,2,0:0:0:0:
320,192,70884,1,4,0:0:0:0:
448,192,70884,1,0,0:0:0:0:
192,192,71060,1,0,0:0:0:60:Tom 2.wav
320,192,71119,1,0,0:0:0:70:Tom 2.wav
448,192,71178,1,0,0:0:0:70:Tom 3.wav
64,192,71237,1,2,0:0:0:0:
192,192,71237,1,0,0:0:0:60:Tom 3.wav
64,192,71413,1,8,0:0:0:0:
192,192,71413,1,4,0:0:0:0:
448,192,71413,1,0,0:0:0:0:
320,192,71590,1,0,0:0:0:60:Tom 2.wav
192,192,71648,1,0,0:0:0:70:Tom 2.wav
64,192,71707,1,0,0:0:0:0:
320,192,71766,1,2,0:0:0:0:
448,192,71766,1,0,0:0:0:60:Tom 3.wav
64,192,71943,1,8,0:0:0:0:
320,192,71943,1,0,0:0:0:0:
448,192,71943,1,0,0:0:0:0:
64,192,72119,1,2,0:0:0:0:
192,192,72119,1,4,0:0:0:0:
448,192,72119,128,0,72472:0:0:0:0:
64,192,72472,1,2,0:0:0:0:
192,192,72472,1,0,0:0:0:0:
64,192,72648,1,8,0:0:0:0:
192,192,72648,1,4,0:0:0:0:
320,192,72648,1,0,0:0:0:0:
448,192,72648,1,0,0:0:0:0:
320,192,72825,1,0,0:0:0:0:
448,192,72825,1,0,0:0:0:0:
64,192,73001,1,8,0:0:0:0:
192,192,73001,1,0,0:0:0:0:
320,192,73090,1,8,0:0:0:0:
192,192,73178,1,2,0:0:0:0:
448,192,73178,1,0,0:0:0:70:HatOpen.wav
320,192,73354,1,8,0:0:0:0:
448,192,73354,1,0,0:0:0:0:
192,192,73443,1,8,0:0:0:0:
64,192,73531,1,2,0:0:0:0:
320,192,73531,1,0,0:0:0:0:
64,192,73707,1,2,0:0:0:0:
192,192,73707,1,4,0:0:0:0:
320,192,73707,1,0,0:0:0:0:
448,192,73707,1,0,0:0:0:0:
64,192,73884,1,2,0:0:0:0:
192,192,73884,1,0,0:0:0:0:
192,192,74060,1,8,0:0:0:0:
320,192,74060,1,0,0:0:0:50:finish2.wav
448,192,74060,1,0,0:0:0:0:
320,192,74237,1,2,0:0:0:0:
448,192,74237,1,0,0:0:0:0:
64,192,74413,1,8,0:0:0:0:
192,192,74413,1,0,0:0:0:50:finish2.wav
448,192,74413,1,0,0:0:0:0:
192,192,74590,1,2,0:0:0:0:
320,192,74590,1,0,0:0:0:0:
64,192,74766,1,8,0:0:0:0:
320,192,74766,1,0,0:0:0:50:finish2.wav
448,192,74766,1,0,0:0:0:0:
64,192,74943,1,2,0:0:0:0:
192,192,74943,1,0,0:0:0:0:
64,192,75119,1,8,0:0:0:0:
192,192,75119,1,4,0:0:0:0:
320,192,75119,1,0,0:0:0:0:
448,192,75119,1,0,0:0:0:0:
320,192,75295,1,2,0:0:0:0:
448,192,75295,1,0,0:0:0:0:
64,192,75472,1,8,0:0:0:0:
192,192,75472,1,0,0:0:0:50:finish2.wav
320,192,75472,1,0,0:0:0:0:
64,192,75648,1,2,0:0:0:0:
192,192,75648,1,0,0:0:0:0:
192,192,75825,1,8,0:0:0:0:
320,192,75825,1,0,0:0:0:50:finish2.wav
448,192,75825,1,0,0:0:0:0:
64,192,76001,1,2,0:0:0:0:
320,192,76001,1,0,0:0:0:0:
64,192,76178,1,8,0:0:0:0:
192,192,76178,1,0,0:0:0:50:finish2.wav
320,192,76178,1,0,0:0:0:0:
192,192,76354,1,2,0:0:0:0:
448,192,76354,1,0,0:0:0:0:
64,192,76531,1,8,0:0:0:0:
192,192,76531,1,4,0:0:0:0:
320,192,76531,1,0,0:0:0:0:
448,192,76531,1,0,0:0:0:0:
64,192,76707,1,2,0:0:0:0:
320,192,76707,1,0,0:0:0:0:
192,192,76884,1,2,0:0:0:0:
448,192,76884,1,0,0:0:0:0:
64,192,77060,1,8,0:0:0:0:
192,192,77060,1,4,0:0:0:0:
320,192,77060,1,0,0:0:0:0:
448,192,77060,1,0,0:0:0:0:
64,192,77237,1,2,0:0:0:0:
448,192,77237,1,0,0:0:0:0:
192,192,77413,1,2,0:0:0:0:
320,192,77413,1,0,0:0:0:0:
64,192,77590,1,8,0:0:0:0:
192,192,77590,1,0,0:0:0:0:
320,192,77590,1,0,0:0:0:0:
448,192,77590,1,0,0:0:0:0:
64,192,77766,1,2,0:0:0:0:
448,192,77766,1,0,0:0:0:70:HatOpen.wav
64,192,78119,128,0,79090:0:0:0:0:
192,192,78119,128,0,78295:0:0:0:0:
192,192,78472,128,0,79090:0:0:0:0:
320,192,78472,128,0,78648:0:0:0:0:
320,192,78825,128,0,79090:0:0:0:0:
448,192,78825,128,0,79090:0:0:0:0:
192,192,79178,128,0,79354:0:0:0:0:
64,192,79354,1,2,0:0:0:0:
320,192,79354,1,4,0:0:0:0:
448,192,79354,1,0,0:0:0:0:
192,192,79531,1,0,0:0:0:0:
320,192,79531,1,0,0:0:0:0:
64,192,79707,1,8,0:0:0:0:
192,192,79707,1,0,0:0:0:45:finish2.wav
448,192,79707,1,0,0:0:0:0:
64,192,79884,1,0,0:0:0:0:
320,192,79884,1,0,0:0:0:0:
320,192,80060,1,2,0:0:0:0:
448,192,80060,1,0,0:0:0:40:finish2.wav
64,192,80237,1,0,0:0:0:0:
192,192,80237,1,0,0:0:0:0:
64,192,80413,1,8,0:0:0:0:
320,192,80413,1,0,0:0:0:35:finish2.wav
448,192,80413,1,0,0:0:0:0:
192,192,80590,1,0,0:0:0:0:
448,192,80590,1,0,0:0:0:0:
64,192,80766,1,2,0:0:0:0:
320,192,80766,1,0,0:0:0:40:finish2.wav
192,192,80943,1,0,0:0:0:0:
448,192,80943,1,0,0:0:0:0:
64,192,81119,1,8,0:0:0:0:
320,192,81119,1,0,0:0:0:43:finish2.wav
448,192,81119,1,0,0:0:0:0:
192,192,81295,1,0,0:0:0:0:
320,192,81295,1,0,0:0:0:0:
64,192,81472,1,2,0:0:0:0:
192,192,81472,1,0,0:0:0:40:finish2.wav
320,192,81648,1,0,0:0:0:0:
448,192,81648,1,0,0:0:0:0:
64,192,81825,1,8,0:0:0:0:
192,192,81825,1,0,0:0:0:38:finish2.wav
448,192,81825,1,0,0:0:0:0:
192,192,82001,1,0,0:0:0:0:
320,192,82001,1,0,0:0:0:0:
64,192,82178,1,2,0:0:0:0:
448,192,82178,1,0,0:0:0:25:finish2.wav
192,192,82354,1,0,0:0:0:0:
448,192,82354,1,0,0:0:0:0:
64,192,82531,1,8,0:0:0:0:
192,192,82531,1,0,0:0:0:30:finish2.wav
320,192,82531,1,0,0:0:0:0:
320,192,82707,1,0,0:0:0:0:
448,192,82707,1,0,0:0:0:0:
64,192,82884,1,2,0:0:0:0:
192,192,82884,1,0,0:0:0:28:finish2.wav
192,192,83060,1,0,0:0:0:0:
320,192,83060,1,0,0:0:0:0:
64,192,83237,1,8,0:0:0:0:
320,192,83237,1,0,0:0:0:25:finish2.wav
448,192,83237,1,0,0:0:0:0:
64,192,83413,1,0,0:0:0:0:
192,192,83413,1,0,0:0:0:0:
320,192,83590,1,2,0:0:0:0:
448,192,83590,1,0,0:0:0:30:finish2.wav
192,192,83766,1,0,0:0:0:0:
320,192,83766,1,0,0:0:0:0:
64,192,83943,1,8,0:0:0:0:
192,192,83943,1,0,0:0:0:28:finish2.wav
448,192,83943,1,0,0:0:0:0:
320,192,84119,1,0,0:0:0:0:
448,192,84119,1,0,0:0:0:0:
64,192,84295,1,2,0:0:0:0:
192,192,84295,1,0,0:0:0:25:finish2.wav
192,192,84472,1,2,0:0:0:0:
320,192,84472,1,0,0:0:0:0:
64,192,84648,1,8,0:0:0:0:
192,192,84648,1,0,0:0:0:0:
448,192,84648,1,0,0:0:0:0:
320,192,84825,1,2,0:0:0:0:
448,192,84825,1,0,0:0:0:0:
64,192,85001,1,2,0:0:0:0:
192,192,85001,1,4,0:0:0:0:
320,192,85001,1,0,0:0:0:0:
448,192,85001,1,0,0:0:0:0:
64,192,85178,1,0,0:0:0:0:
192,192,85178,1,0,0:0:0:0:
64,192,85354,1,2,0:0:0:0:
192,192,85354,1,4,0:0:0:0:
320,192,85354,1,0,0:0:0:0:
448,192,85354,1,0,0:0:0:0:
320,192,85531,1,0,0:0:0:0:
448,192,85531,1,0,0:0:0:0:
64,192,85707,1,2,0:0:0:0:
192,192,85707,1,4,0:0:0:0:
320,192,85707,1,0,0:0:0:0:
448,192,85707,1,0,0:0:0:0:
64,192,85884,1,0,0:0:0:0:
192,192,85884,1,0,0:0:0:0:
64,192,86060,1,2,0:0:0:0:
192,192,86060,1,4,0:0:0:0:
320,192,86060,1,0,0:0:0:0:
448,192,86060,1,0,0:0:0:0:
320,192,86237,1,0,0:0:0:0:
448,192,86237,1,0,0:0:0:0:
64,192,86413,1,2,0:0:0:0:
192,192,86413,1,4,0:0:0:0:
320,192,86413,1,0,0:0:0:0:
448,192,86413,1,0,0:0:0:0:
64,192,86590,1,0,0:0:0:0:
320,192,86590,1,0,0:0:0:0:
64,192,86766,1,2,0:0:0:0:
192,192,86766,1,4,0:0:0:0:
320,192,86766,1,0,0:0:0:0:
448,192,86766,1,0,0:0:0:0:
192,192,86943,1,0,0:0:0:0:
448,192,86943,1,0,0:0:0:0:
64,192,87119,1,2,0:0:0:0:
192,192,87119,1,4,0:0:0:0:
320,192,87119,1,0,0:0:0:0:
448,192,87119,1,0,0:0:0:0:
64,192,87295,1,0,0:0:0:0:
192,192,87295,1,0,0:0:0:0:
64,192,87472,1,2,0:0:0:0:
192,192,87472,1,4,0:0:0:0:
320,192,87472,1,0,0:0:0:0:
448,192,87472,1,0,0:0:0:0:
320,192,87648,1,0,0:0:0:0:
448,192,87648,1,0,0:0:0:0:
64,192,87825,1,0,0:0:0:50:Tom 1.wav
192,192,87825,1,0,0:0:0:0:
320,192,87913,1,0,0:0:0:60:Tom 1.wav
448,192,87913,1,0,0:0:0:0:
64,192,88001,1,0,0:0:0:60:Tom 2.wav
192,192,88001,1,0,0:0:0:0:
320,192,88090,1,0,0:0:0:60:Tom 3.wav
64,192,88178,1,2,0:0:0:0:
448,192,88178,1,0,0:0:0:0:
192,192,88266,1,2,0:0:0:0:
320,192,88354,1,8,0:0:0:0:
448,192,88354,1,0,0:0:0:0:
64,192,88443,1,0,0:0:0:60:Tom 1.wav
192,192,88443,1,0,0:0:0:0:
320,192,88531,1,0,0:0:0:60:Tom 2.wav
448,192,88531,1,0,0:0:0:0:
192,192,88619,1,0,0:0:0:60:Tom 3.wav
64,192,88707,1,2,0:0:0:0:
448,192,88707,1,0,0:0:0:0:
320,192,88795,1,2,0:0:0:0:
64,192,88884,1,8,0:0:0:0:
192,192,88884,1,0,0:0:0:60:finish2.wav
448,192,88884,1,0,0:0:0:0:
64,192,89060,1,8,0:0:0:0:
192,192,89060,1,0,0:0:0:60:finish2.wav
320,192,89060,1,0,0:0:0:0:
448,192,89060,1,0,0:0:0:0:
