osu file format v14

[General]
AudioFilename: audio.mp3
AudioLeadIn: 0
PreviewTime: 51031
Countdown: 0
SampleSet: Soft
StackLeniency: 0.7
Mode: 3
LetterboxInBreaks: 0
SpecialStyle: 0
WidescreenStoryboard: 1

[Editor]
DistanceSpacing: 1.3
BeatDivisor: 4
GridSize: 32
TimelineZoom: 1.7

[Metadata]
Title:Kizuna no Kiseki (TV Size)
TitleUnicode:絆ノ奇跡 (TV Size)
Artist:MAN WITH A MISSION x milet
ArtistUnicode:MAN WITH A MISSION × milet
Creator:Kibitz
Version:Easy Bond
Source:「鬼滅の刃」刀鍛冶の里編
Tags:Kimetsu no Yaiba -Swordsmith Village Arc- swordsmith arc demon slayer kamado tanjiro nezuko mitsuri kanroji muichiro tokito katanakaji no sato-hen sato hen rock j-rock jrock japanese anime japan op opening 1 one トーキョー・タナカ Tokyo Tanaka ジャンケン・ジョニー Jean-Ken Johnny jean ken Kamikaze Boy カミカゼ・ボーイ DJ Santa Monica ディージェイ・サンタ・モニカ Spear Rib スペア・リブ 5 wolves wolf マン・ウィズ・ア・ミッション MWAM ミレイ Mirei male female vocal vocals vocalist ver. version short yhsh denyi
BeatmapID:4121558
BeatmapSetID:1984411

[Difficulty]
HPDrainRate:6.5
CircleSize:4
OverallDifficulty:6.5
ApproachRate:5
SliderMultiplier:1.4
SliderTickRate:1

[Events]
//Background and Video events
Video,-350,"kizuna_no_kiseki.mp4"
0,0,"Kimetsu.jpg",0,0
//Break Periods
//Storyboard Layer 0 (Background)
//Storyboard Layer 1 (Fail)
//Storyboard Layer 2 (Pass)
//Storyboard Layer 3 (Foreground)
//Storyboard Layer 4 (Overlay)
//Storyboard Sound Samples
Sample,6295,0,"finish2.wav",45
Sample,6648,0,"finish2.wav",40
Sample,7001,0,"finish2.wav",35
Sample,7354,0,"finish2.wav",40
Sample,7707,0,"finish2.wav",43
Sample,8060,0,"finish2.wav",40
Sample,8413,0,"finish2.wav",38
Sample,8766,0,"finish2.wav",25
Sample,9119,0,"finish2.wav",30
Sample,9472,0,"finish2.wav",28
Sample,9825,0,"finish2.wav",25
Sample,10178,0,"finish2.wav",30
Sample,10531,0,"finish2.wav",28
Sample,10884,0,"finish2.wav",25
Sample,11943,0,"finish2.wav",45
Sample,12295,0,"finish2.wav",40
Sample,12648,0,"finish2.wav",40
Sample,13001,0,"finish2.wav",45
Sample,13354,0,"finish2.wav",40
Sample,13707,0,"finish2.wav",35
Sample,14060,0,"finish2.wav",30
Sample,14413,0,"finish2.wav",35
Sample,14766,0,"finish2.wav",40
Sample,46178,0,"LR_Clap Long.wav",40
Sample,47590,0,"LR_Clap Long.wav",40
Sample,51472,0,"HatOpen.wav",70
Sample,51825,0,"HatOpen.wav",70
Sample,52178,0,"HatOpen.wav",70
Sample,52531,0,"HatOpen.wav",70
Sample,52884,0,"HatOpen.wav",70
Sample,53237,0,"HatOpen.wav",70
Sample,53590,0,"HatOpen.wav",70
Sample,53943,0,"HatOpen.wav",70
Sample,54295,0,"HatOpen.wav",70
Sample,54648,0,"HatOpen.wav",70
Sample,55001,0,"HatOpen.wav",70
Sample,55354,0,"HatOpen.wav",70
Sample,55707,0,"HatOpen.wav",70
Sample,56060,0,"HatOpen.wav",70
Sample,56413,0,"HatOpen.wav",70
Sample,57119,0,"HatOpen.wav",70
Sample,57472,0,"HatOpen.wav",70
Sample,57825,0,"HatOpen.wav",70
Sample,58178,0,"HatOpen.wav",70
Sample,58531,0,"HatOpen.wav",70
Sample,58884,0,"HatOpen.wav",70
Sample,59237,0,"HatOpen.wav",70
Sample,59590,0,"HatOpen.wav",70
Sample,59943,0,"HatOpen.wav",70
Sample,60295,0,"HatOpen.wav",70
Sample,60648,0,"HatOpen.wav",70
Sample,61001,0,"HatOpen.wav",70
Sample,61354,0,"HatOpen.wav",70
Sample,61707,0,"HatOpen.wav",70
Sample,62766,0,"HatOpen.wav",70
Sample,63119,0,"HatOpen.wav",70
Sample,63472,0,"HatOpen.wav",70
Sample,63825,0,"HatOpen.wav",70
Sample,64178,0,"HatOpen.wav",70
Sample,64531,0,"HatOpen.wav",70
Sample,64884,0,"HatOpen.wav",70
Sample,65237,0,"HatOpen.wav",70
Sample,65590,0,"HatOpen.wav",70
Sample,65943,0,"HatOpen.wav",70
Sample,66295,0,"HatOpen.wav",70
Sample,66648,0,"HatOpen.wav",70
Sample,67001,0,"HatOpen.wav",70
Sample,67354,0,"HatOpen.wav",70
Sample,67707,0,"HatOpen.wav",70
Sample,68413,0,"HatOpen.wav",70
Sample,68766,0,"HatOpen.wav",70
Sample,69119,0,"HatOpen.wav",70
Sample,69472,0,"HatOpen.wav",70
Sample,69825,0,"HatOpen.wav",70
Sample,70178,0,"HatOpen.wav",70
Sample,70531,0,"HatOpen.wav",70
Sample,71766,0,"Tom 3.wav",60
Sample,77766,0,"HatOpen.wav",70
Sample,79707,0,"finish2.wav",45
Sample,80060,0,"finish2.wav",40
Sample,80413,0,"finish2.wav",35
Sample,80766,0,"finish2.wav",40
Sample,81119,0,"finish2.wav",43
Sample,81472,0,"finish2.wav",40
Sample,81825,0,"finish2.wav",38
Sample,82178,0,"finish2.wav",25
Sample,82531,0,"finish2.wav",30
Sample,82884,0,"finish2.wav",28
Sample,83237,0,"finish2.wav",25
Sample,83590,0,"finish2.wav",30
Sample,83943,0,"finish2.wav",28
Sample,84295,0,"finish2.wav",25
Sample,88884,0,"finish2.wav",60
Sample,89060,0,"finish2.wav",60

[TimingPoints]
296,352.941176470588,4,2,1,50,1,0
51119,-100,4,2,1,50,0,1
77766,-100,4,2,1,50,0,0

[HitObjects]
320,192,296,5,0,0:0:0:0:
448,192,296,1,0,0:0:0:0:
192,192,1001,1,0,0:0:0:0:
64,192,1531,1,0,0:0:0:0:
192,192,1531,1,0,0:0:0:0:
320,192,1884,1,0,0:0:0:0:
64,192,2060,1,0,0:0:0:0:
448,192,2060,1,0,0:0:0:0:
192,192,2413,1,0,0:0:0:0:
192,192,2943,1,0,0:0:0:0:
320,192,3119,1,0,0:0:0:0:
448,192,3119,1,0,0:0:0:0:
64,192,3472,1,0,0:0:0:0:
448,192,3825,1,0,0:0:0:0:
192,192,4001,1,0,0:0:0:0:
320,192,4354,1,0,0:0:0:0:
448,192,4354,1,0,0:0:0:0:
64,192,4531,128,0,5590:0:0:0:0:
448,192,5590,128,0,5943:0:0:0:0:
64,192,5943,1,2,0:0:0:0:
192,192,5943,1,4,0:0:0:0:
320,192,6295,1,8,0:0:0:0:
64,192,6648,1,2,0:0:0:0:
448,192,7001,1,8,0:0:0:0:
192,192,7354,1,2,0:0:0:0:
320,192,7707,1,8,0:0:0:0:
448,192,8060,1,2,0:0:0:0:
64,192,8413,1,8,0:0:0:0:
320,192,8766,1,2,0:0:0:0:
192,192,9119,1,8,0:0:0:0:
448,192,9472,1,2,0:0:0:0:
64,192,9825,1,8,0:0:0:0:
320,192,10178,1,2,0:0:0:0:
192,192,10531,1,8,0:0:0:0:
64,192,10884,1,2,0:0:0:0:
192,192,11060,1,2,0:0:0:0:
448,192,11237,1,8,0:0:0:0:
320,192,11413,1,2,0:0:0:0:
64,192,11590,1,2,0:0:0:0:
192,192,11590,1,4,0:0:0:0:
320,192,11943,1,8,0:0:0:0:
64,192,12295,1,2,0:0:0:0:
448,192,12648,1,8,0:0:0:0:
192,192,13001,1,2,0:0:0:0:
320,192,13354,1,8,0:0:0:0:
64,192,13707,1,2,0:0:0:0:
192,192,14060,1,8,0:0:0:0:
448,192,14413,1,2,0:0:0:0:
64,192,14766,1,8,0:0:0:0:
320,192,15119,1,8,0:0:0:0:
448,192,15119,1,0,0:0:0:50:finish2.wav
64,192,15648,1,4,0:0:0:0:
192,192,15648,1,8,0:0:0:0:
320,192,16178,1,8,0:0:0:0:
448,192,16178,1,0,0:0:0:50:finish2.wav
64,192,16531,1,8,0:0:0:0:
192,192,16707,1,8,0:0:0:0:
448,192,16884,1,8,0:0:0:0:
320,192,17060,1,8,0:0:0:0:
192,192,17237,1,2,0:0:0:0:
448,192,17590,1,0,0:0:0:0:
64,192,17766,128,0,18295:0:0:0:0:
192,192,18295,1,0,0:0:0:0:
448,192,18472,1,0,0:0:0:0:
320,192,18825,1,0,0:0:0:40:kick2.wav
64,192,19178,1,0,0:0:0:0:
192,192,19531,1,0,0:0:0:0:
320,192,19884,1,0,0:0:0:0:
448,192,20237,1,0,0:0:0:0:
64,192,20943,1,0,0:0:0:40:kick2.wav
192,192,21119,1,0,0:0:0:0:
320,192,21295,1,0,0:0:0:0:
448,192,21472,128,0,21825:0:0:0:0:
64,192,21825,128,0,22178:0:0:0:0:
448,192,22178,128,0,22531:0:0:0:0:
192,192,22707,1,0,0:0:0:0:
320,192,22884,128,0,23237:0:0:0:40:kick2.wav
64,192,23237,1,0,0:0:0:0:
448,192,23413,128,0,23943:0:0:0:0:
192,192,23943,1,0,0:0:0:0:
320,192,24119,128,0,24648:0:0:0:0:
64,192,24648,1,0,0:0:0:0:
192,192,24825,128,0,25178:0:0:0:0:
320,192,25531,1,0,0:0:0:0:
448,192,25707,128,0,26060:0:0:0:40:kick2.wav
64,192,26060,1,0,0:0:0:0:
192,192,26237,128,0,26766:0:0:0:0:
320,192,26766,1,0,0:0:0:0:
448,192,26943,128,0,27295:0:0:0:0:
320,192,27295,128,0,27648:0:0:0:40:kick2.wav
64,192,27648,128,0,28001:0:0:0:0:
192,192,28001,1,0,0:0:0:0:
448,192,28178,128,0,28531:0:0:0:0:
64,192,28531,1,2,0:0:0:0:
320,192,28531,1,4,0:0:0:0:
192,192,28707,1,2,0:0:0:0:
320,192,28884,1,8,0:0:0:0:
448,192,29060,1,2,0:0:0:0:
64,192,29413,1,2,0:0:0:0:
320,192,29590,1,8,0:0:0:0:
192,192,30119,1,2,0:0:0:0:
320,192,30295,1,8,0:0:0:0:
64,192,30648,1,2,0:0:0:0:
448,192,30825,1,2,0:0:0:0:
192,192,31001,1,8,0:0:0:0:
64,192,31354,1,2,0:0:0:0:
192,192,31531,1,2,0:0:0:0:
448,192,31707,1,8,0:0:0:0:
320,192,31884,1,2,0:0:0:0:
64,192,32237,1,2,0:0:0:0:
448,192,32413,1,8,0:0:0:0:
448,192,32943,1,2,0:0:0:0:
64,192,33119,1,8,0:0:0:0:
320,192,33472,1,2,0:0:0:0:
64,192,33648,1,2,0:0:0:0:
448,192,33825,1,8,0:0:0:0:
64,192,34178,1,2,0:0:0:0:
320,192,34178,1,4,0:0:0:0:
192,192,34354,1,2,0:0:0:0:
320,192,34531,1,8,0:0:0:0:
448,192,34707,1,2,0:0:0:0:
320,192,35060,1,2,0:0:0:0:
64,192,35237,1,8,0:0:0:0:
192,192,35766,1,2,0:0:0:0:
320,192,35943,1,8,0:0:0:0:
64,192,36295,1,2,0:0:0:0:
448,192,36472,1,2,0:0:0:0:
320,192,36648,1,8,0:0:0:0:
64,192,37001,1,8,0:0:0:0:
192,192,37001,1,4,0:0:0:0:
320,192,37531,1,8,0:0:0:0:
448,192,37531,1,4,0:0:0:0:
64,192,38060,1,8,0:0:0:0:
192,192,38060,1,4,0:0:0:0:
192,192,38590,1,8,0:0:0:0:
320,192,38590,1,4,0:0:0:0:
64,192,39119,1,8,0:0:0:0:
192,192,39295,1,8,0:0:0:0:
448,192,39472,1,8,0:0:0:0:
320,192,39648,1,8,0:0:0:0:
64,192,39825,128,2,40531:0:0:0:0:
448,192,40531,1,0,0:0:0:40:LR_Clap Long.wav
192,192,41237,128,0,41943:0:0:0:0:
320,192,41943,1,0,0:0:0:0:
448,192,42648,128,0,43354:0:0:0:0:
64,192,43354,1,0,0:0:0:40:LR_Clap Long.wav
320,192,44060,128,0,44766:0:0:0:0:
192,192,44766,1,0,0:0:0:0:
64,192,45472,1,0,0:0:0:50:kick2.wav
64,192,45825,1,0,0:0:0:50:kick2.wav
448,192,46178,1,0,0:0:0:50:kick2.wav
448,192,46531,1,0,0:0:0:50:kick2.wav
192,192,46884,1,0,0:0:0:50:kick2.wav
192,192,47237,1,0,0:0:0:50:kick2.wav
320,192,47590,1,0,0:0:0:50:kick2.wav
320,192,47943,1,0,0:0:0:50:kick2.wav
64,192,48295,128,0,49001:0:0:0:55:kick2.wav
448,192,49001,128,0,49707:0:0:0:45:kick2.wav
192,192,49707,128,0,50413:0:0:0:0:
320,192,50413,128,0,51119:0:0:0:0:
64,192,51119,128,4,51472:0:0:0:0:
192,192,51119,1,2,0:0:0:0:
448,192,51472,1,8,0:0:0:0:
192,192,51825,1,2,0:0:0:0:
64,192,52178,1,8,0:0:0:0:
320,192,52531,128,2,52884:0:0:0:0:
192,192,52884,1,8,0:0:0:0:
448,192,53237,1,2,0:0:0:0:
320,192,53590,1,8,0:0:0:0:
64,192,53943,128,2,54295:0:0:0:0:
448,192,54295,1,8,0:0:0:0:
320,192,54648,1,2,0:0:0:0:
192,192,55001,1,8,0:0:0:0:
320,192,55354,128,2,55707:0:0:0:0:
64,192,55707,1,8,0:0:0:0:
448,192,56060,1,2,0:0:0:0:
64,192,56237,1,2,0:0:0:0:
320,192,56413,1,8,0:0:0:0:
192,192,56590,1,2,0:0:0:0:
64,192,56766,128,2,57119:0:0:0:0:
448,192,56766,1,4,0:0:0:0:
448,192,57119,1,8,0:0:0:0:
192,192,57472,1,2,0:0:0:0:
64,192,57825,1,8,0:0:0:0:
320,192,58178,128,2,58531:0:0:0:0:
192,192,58531,1,8,0:0:0:0:
448,192,58884,1,2,0:0:0:0:
320,192,59237,1,8,0:0:0:0:
64,192,59590,128,2,59943:0:0:0:0:
448,192,59943,1,8,0:0:0:0:
192,192,60295,1,2,0:0:0:0:
64,192,60648,1,8,0:0:0:0:
320,192,61001,128,2,61354:0:0:0:0:
192,192,61354,1,8,0:0:0:0:
64,192,61707,1,2,0:0:0:0:
448,192,61884,1,8,0:0:0:0:
192,192,62060,1,8,0:0:0:0:
320,192,62237,1,8,0:0:0:0:
64,192,62413,128,2,62766:0:0:0:0:
448,192,62413,1,4,0:0:0:0:
320,192,62766,128,8,63119:0:0:0:0:
192,192,63119,128,2,63472:0:0:0:0:
448,192,63472,1,8,0:0:0:0:
320,192,63825,128,2,64178:0:0:0:0:
64,192,64178,128,8,64531:0:0:0:0:
448,192,64531,128,2,64884:0:0:0:0:
192,192,64884,1,8,0:0:0:0:
320,192,65237,128,2,65590:0:0:0:0:
448,192,65590,128,8,65943:0:0:0:0:
192,192,65943,128,2,66295:0:0:0:0:
320,192,66295,128,8,66648:0:0:0:0:
64,192,66648,128,2,67001:0:0:0:0:
448,192,67001,1,8,0:0:0:0:
448,192,67354,1,8,0:0:0:0:
64,192,67707,1,8,0:0:0:0:
448,192,68060,1,2,0:0:0:0:
320,192,68060,128,4,68413:0:0:0:0:
192,192,68413,128,8,68766:0:0:0:0:
64,192,68766,128,2,69119:0:0:0:0:
448,192,69119,1,8,0:0:0:0:
192,192,69472,128,2,69825:0:0:0:0:
320,192,69825,128,8,70178:0:0:0:0:
448,192,70178,128,2,70531:0:0:0:0:
64,192,70531,1,8,0:0:0:0:
320,192,70884,1,2,0:0:0:0:
448,192,70884,1,4,0:0:0:0:
192,192,71413,1,8,0:0:0:0:
320,192,71413,1,4,0:0:0:0:
448,192,71766,128,2,72119:0:0:0:0:
64,192,72119,1,2,0:0:0:0:
192,192,72119,1,4,0:0:0:0:
192,192,72648,1,8,0:0:0:0:
320,192,72648,1,4,0:0:0:0:
64,192,73001,128,8,73354:0:0:0:0:
448,192,73354,128,8,73707:0:0:0:0:
64,192,73707,1,2,0:0:0:0:
192,192,73707,1,4,0:0:0:0:
320,192,74060,1,8,0:0:0:0:
448,192,74060,1,0,0:0:0:50:finish2.wav
320,192,74413,1,8,0:0:0:0:
448,192,74413,1,0,0:0:0:50:finish2.wav
64,192,74766,1,8,0:0:0:0:
192,192,74766,1,0,0:0:0:50:finish2.wav
320,192,75119,1,8,0:0:0:0:
448,192,75119,1,4,0:0:0:0:
64,192,75472,1,8,0:0:0:0:
192,192,75472,1,0,0:0:0:50:finish2.wav
64,192,75825,1,8,0:0:0:0:
192,192,75825,1,0,0:0:0:50:finish2.wav
320,192,76178,1,8,0:0:0:0:
448,192,76178,1,0,0:0:0:50:finish2.wav
64,192,76531,1,8,0:0:0:0:
448,192,76531,1,4,0:0:0:0:
192,192,77060,1,8,0:0:0:0:
320,192,77060,1,4,0:0:0:0:
64,192,77590,1,8,0:0:0:0:
448,192,77590,1,0,0:0:0:0:
192,192,77766,1,2,0:0:0:0:
448,192,78119,128,0,78472:0:0:0:0:
320,192,78472,128,0,78825:0:0:0:0:
192,192,78825,128,0,79178:0:0:0:0:
64,192,79178,1,0,0:0:0:0:
320,192,79354,1,2,0:0:0:0:
448,192,79354,1,4,0:0:0:0:
192,192,79707,1,8,0:0:0:0:
448,192,80060,1,2,0:0:0:0:
64,192,80413,1,8,0:0:0:0:
320,192,80766,1,2,0:0:0:0:
192,192,81119,1,8,0:0:0:0:
64,192,81472,1,2,0:0:0:0:
448,192,81825,1,8,0:0:0:0:
192,192,82178,1,2,0:0:0:0:
320,192,82531,1,8,0:0:0:0:
64,192,82884,1,2,0:0:0:0:
448,192,83237,1,8,0:0:0:0:
192,192,83590,1,2,0:0:0:0:
320,192,83943,1,8,0:0:0:0:
448,192,84295,1,2,0:0:0:0:
64,192,84648,1,8,0:0:0:0:
320,192,85001,1,2,0:0:0:0:
448,192,85001,1,4,0:0:0:0:
320,192,85354,1,2,0:0:0:0:
448,192,85354,1,4,0:0:0:0:
64,192,85707,1,2,0:0:0:0:
192,192,85707,1,4,0:0:0:0:
64,192,86060,1,2,0:0:0:0:
192,192,86060,1,4,0:0:0:0:
320,192,86413,1,2,0:0:0:0:
448,192,86413,1,4,0:0:0:0:
320,192,86766,1,2,0:0:0:0:
448,192,86766,1,4,0:0:0:0:
64,192,87119,1,2,0:0:0:0:
192,192,87119,1,4,0:0:0:0:
64,192,87472,1,2,0:0:0:0:
192,192,87472,1,4,0:0:0:0:
320,192,87825,1,0,0:0:0:50:Tom 1.wav
448,192,87825,128,0,88354:0:0:0:0:
64,192,88354,1,8,0:0:0:0:
192,192,88354,128,0,88884:0:0:0:0:
448,192,88884,1,8,0:0:0:0:
64,192,89060,1,8,0:0:0:0:
