osu file format v14

[General]
AudioFilename: Database.mp3
AudioLeadIn: 500
PreviewTime: 51849
Countdown: 0
SampleSet: Normal
StackLeniency: 0.6
Mode: 0
LetterboxInBreaks: 0
WidescreenStoryboard: 0

[Editor]
Bookmarks: 1680,3035,13883,24730,35578,51849,70832,73544,81680,85408
DistanceSpacing: 1.2
BeatDivisor: 4
GridSize: 4
TimelineZoom: 2.3

[Metadata]
Title:database feat.TAKUMA(10-FEET)
TitleUnicode:database feat.TAKUMA(10-FEET)
Artist:MAN WITH A MISSION
ArtistUnicode:MAN WITH A MISSION
Creator:Kasuga
Version:Insane
Source:ログ・ホライズン
Tags:raheta_adi Rukaru AnreFM Shiroe Akatsuki TV size Log Horizon
BeatmapID:561749
BeatmapSetID:164898

[Difficulty]
HPDrainRate:7
CircleSize:4
OverallDifficulty:7
ApproachRate:9
SliderMultiplier:1.8
SliderTickRate:1

[Events]
//Background and Video events
0,0,"url.jpg",0,0
Video,-1948,"Log Horizon Opening [HD] - YouTube.avi"
//Break Periods
//Storyboard Layer 0 (Background)
//Storyboard Layer 1 (Fail)
//Storyboard Layer 2 (Pass)
//Storyboard Layer 3 (Foreground)
//Storyboard Sound Samples

[TimingPoints]
1680,338.983050847458,4,1,1,25,1,0
3035,-100,4,1,1,50,0,0
13374,-100,4,1,1,45,0,0
13544,-100,4,1,1,47,0,0
51171,-200,4,1,1,50,0,0
51849,-100,4,1,1,50,0,1
81680,-100,4,1,1,20,0,0
83713,-200,4,1,1,20,0,0
84391,-100,4,1,1,50,0,0
87103,-100,4,1,1,40,0,0
88120,-100,4,1,1,30,0,0
88968,-100,4,1,1,20,0,0
89476,-100,4,1,1,10,0,0
89815,-100,4,2,1,5,0,0

[Colours]
Combo1 : 0,198,198
Combo2 : 0,128,192
Combo3 : 128,128,255
Combo4 : 0,128,128

[HitObjects]
256,192,1680,12,0,2696,2:0:0:0:
136,80,3035,5,4,0:0:0:0:
136,80,3205,1,2,0:0:0:0:
172,180,3374,2,0,P|170:226|164:280,1,90,8|0,0:0|0:0,0:0:0:0:
353,233,3713,2,0,P|308:225|264:227,1,90
440,296,4052,1,8,0:0:0:0:
440,296,4222,6,0,P|442:252|449:195,2,90,0|2|0,0:0|0:0|0:0,0:0:0:0:
348,354,4730,2,0,P|299:347|245:331,1,90,8|0,0:0|0:0,0:0:0:0:
283,156,5069,2,0,P|300:197|312:241,1,90
143,308,5408,2,0,P|171:272|203:241,1,90,8|0,0:0|0:0,0:0:0:0:
283,156,5747,5,2,0:0:0:0:
283,156,5917,1,2,0:0:0:0:
360,230,6086,2,0,P|362:279|362:320,1,90,8|0,0:0|0:0,0:0:0:0:
283,156,6425,2,0,P|280:113|281:66,1,90
206,233,6764,1,8,0:0:0:0:
129,155,6934,6,0,P|132:112|131:65,2,90,0|2|0,0:0|0:0|0:0,0:0:0:0:
78,251,7442,2,0,P|43:222|19:184,1,90,8|0,0:0|0:0,0:0:0:0:
185,242,7781,2,0,P|178:286|156:325,1,90
129,155,8120,2,0,P|170:138|215:137,1,90,8|0,0:0|0:0,0:0:0:0:
362,297,8459,5,2,0:0:0:0:
362,297,8629,1,2,0:0:0:0:
258,325,8798,2,0,P|210:318|170:308,1,90,8|0,0:0|0:0,0:0:0:0:
219,125,9137,2,0,P|224:171|226:215,1,90
314,277,9476,1,8,0:0:0:0:
390,200,9646,6,0,P|386:157|383:110,2,90,0|2|0,0:0|0:0|0:0,0:0:0:0:
442,294,10154,2,0,P|400:307|355:301,1,90,8|0,0:0|0:0,0:0:0:0:
161,290,10493,2,0,P|204:277|249:283,1,90
364,288,10832,2,0,P|409:294|451:281,1,90,8|0,0:0|0:0,0:0:0:0:
477,135,11171,5,2,0:0:0:0:
477,135,11341,1,2,0:0:0:0:
390,200,11510,2,0,L|398:290,1,90,8|0,0:0|0:0,0:0:0:0:
281,202,11849,2,0,L|290:112,1,90
180,120,12188,1,8,0:0:0:0:
133,207,12357,6,0,P|136:256|124:297,2,90,0|2|0,0:0|0:0|0:0,0:0:0:0:
56,43,12866,2,0,P|48:87|56:132,1,90,8|0,0:0|0:0,0:0:0:0:
133,207,13205,1,8,0:0:0:0:
159,202,13290,1,8,0:0:0:0:
185,197,13374,1,2,0:0:0:0:
211,193,13459,1,2,0:0:0:0:
237,189,13544,2,0,L|325:175,1,90,4|0,0:0|0:0,0:0:0:0:
137,143,13883,6,0,P|132:220|158:271,1,135,6|0,0:0|2:0,0:0:0:0:
203,297,14222,2,0,L|291:283,1,90,8|0,0:0|0:0,0:0:0:0:
390,332,14561,2,0,P|395:255|369:204,1,135,2|0,0:0|2:0,0:0:0:0:
325,174,14900,1,8,0:0:0:0:
325,174,15069,1,0,0:0:0:0:
232,231,15239,6,0,P|234:276|240:321,1,90,2|0,0:0|0:0,0:0:0:0:
127,256,15578,2,0,P|125:211|119:166,1,90,8|0,0:0|0:0,0:0:0:0:
88,356,15917,2,0,P|136:362|185:347,1,90
272,304,16256,2,0,P|315:293|359:299,1,90,8|0,0:0|0:0,0:0:0:0:
460,340,16595,5,6,0:0:0:0:
460,340,16764,1,2,0:0:0:0:
440,232,16934,2,0,P|432:188|432:132,1,90,8|0,0:0|0:0,0:0:0:0:
316,50,17273,2,0,L|324:140,1,90
226,288,17612,2,0,P|231:231|244:188,1,90,8|0,0:0|0:0,0:0:0:0:
112,32,17951,6,0,L|103:121,1,90,2|0,0:0|0:0,0:0:0:0:
38,220,18290,2,0,L|127:220,1,90,8|0,0:0|0:0,0:0:0:0:
226,288,18629,2,0,L|234:198,1,90
300,100,18968,2,0,L|210:99,1,90,8|0,0:0|0:0,0:0:0:0:
112,52,19307,5,6,0:0:0:0:
112,52,19476,1,2,0:0:0:0:
8,176,19646,2,0,L|0:265,1,90,8|0,0:0|0:0,0:0:0:0:
64,352,19985,2,0,P|109:349|152:340,1,90
256,312,20324,2,0,P|301:314|344:324,1,90,8|0,0:0|0:0,0:0:0:0:
452,316,20663,6,0,P|493:266|501:197,2,135,2|8|0,0:0|0:0|0:0,0:0:0:0:
264,226,21341,2,0,P|330:211|396:224,2,135,2|8|0,0:0|0:0|0:0,0:0:0:0:
173,283,22018,5,6,0:0:0:0:
173,283,22188,1,2,0:0:0:0:
332,312,22357,2,0,L|323:219,1,90,8|0,0:0|0:0,0:0:0:0:
246,62,22696,2,0,L|240:152,1,90
160,225,23035,2,0,L|24:188,1,135,8|0,0:0|2:0,0:0:0:0:
0,196,23374,5,8,0:0:0:0:
258,271,23544,1,0,0:0:0:0:
258,271,23629,1,0,0:0:0:0:
258,271,23713,2,0,L|259:181,1,90,8|0,0:0|0:0,0:0:0:0:
305,82,24222,5,0,0:0:0:0:
366,171,24392,1,0,0:0:0:0:
416,75,24561,1,0,0:0:0:0:
259,181,24730,6,0,P|196:172|126:185,1,135,4|0,0:0|2:0,0:0:0:0:
75,201,25069,2,0,L|50:107,1,90,0|2,0:0|0:0,0:0:0:0:
148,22,25408,2,0,P|150:44|149:67,1,45,8|0,0:0|0:0,0:0:0:0:
226,187,25578,2,0,P|224:165|226:143,1,45
308,22,25747,2,0,P|307:45|303:67,1,45,2|0,0:0|0:0,0:0:0:0:
343,168,25917,6,0,L|524:180,1,180,8|2,0:0|0:0,0:0:0:0:
419,213,26425,1,0,0:0:0:0:
419,213,26510,1,0,0:0:0:0:
419,213,26595,2,0,L|414:308,1,90,8|0,0:0|0:0,0:0:0:0:
226,247,26934,2,0,P|271:249|315:255,1,90,2|8,0:0|0:0,0:0:0:0:
135,305,27273,1,0,0:0:0:0:
135,305,27357,1,0,0:0:0:0:
135,305,27442,6,0,L|145:154,1,135,4|0,0:0|2:0,0:0:0:0:
181,131,27781,2,0,P|229:126|276:132,1,90,0|2,0:0|0:0,0:0:0:0:
481,224,28120,2,0,P|415:237|348:232,1,135,8|0,0:0|2:0,0:0:0:0:
308,256,28459,2,0,L|207:193,1,90,2|0,0:0|0:0,0:0:0:0:
344,105,28798,5,2,0:0:0:0:
243,295,28968,1,2,0:0:0:0:
374,101,29137,1,2,0:0:0:0:
175,181,29307,2,0,L|-4:166,1,180,8|2,0:0|0:0,0:0:0:0:
45,262,29815,1,8,0:0:0:0:
142,69,29985,1,0,0:0:0:0:
142,69,30069,1,0,0:0:0:0:
142,69,30154,6,0,L|276:79,1,135,4|0,0:0|2:0,0:0:0:0:
214,142,30493,2,0,P|240:106|276:79,1,90,0|2,0:0|0:0,0:0:0:0:
338,168,30832,2,0,P|340:193|337:212,1,45,8|0,0:0|0:0,0:0:0:0:
257,330,31002,2,0,P|259:309|266:285,1,45
176,167,31171,2,0,P|180:189|180:211,1,45,2|0,0:0|0:0,0:0:0:0:
106,291,31341,6,0,P|62:285|17:286,1,90,8|0,0:0|0:0,0:0:0:0:
180,211,31680,2,0,P|224:217|280:215,1,90,2|8,0:0|0:0,0:0:0:0:
95,303,32018,2,0,P|50:296|5:297,1,90,8|2,0:0|0:0,0:0:0:0:
192,199,32357,2,0,P|236:205|292:203,1,90,2|8,0:0|0:0,0:0:0:0:
409,104,32696,1,2,0:0:0:0:
409,104,32781,1,0,0:0:0:0:
409,104,32866,6,0,P|409:177|416:243,1,135,4|0,0:0|2:0,0:0:0:0:
441,286,33205,2,0,L|528:307,1,90,0|2,0:0|0:0,0:0:0:0:
340,327,33544,2,0,P|344:304|338:274,1,45,8|0,0:0|0:0,0:0:0:0:
270,156,33713,2,0,P|265:177|265:201,1,45
168,299,33883,2,0,P|170:277|170:255,1,45,2|0,0:0|0:0,0:0:0:0:
101,170,34052,6,0,P|53:163|-1:162,2,90,2|8|0,0:0|0:0|0:0,0:0:0:0:
180,248,34561,1,8,0:0:0:0:
263,180,34730,1,0,0:0:0:0:
263,180,35069,2,0,L|306:148,5,45
263,180,35578,6,0,L|316:256,1,90,4|0,0:0|0:0,0:0:0:0:
119,241,35917,2,0,L|208:256,1,90,8|0,0:0|0:0,0:0:0:0:
315,254,36256,1,2,0:0:0:0:
315,254,36425,1,2,0:0:0:0:
255,163,36595,1,0,0:0:0:0:
423,257,36764,6,0,P|448:172|404:93,1,180,8|2,0:0|0:0,0:0:0:0:
276,192,37273,2,0,L|178:177,1,90,8|0,0:0|0:0,0:0:0:0:
98,120,37612,1,2,0:0:0:0:
90,227,37781,1,2,0:0:0:0:
81,106,37951,1,8,0:0:0:0:
205,282,38120,1,2,0:0:0:0:
205,282,38205,1,8,0:0:0:0:
205,282,38290,6,0,P|267:271|336:219,1,135,4|0,0:0|2:0,0:0:0:0:
372,203,38629,2,0,P|416:205|462:213,1,90,8|0,0:0|0:0,0:0:0:0:
399,301,38968,1,2,0:0:0:0:
426,86,39137,1,2,0:0:0:0:
399,301,39307,1,0,0:0:0:0:
258,137,39476,6,0,P|175:91|66:121,1,180,8|2,0:0|0:0,0:0:0:0:
68,209,39985,2,0,P|151:255|260:225,1,180,8|2,0:0|0:0,0:0:0:0:
302,153,40493,1,8,0:0:0:0:
348,250,40663,1,2,0:0:0:0:
417,167,40832,1,8,0:0:0:0:
232,242,41002,6,0,P|144:253|68:209,1,180,4|8,0:0|0:0,0:0:0:0:
197,35,41680,2,0,L|176:122,2,90,2|2|0,0:0|0:0|0:0,0:0:0:0:
83,153,42188,6,0,L|282:166,1,180,8|2,0:0|0:0,0:0:0:0:
341,90,42696,2,0,P|308:177|328:270,1,180,8|2,0:0|0:0,0:0:0:0:
430,240,43205,1,2,0:0:0:0:
394,341,43374,1,8,0:0:0:0:
446,234,43544,1,2,0:0:0:0:
240,300,43713,6,0,P|165:303|85:270,1,135,4|0,0:0|2:0,0:0:0:0:
61,257,44052,2,0,L|69:167,1,90,8|0,0:0|0:0,0:0:0:0:
146,91,44391,1,2,0:0:0:0:
248,124,44561,2,0,L|240:214,1,90,2|0,0:0|0:0,0:0:0:0:
318,288,44900,6,0,P|407:305|504:289,1,180,8|2,0:0|0:0,0:0:0:0:
415,49,45408,2,0,L|406:229,1,180,8|2,0:0|0:0,0:0:0:0:
219,339,45917,1,0,0:0:0:0:
210,313,46002,1,0,0:0:0:0:
203,287,46086,1,0,0:0:0:0:
203,259,46171,1,0,0:0:0:0:
209,232,46256,1,0,0:0:0:0:
217,206,46341,1,0,0:0:0:0:
229,182,46425,6,0,P|248:93|223:3,1,180,4|8,0:0|0:0,0:0:0:0:
90,98,46934,1,0,0:0:0:0:
305,77,47103,2,0,P|348:72|396:71,2,90,2|2|8,0:0|0:0|0:0,0:0:0:0:
144,162,47612,6,0,P|187:162|234:159,1,90,0|2,0:0|0:0,0:0:0:0:
245,335,47951,2,0,P|222:295|197:260,1,90,0|8,0:0|0:0,0:0:0:0:
343,155,48290,2,0,P|316:196|302:235,1,90,0|2,0:0|0:0,0:0:0:0:
196,260,48629,2,0,P|152:256|100:236,2,90,8|2|8,0:0|0:0|0:0,0:0:0:0:
372,208,49137,5,4,0:0:0:0:
400,200,49476,1,8,0:0:0:0:
424,192,49815,1,0,0:0:0:0:
452,184,50154,1,8,0:0:0:0:
476,176,50493,5,12,0:0:0:0:
448,172,50578,1,0,0:0:0:0:
420,168,50663,1,0,0:0:0:0:
392,164,50747,1,0,0:0:0:0:
364,160,50832,1,8,0:0:0:0:
336,156,50917,1,0,0:0:0:0:
308,152,51002,1,0,0:0:0:0:
280,148,51086,1,0,0:0:0:0:
252,144,51171,6,0,P|200:204|216:280,1,157.5,8|0,0:0|2:0,0:0:0:0:
240,280,51849,6,0,L|340:252,2,90,4|0|8,0:0|0:0|0:0,0:0:0:0:
144,316,52357,2,2,B|140:252|140:252|156:204|156:204|152:136,1,180,0|0,0:0|0:0,0:0:0:0:
76,60,52866,1,8,0:0:0:0:
76,60,53035,1,0,0:0:0:0:
4,140,53205,5,2,0:0:0:0:
144,220,53374,2,2,P|187:217|240:208,1,90,0|8,0:0|0:0,0:0:0:0:
292,120,53713,1,2,0:0:0:0:
336,220,53883,1,2,0:0:0:0:
276,112,54052,1,8,0:0:0:0:
460,224,54222,1,2,0:0:0:0:
456,116,54391,1,8,0:0:0:0:
368,312,54561,6,0,L|248:296,1,90,4|0,0:0|0:0,0:0:0:0:
172,284,54900,1,8,0:0:0:0:
280,300,55069,2,2,P|312:216|292:124,1,180,0|0,0:0|0:0,0:0:0:0:
216,55,55578,6,0,P|191:118|201:184,1,135,8|0,0:0|2:0,0:0:0:0:
305,260,55917,2,0,P|264:207|201:184,1,135,2|0,0:0|2:0,0:0:0:0:
128,230,56256,2,0,P|171:216|202:184,1,90,8|0,0:0|0:0,0:0:0:0:
112,120,56595,1,2,0:0:0:0:
304,216,56764,1,8,0:0:0:0:
88,108,56934,1,2,0:0:0:0:
304,92,57103,1,8,0:0:0:0:
304,92,57188,1,8,0:0:0:0:
304,92,57273,6,0,P|352:87|400:88,1,90,4|0,0:0|0:0,0:0:0:0:
248,217,57612,2,0,P|292:196|328:176,1,90,8|0,0:0|0:0,0:0:0:0:
392,88,57951,2,2,P|299:90|204:104,1,180,2|8,0:0|0:0,0:0:0:0:
128,168,58459,1,0,0:0:0:0:
127,167,58629,6,0,P|108:128|107:83,1,90,2|0,0:0|0:0,0:0:0:0:
180,4,58968,1,8,0:0:0:0:
235,184,59137,2,2,P|190:258|104:273,1,180,0|0,0:0|0:0,0:0:0:0:
40,188,59646,2,0,P|38:142|40:96,1,90,8|0,0:0|0:0,0:0:0:0:
105,274,59985,6,0,P|107:319|105:364,1,90,4|0,0:0|0:0,0:0:0:0:
188,114,60324,2,0,P|187:161|188:204,1,90,8|0,0:0|0:0,0:0:0:0:
268,276,60663,2,2,B|353:303|353:303|440:276,1,180,2|8,0:0|0:0,0:0:0:0:
269,180,61171,6,0,P|312:189|354:206,1,90,0|2,0:0|0:0,0:0:0:0:
178,118,61510,2,0,P|165:76|159:31,1,90,0|8,0:0|0:0,0:0:0:0:
170,226,61849,2,0,P|141:257|103:286,1,90
256,342,62188,1,0,0:0:0:0:
280,330,62273,1,0,0:0:0:0:
301,313,62357,1,0,0:0:0:0:
318,292,62442,1,0,0:0:0:0:
331,268,62527,1,0,0:0:0:0:
338,241,62612,1,0,0:0:0:0:
341,214,62696,6,0,P|332:169|318:128,2,90,4|0|8,0:0|0:0|0:0,0:0:0:0:
284,307,63205,2,2,P|206:294|93:314,1,180,0|0,0:0|0:0,0:0:0:0:
201,255,63713,2,0,L|205:166,1,90,8|0,0:0|0:0,0:0:0:0:
277,84,64052,5,2,0:0:0:0:
373,132,64222,2,2,L|369:221,1,90,0|8,0:0|0:0,0:0:0:0:
288,293,64561,1,0,0:0:0:0:
388,332,64730,1,2,0:0:0:0:
270,293,64900,1,8,0:0:0:0:
479,240,65069,1,2,0:0:0:0:
475,134,65239,1,8,0:0:0:0:
387,331,65408,6,0,P|344:320|300:313,2,90,4|0|8,0:0|0:0|0:0,0:0:0:0:
247,216,65917,2,2,P|197:288|209:374,1,180,0|0,0:0|0:0,0:0:0:0:
355,204,66425,6,0,P|319:147|261:114,1,135,8|0,0:0|2:0,0:0:0:0:
137,150,66764,2,0,P|204:148|262:114,1,135,2|0,0:0|2:0,0:0:0:0:
272,26,67103,2,0,P|259:69|262:114,1,90,8|0,0:0|0:0,0:0:0:0:
299,214,67442,1,2,0:0:0:0:
371,69,67612,1,8,0:0:0:0:
394,283,67781,1,2,0:0:0:0:
367,51,67951,1,8,0:0:0:0:
367,51,68035,1,8,0:0:0:0:
367,51,68120,6,0,P|320:53|279:66,1,90,4|0,0:0|0:0,0:0:0:0:
179,95,68459,2,0,P|135:93|92:80,1,90,8|0,0:0|0:0,0:0:0:0:
279,65,68798,2,2,B|279:126|279:126|251:185|251:185|251:244,1,180,2|8,0:0|0:0,0:0:0:0:
443,211,69307,6,0,P|400:198|356:197,1,90,8|2,0:0|0:0,0:0:0:0:
319,371,69646,2,0,P|352:341|376:303,1,90,0|8,0:0|0:0,0:0:0:0:
239,192,69985,2,0,P|248:236|270:276,1,90,0|2,0:0|0:0,0:0:0:0:
376,304,70324,1,8,0:0:0:0:
356,197,70493,1,2,0:0:0:0:
270,276,70663,1,8,0:0:0:0:
468,236,70832,5,4,0:0:0:0:
372,104,71002,1,2,0:0:0:0:
344,100,71086,1,8,0:0:0:0:
316,96,71171,1,8,0:0:0:0:
288,92,71256,1,0,0:0:0:0:
260,88,71341,1,2,0:0:0:0:
112,22,71510,5,8,0:0:0:0:
108,50,71595,1,0,0:0:0:0:
104,77,71680,2,0,L|96:124,2,45,0|0|2,0:0|0:0|0:0,0:0:0:0:
201,122,72018,5,8,0:0:0:0:
205,150,72103,1,0,0:0:0:0:
209,177,72188,2,0,L|216:224,2,45,0|0|2,0:0|0:0|0:0,0:0:0:0:
107,215,72527,5,8,0:0:0:0:
103,243,72612,1,0,0:0:0:0:
99,270,72697,2,0,L|91:317,2,45,0|0|2,0:0|0:0|0:0,0:0:0:0:
300,192,73035,1,8,0:0:0:0:
313,192,73120,1,8,0:0:0:0:
326,192,73205,1,8,0:0:0:0:
339,192,73290,1,8,0:0:0:0:
352,192,73374,1,8,0:0:0:0:
365,192,73459,1,0,0:0:0:0:
378,192,73544,6,0,P|414:192|471:207,2,90,4|0|8,0:0|0:0|0:0,0:0:0:0:
277,233,74052,2,2,P|189:246|82:233,1,180,0|0,0:0|0:0,0:0:0:0:
191,294,74561,2,0,P|188:340|192:384,1,90,8|0,0:0|0:0,0:0:0:0:
277,233,74900,5,2,0:0:0:0:
277,233,75069,2,2,P|281:188|277:142,1,90,0|8,0:0|0:0,0:0:0:0:
168,142,75408,1,0,0:0:0:0:
382,115,75578,1,2,0:0:0:0:
144,119,75747,1,8,0:0:0:0:
420,103,75917,1,2,0:0:0:0:
116,92,76086,1,8,0:0:0:0:
83,251,76256,6,0,P|67:288|15:342,2,90,4|0|8,0:0|0:0|0:0,0:0:0:0:
157,172,76764,2,2,P|229:149|329:169,1,180,0|0,0:0|0:0,0:0:0:0:
407,244,77273,1,8,0:0:0:0:
407,244,77442,1,0,0:0:0:0:
337,326,77612,5,2,0:0:0:0:
230,204,77781,1,8,0:0:0:0:
230,204,77866,1,8,0:0:0:0:
230,204,77951,2,0,L|87:193,1,135,2|0,0:0|2:0,0:0:0:0:
48,220,78290,1,2,0:0:0:0:
144,378,78459,1,8,0:0:0:0:
144,378,78544,1,8,0:0:0:0:
144,378,78629,2,0,L|149:289,1,90,2|0,0:0|0:0,0:0:0:0:
145,126,78968,6,0,P|99:123|53:128,2,90,4|0|8,0:0|0:0|0:0,0:0:0:0:
252,109,79476,2,2,B|249:174|249:174|226:226|226:226|221:289,1,180,0|2,0:0|0:0,0:0:0:0:
412,246,79985,2,0,P|367:241|323:245,1,90,8|2,0:0|0:0,0:0:0:0:
221,283,80324,5,0,0:0:0:0:
126,230,80493,2,0,L|122:185,2,45,0|8|8,0:0|0:0|0:0,0:0:0:0:
226,155,80832,2,0,L|232:93,2,45,2|8|8,0:0|0:0|0:0,0:0:0:0:
338,110,81171,1,2,0:0:0:0:
364,105,81256,1,8,0:0:0:0:
391,103,81341,1,8,0:0:0:0:
417,105,81425,1,8,0:0:0:0:
443,109,81510,1,8,0:0:0:0:
468,116,81595,1,8,0:0:0:0:
492,128,81680,5,4,0:0:0:0:
488,154,82357,1,4,0:0:0:0:
483,180,83035,1,4,0:0:0:0:
477,206,83713,2,2,B|486:248|486:248|448:272|367:248,1,157.5,4|0,0:0|2:0,0:0:0:0:
319,238,84391,5,4,0:0:0:0:
213,213,84561,2,0,L|102:189,1,90,0|2,0:0|0:0,0:0:0:0:
333,137,84900,2,0,L|244:138,1,90,0|2,0:0|0:0,0:0:0:0:
412,62,85239,1,0,0:0:0:0:
386,248,85408,5,4,0:0:0:0:
256,192,85493,12,0,89815,0:0:0:0:
