osu file format v14

[General]
AudioFilename: audio.mp3
AudioLeadIn: 0
PreviewTime: 52062
Countdown: 0
SampleSet: Soft
StackLeniency: 0.7
Mode: 0
LetterboxInBreaks: 0
WidescreenStoryboard: 1

[Editor]
DistanceSpacing: 1.3
BeatDivisor: 4
GridSize: 4
TimelineZoom: 1.6

[Metadata]
Title:database feat. TAKUMA(10-FEET) (TV Size)
TitleUnicode:database feat. TAKUMA(10-FEET) (TV Size)
Artist:MAN WITH A MISSION
ArtistUnicode:MAN WITH A MISSION
Creator:wafer
Version:Hard
Source:ログ・ホライズン
Tags:wafer goopert kami no kotoba Log Horizon Tales of Purefly japanese english rock jrock j-rock [mad] mad heroine some hero chompy mrchompysaur
BeatmapID:4216718
BeatmapSetID:2023792

[Difficulty]
HPDrainRate:4.3
CircleSize:3.6
OverallDifficulty:6
ApproachRate:7.5
SliderMultiplier:1.4
SliderTickRate:1

[Events]
//Background and Video events
0,0,"log horizon bg.jpg",0,0
//Break Periods
//Storyboard Layer 0 (Background)
//Storyboard Layer 1 (Fail)
//Storyboard Layer 2 (Pass)
//Storyboard Layer 3 (Foreground)
//Storyboard Layer 4 (Overlay)
//Storyboard Sound Samples

[TimingPoints]
622,338.983050847458,4,2,1,50,1,0
3333,-125,4,2,1,75,0,0
4011,-125,4,2,1,50,0,0
6045,-125,4,2,1,75,0,0
6723,-125,4,2,1,50,0,0
8757,-125,4,2,1,75,0,0
9435,-125,4,2,1,50,0,0
11469,-125,4,2,1,75,0,0
12147,-125,4,2,1,50,0,0
14181,-111.111111111111,4,2,1,60,0,0
24520,-111.111111111111,4,2,1,50,0,0
25028,-100,4,2,1,75,0,0
25706,-100,4,2,2,60,0,0
26215,-100,4,2,1,60,0,0
27401,-100,4,2,2,60,0,0
27571,-100,4,2,1,60,0,0
27740,-100,4,2,1,75,0,0
28418,-100,4,2,2,60,0,0
29096,-100,4,2,1,60,0,0
30113,-100,4,2,1,75,0,0
31130,-100,4,2,2,60,0,0
31808,-100,4,2,1,60,0,0
32825,-100,4,2,2,60,0,0
32995,-100,4,2,1,60,0,0
33164,-100,4,2,1,75,0,0
34520,-100,4,2,1,60,0,0
35028,-100,4,2,1,50,0,0
46723,-100,4,2,1,60,0,0
52147,-90.9090909090909,4,2,1,75,0,0
57571,-90.9090909090909,4,1,1,75,0,0
57910,-90.9090909090909,4,2,2,75,0,0
58757,-90.9090909090909,4,2,1,75,0,0
81977,-133.333333333333,4,2,1,50,0,0
82316,-133.333333333333,4,2,3,50,0,0
84689,-133.333333333333,4,2,1,50,0,0
85706,-250,4,2,1,50,0,0
88249,-250,4,2,1,45,0,0
88588,-250,4,2,2,40,0,0
88927,-250,4,2,1,35,0,0
89266,-250,4,2,2,30,0,0
89605,-250,4,2,1,25,0,0
89774,-250,4,2,2,20,0,0
89944,-250,4,2,1,15,0,0
90028,-250,4,2,2,10,0,0
90113,-250,4,2,1,5,0,0

[Colours]
Combo1 : 209,156,97
Combo2 : 87,123,189
Combo3 : 139,194,105
Combo4 : 238,81,77

[HitObjects]
49,162,1977,6,0,B|9:156|23:63|99:24|141:82|136:160|37:209|89:272|151:127|240:-82|193:196|53:378|186:143|281:147,1,420
271,147,3164,1,2,0:0:0:0:
334,200,3333,6,0,L|396:203,1,56,4|0,3:1|3:0,0:0:0:0:
455,160,3672,1,0,1:0:0:0:
455,160,4011,2,0,P|451:126|437:105,1,56,2|2,0:0|0:0,0:0:0:0:
373,66,4350,1,2,1:2:0:0:
300,96,4520,2,0,P|275:120|210:104,1,84,2|0,0:0|0:0,0:0:0:0:
206,151,4859,2,0,B|132:150|136:101|148:122|118:53|63:91,1,168,2|0,0:0|0:0,0:0:0:0:
68,88,5537,1,2,0:0:0:0:
107,161,5706,1,2,1:2:0:0:
107,161,5876,1,2,3:2:0:0:
64,226,6045,6,0,L|58:290,1,56,4|0,3:1|3:0,0:0:0:0:
119,340,6384,1,0,1:0:0:0:
119,340,6723,2,0,P|152:336|173:322,1,56,2|2,0:2|0:0,0:0:0:0:
240,359,7062,1,2,1:2:0:0:
238,280,7232,2,0,P|213:255|148:271,1,84,2|0,0:0|0:0,0:0:0:0:
143,225,7571,2,0,P|146:187|146:163,1,56,2|0,0:0|1:0,0:0:0:0:
217,134,7910,2,2,B|271:138|271:138|286:168|320:177,1,112,2|2,0:0|0:0,0:1:0:0:
373,233,8418,1,2,1:2:0:0:
373,233,8588,1,2,0:2:0:0:
445,203,8757,6,0,L|455:144,1,56,4|0,3:1|3:0,0:0:0:0:
411,88,9096,1,0,1:0:0:0:
411,88,9435,2,0,P|377:91|362:115,1,56,2|2,0:0|0:0,0:0:0:0:
316,169,9774,1,2,1:2:0:0:
328,246,9944,2,0,P|301:213|228:207,1,112,2|0,0:0|0:0,0:0:0:0:
227,244,10367,1,0,0:0:0:0:
227,244,10452,2,0,B|151:230|154:307|72:304,1,168,0|2,1:0|0:2,0:0:0:0:
31,246,11130,1,2,1:2:0:0:
31,246,11300,1,2,3:2:0:0:
82,187,11469,6,0,L|72:128,1,56,4|0,3:1|3:0,0:0:0:0:
114,70,11808,1,0,1:0:0:0:
114,70,12147,2,0,P|148:73|163:97,1,56,2|2,0:3|0:3,0:0:0:0:
209,151,12486,1,2,1:3:0:0:
269,100,12655,1,2,0:3:0:0:
269,100,12825,2,0,L|273:160,1,56,2|0,0:3|0:0,0:0:0:0:
348,134,13164,2,0,L|352:194,1,56,2|0,1:3|0:0,0:0:0:0:
425,240,13503,1,10,0:2:0:0:
425,240,13588,1,8,0:0:0:0:
425,240,13672,2,0,L|428:294,2,28,0|0|12,3:0|3:0|0:0,0:0:0:0:
296,341,14181,5,4,3:1:0:0:
132,332,14520,1,8,0:0:0:0:
32,202,14859,2,0,P|35:161|48:127,1,62.9999980773926,0|0,3:0|0:0,0:0:0:0:
95,78,15198,2,0,P|147:106|139:170,1,125.999996154785,8|0,0:0|3:0,0:0:0:0:
79,217,15706,1,0,0:0:0:0:
79,217,15876,1,8,0:0:0:0:
231,276,16215,1,0,3:0:0:0:
381,210,16554,2,0,P|432:204|467:200,1,62.9999980773926,8|2,0:0|0:3,0:0:0:0:
508,152,16893,5,4,3:1:0:0:
365,70,17232,1,8,0:0:0:0:
202,90,17571,2,0,P|205:49|218:15,1,62.9999980773926,0|0,3:0|0:0,0:0:0:0:
129,27,17910,2,0,P|88:24|54:11,1,62.9999980773926,8|0,0:0|0:0,0:0:0:0:
121,107,18249,2,0,P|118:148|105:182,1,62.9999980773926,0|2,3:0|0:3,0:0:0:0:
31,188,18588,1,8,3:2:0:0:
194,196,18927,1,2,3:0:0:0:
194,196,19096,2,0,L|268:204,1,62.9999980773926,2|10,0:3|0:2,0:0:0:0:
333,174,19435,1,2,0:3:0:0:
333,174,19520,1,2,0:3:0:0:
333,174,19605,5,4,3:1:0:0:
482,241,19944,1,8,0:0:0:0:
349,337,20283,1,0,3:0:0:0:
188,303,20622,1,8,0:0:0:0:
106,306,20791,1,0,0:0:0:0:
29,334,20960,2,0,P|16:286|36:232,1,94.499997116089,0|0,3:0|0:0,0:0:0:0:
10,206,21299,1,8,0:0:0:0:
94,195,21469,1,0,0:0:0:0:
94,195,21639,2,0,P|138:204|199:198,1,94.499997116089,0|0,3:0|0:0,0:0:0:0:
218,227,21977,1,8,0:0:0:0:
299,221,22147,1,2,0:3:0:0:
357,277,22316,2,0,P|409:297|485:298,2,125.999996154785,4|8|0,3:1|0:0|3:0,0:0:0:0:
254,148,23333,6,0,P|261:102|259:71,1,62.9999980773926,10|0,0:2|0:0,0:0:0:0:
359,111,23672,2,0,P|358:79|352:48,1,62.9999980773926,10|0,0:0|3:0,0:0:0:0:
388,69,23927,1,0,0:0:0:0:
422,89,24011,1,8,0:0:0:0:
512,161,24181,2,0,P|480:161|449:167,1,62.9999980773926,2|0,3:1|0:0,0:0:0:0:
391,226,24520,1,2,0:0:0:0:
391,226,24689,1,2,0:0:0:0:
391,226,24859,1,2,0:0:0:0:
478,311,25028,6,2,B|462:307|462:307|449:288|449:288|303:257|303:257|274:280,1,210,4|0,3:1|3:0,0:1:0:0:
193,301,25706,1,10,0:2:0:0:
97,323,25876,1,2,0:2:0:0:
182,276,26045,1,2,3:2:0:0:
236,194,26215,6,0,P|237:158|233:123,1,70,10|0,0:0|0:0,0:0:0:0:
310,65,26554,2,0,P|338:86|370:102,1,70,2|0,3:2|3:0,0:0:0:0:
320,229,26893,2,0,P|349:209|383:197,1,70,10|0,0:0|0:0,0:0:0:0:
473,230,27232,1,2,3:2:0:0:
506,138,27401,2,0,P|500:104|496:47,1,70,10|2,0:2|0:3,0:0:0:0:
509,24,27655,1,2,0:3:0:0:
509,24,27740,6,2,B|465:55|465:55|351:28|351:28|343:14|343:14|309:5,1,210,4|0,3:1|3:0,0:1:0:0:
223,23,28418,1,10,0:2:0:0:
132,62,28588,1,2,0:2:0:0:
229,56,28757,2,0,P|238:102|243:136,1,70,2|10,3:2|0:2,0:0:0:0:
170,192,29096,5,2,0:3:0:0:
76,222,29266,1,2,3:2:0:0:
0,280,29435,1,2,3:2:0:0:
82,318,29605,1,10,0:0:0:0:
46,139,29944,1,0,3:0:0:0:
116,196,30113,2,2,B|136:206|144:216|144:216|238:223,1,105,8|8,0:0|0:0,0:1:0:0:
233,271,30452,6,2,B|258:302|258:302|353:322|353:322|377:295|427:287,1,210,4|0,3:1|3:0,0:1:0:0:
484,217,31130,1,10,0:0:0:0:
452,124,31299,1,2,0:0:0:0:
503,207,31469,1,2,3:2:0:0:
405,210,31638,6,0,P|378:185|356:157,1,70,10|0,0:0|0:0,0:0:0:0:
304,76,31977,2,0,P|315:42|320:7,1,70,2|0,3:2|3:0,0:0:0:0:
221,106,32316,2,0,P|186:112|153:127,1,70,10|0,0:0|0:0,0:0:0:0:
215,201,32655,1,2,3:2:0:0:
129,248,32824,2,0,P|100:221|54:209,1,70,10|2,0:0|3:0,0:0:0:0:
22,209,33078,1,2,3:0:0:0:
22,209,33164,6,2,B|-4:254|-4:254|35:288|106:302|106:302|122:316|124:353,1,210,4|2,3:1|3:2,0:1:0:0:
215,304,33842,1,10,0:2:0:0:
309,277,34011,1,2,0:2:0:0:
220,319,34181,1,2,3:2:0:0:
216,221,34350,2,0,P|221:179|224:144,1,70,2|8,3:2|0:0,0:0:0:0:
309,101,34689,2,0,L|379:132,1,70,0|8,3:0|0:0,0:0:0:0:
470,119,35028,1,2,3:1:0:0:
497,24,35198,1,0,0:0:0:0:
497,24,35876,6,0,P|462:24|436:46,1,70,6|0,3:2|0:0,0:0:0:0:
344,46,36215,2,0,P|309:46|283:68,1,70,10|0,0:0|0:0,0:0:0:0:
196,38,36554,2,0,P|161:38|135:60,1,70,2|0,3:2|3:2,0:0:0:0:
52,99,36893,1,0,0:0:0:0:
108,169,37062,6,0,B|106:215|106:215|105:219|105:219|103:264,1,70,10|2,0:2|0:3,0:0:0:0:
189,270,37401,2,0,B|191:224|191:224|193:221|193:221|195:176,1,70,2|8,3:2|0:0,0:0:0:0:
283,184,37740,2,0,B|281:230|281:230|280:234|280:234|278:279,1,70,2|0,0:0|3:0,0:0:0:0:
340,321,38079,1,2,3:2:0:0:
399,251,38249,1,10,0:2:0:0:
481,221,38418,1,2,0:0:0:0:
481,221,38503,1,8,0:0:0:0:
481,221,38588,2,0,P|458:156|390:137,2,140,6|10|2,3:2|0:0|3:2,0:0:0:0:
372,367,39605,1,2,0:0:0:0:
300,311,39774,6,0,P|255:322|232:363,1,70,10|2,0:0|0:3,0:0:0:0:
204,254,40113,2,0,P|160:242|137:201,1,70,2|8,3:2|0:0,0:0:0:0:
89,297,40452,1,2,0:0:0:0:
8,133,40791,1,10,0:0:0:0:
98,137,40960,1,2,3:2:0:0:
179,95,41130,1,10,0:0:0:0:
255,143,41299,6,0,P|264:109|267:74,1,70,6|0,3:2|0:0,0:0:0:0:
357,88,41638,2,0,P|347:121|344:156,1,70,10|0,0:0|0:0,0:0:0:0:
432,181,41977,2,0,P|434:146|444:112,1,70,2|0,3:2|3:2,0:0:0:0:
507,46,42316,1,0,0:0:0:0:
420,17,42486,6,0,P|381:45|333:52,1,70,10|2,0:2|0:3,0:0:0:0:
289,108,42825,2,0,P|241:116|195:102,1,70,2|8,3:2|0:0,0:0:0:0:
137,151,43164,2,0,P|90:139|54:106,1,70,2|0,0:2|3:2,0:0:0:0:
31,208,43503,1,2,3:2:0:0:
56,295,43672,1,10,0:0:0:0:
126,352,43842,5,10,0:0:0:0:
126,352,43927,1,8,0:0:0:0:
126,352,44011,2,0,B|163:366|163:366|197:345|277:337,2,140,6|10|2,3:2|0:0|3:2,0:0:0:0:
201,186,45028,1,2,0:0:0:0:
274,238,45198,6,0,P|319:227|342:186,1,70,10|2,0:0|0:3,0:0:0:0:
414,253,45537,2,0,P|401:297|425:337,1,70,2|8,3:2|0:0,0:0:0:0:
327,361,45876,2,0,P|294:327|247:328,1,70,2|0,0:0|3:2,0:0:0:0:
184,302,46215,1,10,0:0:0:0:
184,302,46299,1,8,0:0:0:0:
184,302,46384,2,0,L|134:284,1,35,10|8,3:2|0:0,0:0:0:0:
111,267,46554,2,0,L|61:285,1,35,10|8,0:0|0:0,0:0:0:0:
37,258,46723,6,0,B|18:213|18:213|54:110,1,140,6|10,3:2|0:0,0:0:0:0:
187,9,47401,1,2,3:2:0:0:
362,58,47740,1,8,0:0:0:0:
452,46,47910,2,0,P|487:64|499:97,1,70,2|0,0:0|3:0,0:0:0:0:
493,182,48249,2,0,P|456:212|421:209,1,70,2|8,0:0|0:0,0:0:0:0:
350,179,48588,2,0,P|343:133|368:97,1,70,2|0,0:0|3:0,0:0:0:0:
279,57,48927,1,10,0:0:0:0:
279,57,49096,2,0,P|233:71|207:71,1,70,2|8,3:2|0:0,0:0:0:0:
136,123,49435,5,6,3:2:0:0:
136,123,49774,1,8,1:2:0:0:
136,123,50452,5,8,1:2:0:0:
158,211,50622,1,8,0:0:0:0:
89,269,50791,1,8,3:2:0:0:
77,260,50876,1,8,0:0:0:0:
66,248,50960,1,8,0:0:0:0:
57,232,51045,1,8,0:0:0:0:
55,214,51130,2,0,L|62:166,4,35,8|8|8|8|6,3:2|0:0|0:0|0:0|1:3,0:0:0:0:
256,16,52147,5,4,3:2:0:0:
318,94,52316,2,0,P|354:76|366:28,1,77.0000023498536,0|8,0:0|0:0,0:0:0:0:
234,96,52655,2,0,P|231:134|254:165,1,77.0000023498536,0|0,0:0|3:0,0:0:0:0:
434,252,53164,5,8,0:0:0:0:
512,190,53333,2,0,P|494:154|446:142,1,77.0000023498536,0|0,0:0|3:0,0:0:0:0:
367,179,53672,2,0,P|346:210|351:248,1,77.0000023498536,0|8,0:0|0:0,0:0:0:0:
450,261,54011,5,2,0:2:0:0:
391,342,54181,1,2,0:2:0:0:
293,320,54350,1,2,1:2:0:0:
197,352,54520,1,2,0:2:0:0:
197,352,54689,1,2,1:2:0:0:
102,316,54859,5,4,3:2:0:0:
178,254,55028,2,0,P|160:218|112:206,1,77.0000023498536,0|8,0:0|0:0,0:0:0:0:
256,290,55367,2,0,P|293:293|324:270,1,77.0000023498536,0|0,0:0|3:0,0:0:0:0:
431,101,55876,6,2,P|397:37|339:44,1,115.50000352478,10|0,0:2|0:0,0:1:0:0:
360,33,56215,2,2,P|316:63|371:135,1,154.000004699707,2|10,3:2|0:0,0:1:0:0:
446,182,56723,2,0,P|487:177|528:178,1,77.0000023498536,2|0,0:0|0:0,0:0:0:0:
386,244,57062,1,8,0:0:0:0:
285,244,57232,2,0,P|244:249|203:248,1,77.0000023498536,0|8,3:0|0:0,0:0:0:0:
162,267,57486,1,8,0:0:0:0:
162,267,57571,6,2,P|146:220|125:193,1,77.0000023498536,6|0,3:2|2:0,0:0:0:0:
4,125,57910,2,0,P|41:134|79:131,1,77.0000023498536,8|0,0:0|0:0,0:0:0:0:
179,124,58249,2,0,P|214:56|268:1,1,154.000004699707,0|8,3:0|0:0,0:0:0:0:
312,90,58757,6,0,P|323:137|329:171,1,77.0000023498536,2|0,0:0|3:0,0:0:0:0:
426,147,59096,2,0,P|418:109|409:71,1,77.0000023498536,2|8,0:0|0:0,0:0:0:0:
512,186,59435,1,2,0:0:0:0:
512,186,59774,1,2,1:2:0:0:
421,230,59944,1,0,3:0:0:0:
509,275,60113,1,2,1:2:0:0:
420,322,60283,6,0,P|373:338|346:359,1,77.0000023498536,6|0,3:2|0:0,0:0:0:0:
260,246,60622,2,0,P|269:283|266:321,1,77.0000023498536,10|0,0:0|0:0,0:0:0:0:
184,365,60961,2,0,P|148:297|94:242,1,154.000004699707,2|10,3:2|0:0,0:0:0:0:
6,161,61469,2,0,P|54:163|88:163,1,77.0000023498536,2|4,0:0|3:2,0:0:0:0:
109,80,61808,2,0,P|146:89|184:96,1,77.0000023498536,2|8,0:0|0:0,0:0:0:0:
3,21,62147,2,0,P|40:13|78:4,1,77.0000023498536,2|0,0:0|0:0,0:0:0:0:
178,8,62486,1,10,0:0:0:0:
190,0,62571,1,8,0:0:0:0:
205,0,62656,2,0,L|241:12,3,38.5000011749268,8|8|10|8,0:0|0:0|0:0|0:0,0:0:0:0:
268,54,62994,5,4,3:2:0:0:
360,91,63163,2,0,P|396:73|408:25,1,77.0000023498536,0|8,0:0|0:0,0:0:0:0:
288,145,63502,2,0,P|291:182|268:213,1,77.0000023498536,0|0,0:0|3:0,0:0:0:0:
85,295,64011,5,8,0:0:0:0:
17,221,64180,2,0,P|35:185|83:173,1,77.0000023498536,0|0,0:0|3:0,0:0:0:0:
165,217,64519,2,0,P|187:248|183:286,1,77.0000023498536,0|8,0:0|0:0,0:0:0:0:
82,285,64858,5,2,0:2:0:0:
143,364,65028,1,2,3:2:0:0:
241,346,65197,1,2,1:2:0:0:
294,266,65367,1,2,0:2:0:0:
294,266,65536,1,2,1:2:0:0:
393,276,65706,5,4,3:2:0:0:
482,233,65875,2,0,P|464:269|416:281,1,77.0000023498536,0|8,0:0|0:0,0:0:0:0:
348,202,66214,2,0,P|355:165|337:133,1,77.0000023498536,0|0,0:0|3:0,0:0:0:0:
152,213,66723,6,0,P|88:178|94:120,1,115.50000352478,2|0,3:1|0:0,0:0:0:0:
84,141,67062,2,2,P|114:97|33:82,1,154.000004699707,2|2,3:2|3:2,0:1:0:0:
133,28,67570,2,0,P|174:33|215:32,1,77.0000023498536,10|0,0:0|3:0,0:0:0:0:
293,87,67909,1,2,1:2:0:0:
390,111,68079,2,0,P|349:106|308:107,1,77.0000023498536,2|2,3:2|1:2,0:0:0:0:
293,154,68333,1,8,0:0:0:0:
293,154,68418,6,0,L|276:246,1,77.0000023498536,6|0,3:2|0:0,0:0:0:0:
374,197,68757,2,0,L|357:289,1,77.0000023498536,10|0,0:0|0:0,0:0:0:0:
430,343,69096,2,0,P|470:316|493:201,1,154.000004699707,2|10,3:2|0:0,0:0:0:0:
477,119,69605,2,0,P|465:74|454:40,1,77.0000023498536,2|0,1:2|3:0,0:0:0:0:
359,17,69944,2,0,P|326:49|302:76,1,77.0000023498536,2|8,0:0|0:0,0:0:0:0:
296,172,70283,2,0,P|340:184|375:191,1,77.0000023498536,2|0,0:0|3:0,0:0:0:0:
455,244,70622,1,2,1:2:0:0:
455,244,70791,1,0,3:0:0:0:
367,291,70960,1,2,1:2:0:0:
289,354,71130,6,0,P|247:347|168:345,1,115.50000352478,6|8,3:2|0:0,0:0:0:0:
134,313,71469,2,0,L|105:287,3,38.5000011749268,8|8|0|0,0:0|0:0|3:2|3:2,0:0:0:0:
128,242,71808,2,0,L|125:203,3,38.5000011749268,8|8|0|0,0:0|0:0|1:0|1:0,0:0:0:0:
161,168,72147,1,0,3:0:0:0:
161,168,72232,1,0,3:0:0:0:
161,168,72316,2,0,L|189:128,2,38.5000011749268,8|8|8,0:0|0:0|0:0,0:0:0:0:
145,68,72655,2,0,L|117:24,3,38.5000011749268,0|0|8|8,3:2|3:0|0:0|0:0,0:0:0:0:
82,34,72994,1,0,1:2:0:0:
82,34,73079,1,0,1:0:0:0:
82,34,73164,2,0,L|48:133,1,77.0000023498536,0|8,3:0|0:0,0:0:0:0:
15,198,73503,1,8,0:0:0:0:
15,198,73588,1,8,0:0:0:0:
15,198,73672,1,0,1:0:0:0:
15,198,73757,1,0,1:0:0:0:
15,198,73842,6,0,P|55:211|99:231,1,77.0000023498536,4|0,3:1|0:0,0:0:0:0:
255,332,74350,2,0,P|295:319|339:299,1,77.0000023498536,0|0,0:0|3:0,0:0:0:0:
126,298,74859,6,0,P|166:285|210:265,1,77.0000023498536,8|0,0:0|0:0,0:0:0:0:
365,162,75367,2,0,P|405:175|449:195,1,77.0000023498536,0|12,0:0|0:0,0:0:0:0:
508,117,75706,5,0,0:0:0:0:
424,60,75876,1,2,3:2:0:0:
325,78,76045,1,2,1:2:0:0:
249,143,76215,1,2,3:2:0:0:
249,143,76384,1,2,1:2:0:0:
158,99,76554,6,0,P|171:59|191:15,1,77.0000023498536,4|0,3:1|0:0,0:0:0:0:
334,160,77062,2,0,P|318:195|307:232,1,77.0000023498536,0|0,0:0|3:0,0:0:0:0:
504,195,77571,5,12,0:0:0:0:
504,195,77740,2,0,P|467:222|428:264,1,77.0000023498536,0|0,0:0|3:0,0:0:0:0:
386,325,78079,1,8,0:0:0:0:
386,325,78164,1,8,0:0:0:0:
386,325,78249,2,0,P|328:319|258:316,1,115.50000352478,2|0,3:3|0:0,0:0:0:0:
230,286,78588,2,0,P|184:294|146:298,1,77.0000023498536,2|8,3:3|0:0,0:0:0:0:
111,324,78842,1,8,0:0:0:0:
111,324,78927,2,0,P|49:307|35:280,1,77.0000023498536,2|8,3:3|0:0,0:0:0:0:
23,258,79181,1,8,0:0:0:0:
23,258,79266,5,4,3:1:0:0:
80,176,79435,2,0,P|74:126|51:90,1,77.0000023498536,0|4,0:0|1:2,0:0:0:0:
160,208,79774,2,0,P|182:177|215:157,1,77.0000023498536,0|0,0:0|3:0,0:0:0:0:
314,331,80283,5,8,0:2:0:0:
374,254,80452,2,0,P|368:204|345:168,1,77.0000023498536,2|0,0:2|3:0,0:0:0:0:
490,247,80791,1,2,0:2:0:0:
490,247,80875,1,8,0:0:0:0:
490,247,80960,2,0,P|467:283|465:295,4,38.5000011749268,8|8|8|8|8,3:2|0:0|0:0|0:0|3:2,0:0:0:0:
497,146,81469,1,8,0:0:0:0:
497,146,81554,1,8,0:0:0:0:
497,146,81638,2,0,L|451:127,1,38.5000011749268,8|8,3:2|0:0,0:0:0:0:
439,85,81808,1,8,0:0:0:0:
439,85,81893,1,8,0:0:0:0:
439,85,81977,5,8,0:0:0:0:
309,41,82316,1,2,0:3:0:0:
107,81,82825,5,2,0:3:0:0:
4,258,83333,5,2,0:3:0:0:
187,348,83842,5,2,0:3:0:0:
494,199,84689,5,2,1:1:0:0:
412,179,84859,1,2,3:1:0:0:
247,214,85198,1,2,3:1:0:0:
80,188,85537,1,2,3:1:0:0:
1,217,85706,1,4,3:2:0:0:
256,192,85791,12,0,90113,0:0:0:0:
