osu file format v14

[General]
AudioFilename: audio.mp3
AudioLeadIn: 0
PreviewTime: 133335
Countdown: 1
SampleSet: Normal
StackLeniency: 0.7
Mode: 1
LetterboxInBreaks: 0
WidescreenStoryboard: 0

[Editor]
Bookmarks: 16971,20608,24244,27881,31517,35153,38108,75153,118790,147881,166062,180608,209699
DistanceSpacing: 1
BeatDivisor: 4
GridSize: 32
TimelineZoom: 1.8

[Metadata]
Title:Winding Road
TitleUnicode:Winding Road
Artist:MAN WITH A MISSION
ArtistUnicode:MAN WITH A MISSION
Creator:chinotauku
Version:Oni (Concept)
Source:MAN WITH A MISSION
Tags:MAN WITH A MISSION Winding Road ゴールデンカムイ Golden Kamuy
BeatmapID:1858113
BeatmapSetID:888960

[Difficulty]
HPDrainRate:5
CircleSize:5
OverallDifficulty:5
ApproachRate:5
SliderMultiplier:1.4
SliderTickRate:1

[Events]
//Background and Video events
0,0,"bg.jpg",0,0
//Break Periods
2,60808,66226
2,104444,110317
2,133535,146681
2,162399,164862
2,209899,220772
//Storyboard Layer 0 (Background)
//Storyboard Layer 1 (Fail)
//Storyboard Layer 2 (Pass)
//Storyboard Layer 3 (Foreground)
//Storyboard Sound Samples

[TimingPoints]
16972,454.545454545455,4,1,0,100,1,0
75153,-100,4,1,0,100,0,1
89699,-100,4,1,0,100,0,1
104017,-100,4,1,0,100,0,0
104244,-100,4,1,0,100,0,0
147881,-100,4,1,0,100,0,0
164244,-100,4,1,0,100,0,0
166062,-100,4,1,0,100,0,1
180608,-100,4,1,0,100,0,1
194472,-100,4,1,0,100,0,0
195153,-100,4,1,0,100,0,0
208562,-100,4,1,0,100,0,0

[HitObjects]
256,192,15608,5,8,0:0:0:0:
256,192,16062,1,8,0:0:0:0:
256,192,16971,5,0,0:0:0:0:
256,192,17199,1,0,0:0:0:0:
256,192,17426,1,0,0:0:0:0:
256,192,17653,1,8,0:0:0:0:
256,192,17881,1,0,0:0:0:0:
256,192,18108,1,0,0:0:0:0:
256,192,18335,1,8,0:0:0:0:
256,192,18790,1,8,0:0:0:0:
256,192,19017,1,0,0:0:0:0:
256,192,19244,1,0,0:0:0:0:
256,192,19471,1,8,0:0:0:0:
256,192,19699,1,0,0:0:0:0:
256,192,19926,1,0,0:0:0:0:
256,192,20153,1,8,0:0:0:0:
256,192,20608,1,8,0:0:0:0:
256,192,20835,1,0,0:0:0:0:
256,192,21062,1,0,0:0:0:0:
256,192,21290,1,8,0:0:0:0:
256,192,21517,1,0,0:0:0:0:
256,192,21744,1,0,0:0:0:0:
256,192,21971,1,8,0:0:0:0:
256,192,22426,1,8,0:0:0:0:
256,192,22653,1,0,0:0:0:0:
256,192,22881,1,0,0:0:0:0:
256,192,23108,1,8,0:0:0:0:
256,192,23335,1,0,0:0:0:0:
256,192,23562,1,0,0:0:0:0:
256,192,23790,1,8,0:0:0:0:
256,192,24244,1,8,0:0:0:0:
256,192,24471,1,0,0:0:0:0:
256,192,24699,1,0,0:0:0:0:
256,192,24926,1,8,0:0:0:0:
256,192,25153,1,0,0:0:0:0:
256,192,25381,1,0,0:0:0:0:
256,192,25608,1,8,0:0:0:0:
256,192,26062,1,8,0:0:0:0:
256,192,26517,1,0,0:0:0:0:
256,192,26744,1,8,0:0:0:0:
256,192,26971,1,0,0:0:0:0:
256,192,27199,1,0,0:0:0:0:
256,192,27426,1,8,0:0:0:0:
256,192,27653,1,0,0:0:0:0:
256,192,27767,1,0,0:0:0:0:
256,192,27881,1,8,0:0:0:0:
256,192,28335,1,0,0:0:0:0:
256,192,28562,1,8,0:0:0:0:
256,192,29017,1,0,0:0:0:0:
256,192,29244,1,8,0:0:0:0:
256,192,29472,1,0,0:0:0:0:
256,192,29699,1,8,0:0:0:0:
256,192,29926,1,0,0:0:0:0:
256,192,30153,1,0,0:0:0:0:
256,192,30267,1,0,0:0:0:0:
256,192,30381,1,8,0:0:0:0:
160,128,30608,2,0,L|224:128,6,35
256,192,31517,1,0,0:0:0:0:
256,192,31972,1,0,0:0:0:0:
256,192,32199,1,8,0:0:0:0:
256,192,32426,1,0,0:0:0:0:
256,192,32881,1,8,0:0:0:0:
256,192,33335,1,8,0:0:0:0:
256,192,33562,1,0,0:0:0:0:
256,192,33790,1,0,0:0:0:0:
256,192,34017,1,8,0:0:0:0:
256,192,34699,1,8,0:0:0:0:
256,192,35153,1,0,0:0:0:0:
256,192,35608,1,0,0:0:0:0:
256,192,36062,1,0,0:0:0:0:
256,192,36290,1,0,0:0:0:0:
256,192,36517,1,8,0:0:0:0:
256,192,36972,1,8,0:0:0:0:
256,192,37199,1,0,0:0:0:0:
256,192,37426,1,0,0:0:0:0:
256,192,37653,1,8,0:0:0:0:
256,192,38108,1,0,0:0:0:0:
256,192,38335,1,8,0:0:0:0:
256,192,38562,1,0,0:0:0:0:
256,192,38790,1,0,0:0:0:0:
256,192,39244,1,0,0:0:0:0:
256,192,39472,1,8,0:0:0:0:
256,192,39926,1,0,0:0:0:0:
256,192,40153,1,8,0:0:0:0:
256,192,40608,1,0,0:0:0:0:
256,192,41062,1,0,0:0:0:0:
256,192,41290,1,8,0:0:0:0:
256,160,41744,1,0,0:0:0:0:
256,192,41972,1,8,0:0:0:0:
256,192,42199,1,0,0:0:0:0:
256,192,42426,1,0,0:0:0:0:
256,192,42881,1,0,0:0:0:0:
256,192,43108,1,0,0:0:0:0:
256,192,43562,1,0,0:0:0:0:
256,192,43790,1,8,0:0:0:0:
256,192,44244,1,0,0:0:0:0:
256,192,44472,1,0,0:0:0:0:
256,192,44699,1,0,0:0:0:0:
256,192,44926,1,8,0:0:0:0:
256,192,46062,1,12,0:0:0:0:
256,192,46290,1,0,0:0:0:0:
256,192,46517,1,0,0:0:0:0:
256,192,46631,1,0,0:0:0:0:
256,192,46744,1,8,0:0:0:0:
256,192,46972,1,0,0:0:0:0:
256,192,47199,1,0,0:0:0:0:
256,192,47426,1,8,0:0:0:0:
256,192,47881,1,8,0:0:0:0:
256,192,48108,1,0,0:0:0:0:
256,192,48335,1,0,0:0:0:0:
256,192,48449,1,0,0:0:0:0:
256,192,48562,1,8,0:0:0:0:
256,192,48790,1,0,0:0:0:0:
256,192,49017,1,0,0:0:0:0:
256,192,49244,1,8,0:0:0:0:
256,192,49472,1,0,0:0:0:0:
256,192,49699,1,8,0:0:0:0:
256,192,50153,1,0,0:0:0:0:
256,192,50381,1,8,0:0:0:0:
256,192,50608,1,0,0:0:0:0:
256,192,50835,1,0,0:0:0:0:
256,192,51062,1,8,0:0:0:0:
256,192,51517,1,8,0:0:0:0:
256,192,51744,1,0,0:0:0:0:
256,192,51972,1,8,0:0:0:0:
256,192,52653,1,0,0:0:0:0:
256,192,52881,1,0,0:0:0:0:
256,192,53108,1,0,0:0:0:0:
256,192,53222,1,0,0:0:0:0:
256,192,53335,1,8,0:0:0:0:
256,192,53562,1,0,0:0:0:0:
256,192,53790,1,0,0:0:0:0:
256,192,54244,1,0,0:0:0:0:
256,192,54472,1,0,0:0:0:0:
256,192,54699,1,8,0:0:0:0:
256,192,54926,1,0,0:0:0:0:
256,192,55153,1,8,0:0:0:0:
256,192,55608,1,0,0:0:0:0:
256,192,55835,1,8,0:0:0:0:
256,192,56062,1,0,0:0:0:0:
256,192,56517,1,8,0:0:0:0:
256,192,56744,1,0,0:0:0:0:
256,192,56972,1,8,0:0:0:0:
256,192,57426,1,0,0:0:0:0:
256,192,57653,1,8,0:0:0:0:
256,192,57881,1,0,0:0:0:0:
256,192,58108,1,0,0:0:0:0:
256,192,58222,1,0,0:0:0:0:
256,192,58335,1,8,0:0:0:0:
256,192,58562,1,0,0:0:0:0:
256,192,58676,1,0,0:0:0:0:
256,192,58790,1,8,0:0:0:0:
256,192,59017,1,0,0:0:0:0:
256,192,59244,1,0,0:0:0:0:
256,192,59472,1,0,0:0:0:0:
256,192,59699,1,8,0:0:0:0:
192,128,59926,2,8,L|256:128,4,35
256,192,60608,1,8,0:0:0:0:
256,192,67426,5,0,0:0:0:0:
256,192,67881,1,8,0:0:0:0:
256,192,68790,1,0,0:0:0:0:
256,192,69699,1,0,0:0:0:0:
256,192,70381,1,0,0:0:0:0:
256,192,70494,1,0,0:0:0:0:
256,192,70608,1,8,0:0:0:0:
256,192,71517,1,0,0:0:0:0:
256,192,71972,1,0,0:0:0:0:
256,192,72199,1,0,0:0:0:0:
256,192,72426,1,0,0:0:0:0:
256,192,72653,1,0,0:0:0:0:
256,192,72881,1,0,0:0:0:0:
256,192,73108,1,0,0:0:0:0:
256,192,73335,1,0,0:0:0:0:
256,192,73562,1,0,0:0:0:0:
256,192,73790,1,0,0:0:0:0:
256,192,74017,1,6,0:0:0:0:
256,192,75153,1,4,0:0:0:0:
256,192,75608,1,8,0:0:0:0:
256,192,75835,1,0,0:0:0:0:
256,192,76062,1,8,0:0:0:0:
256,192,76517,1,8,0:0:0:0:
256,192,76744,1,0,0:0:0:0:
256,192,76972,1,8,0:0:0:0:
256,192,77199,1,0,0:0:0:0:
256,192,77312,1,0,0:0:0:0:
256,192,77426,1,8,0:0:0:0:
256,192,77881,1,0,0:0:0:0:
256,192,78108,1,8,0:0:0:0:
256,192,78335,1,0,0:0:0:0:
256,192,78449,1,0,0:0:0:0:
256,192,78562,1,0,0:0:0:0:
256,192,78790,1,8,0:0:0:0:
256,192,79244,1,0,0:0:0:0:
256,192,79472,1,8,0:0:0:0:
256,192,79585,1,8,0:0:0:0:
256,192,79699,1,8,0:0:0:0:
256,192,79926,1,0,0:0:0:0:
256,192,80153,1,8,0:0:0:0:
256,192,80381,1,0,0:0:0:0:
256,192,80608,1,8,0:0:0:0:
256,192,81062,1,8,0:0:0:0:
256,192,81290,1,0,0:0:0:0:
256,192,81517,1,8,0:0:0:0:
256,192,81744,1,0,0:0:0:0:
256,192,81972,1,8,0:0:0:0:
256,192,82199,1,0,0:0:0:0:
256,192,82426,1,8,0:0:0:0:
256,192,82881,1,8,0:0:0:0:
256,192,83108,1,0,0:0:0:0:
256,192,83335,1,8,0:0:0:0:
256,192,83562,1,0,0:0:0:0:
256,192,83790,1,8,0:0:0:0:
256,192,84017,1,0,0:0:0:0:
256,192,84244,1,8,0:0:0:0:
256,192,84699,1,0,0:0:0:0:
256,192,84926,1,8,0:0:0:0:
256,192,85153,1,0,0:0:0:0:
256,192,85267,1,0,0:0:0:0:
256,192,85381,1,0,0:0:0:0:
256,192,85608,1,0,0:0:0:0:
256,192,86062,1,0,0:0:0:0:
256,192,86290,1,8,0:0:0:0:
256,192,86517,1,0,0:0:0:0:
256,192,86972,1,8,0:0:0:0:
256,192,87199,1,0,0:0:0:0:
256,192,87426,1,8,0:0:0:0:
256,192,87881,1,0,0:0:0:0:
256,192,88108,1,8,0:0:0:0:
256,192,88335,1,8,0:0:0:0:
256,192,88562,1,0,0:0:0:0:
160,160,88790,2,8,L|224:160,6,35
256,192,89699,1,8,0:0:0:0:
256,192,89926,1,0,0:0:0:0:
256,192,90040,1,0,0:0:0:0:
256,192,90153,1,8,0:0:0:0:
256,192,90381,1,0,0:0:0:0:
256,192,90835,1,0,0:0:0:0:
256,192,91062,1,0,0:0:0:0:
256,192,91290,1,8,0:0:0:0:
256,192,91517,1,0,0:0:0:0:
256,192,91744,1,0,0:0:0:0:
256,192,91858,1,0,0:0:0:0:
256,192,91972,1,8,0:0:0:0:
256,192,92199,1,0,0:0:0:0:
256,192,92653,1,8,0:0:0:0:
256,192,92881,1,0,0:0:0:0:
256,192,93108,1,0,0:0:0:0:
256,192,93222,1,0,0:0:0:0:
256,192,93335,1,8,0:0:0:0:
256,192,93562,1,8,0:0:0:0:
256,192,93676,1,8,0:0:0:0:
256,192,93790,1,0,0:0:0:0:
256,192,94017,1,8,0:0:0:0:
256,192,94472,1,0,0:0:0:0:
256,192,94699,1,8,0:0:0:0:
256,192,95153,1,0,0:0:0:0:
256,192,95381,1,8,0:0:0:0:
256,192,95494,1,8,0:0:0:0:
256,192,95608,1,0,0:0:0:0:
256,192,95835,1,0,0:0:0:0:
256,192,96062,1,8,0:0:0:0:
256,192,96290,1,0,0:0:0:0:
256,192,96403,1,0,0:0:0:0:
256,192,96517,1,8,0:0:0:0:
256,192,96631,1,8,0:0:0:0:
256,192,96744,1,0,0:0:0:0:
256,192,96858,1,0,0:0:0:0:
256,192,96972,1,12,0:0:0:0:
256,192,97199,1,8,0:0:0:0:
256,192,97312,1,8,0:0:0:0:
256,192,97426,1,0,0:0:0:0:
256,192,97653,1,8,0:0:0:0:
256,192,98108,1,0,0:0:0:0:
256,192,98335,1,8,0:0:0:0:
256,192,98562,1,0,0:0:0:0:
256,192,98790,1,0,0:0:0:0:
256,192,99017,1,8,0:0:0:0:
256,192,99131,1,8,0:0:0:0:
256,192,99244,1,0,0:0:0:0:
256,192,99472,1,8,0:0:0:0:
256,192,99926,1,0,0:0:0:0:
256,192,100153,1,8,0:0:0:0:
256,192,100267,1,8,0:0:0:0:
256,192,100381,1,0,0:0:0:0:
256,192,100494,1,0,0:0:0:0:
256,192,100608,1,8,0:0:0:0:
256,192,100835,1,8,0:0:0:0:
256,192,100949,1,8,0:0:0:0:
256,192,101062,1,0,0:0:0:0:
256,192,101290,1,8,0:0:0:0:
256,192,101744,1,0,0:0:0:0:
256,192,101972,1,8,0:0:0:0:
256,192,102312,1,0,0:0:0:0:
256,192,102426,1,8,0:0:0:0:
256,192,102653,1,0,0:0:0:0:
256,192,102767,1,0,0:0:0:0:
256,192,102881,1,0,0:0:0:0:
128,128,103108,2,0,L|192:128,8,35
256,192,104244,1,8,0:0:0:0:
256,192,111517,5,0,0:0:0:0:
256,192,112426,1,0,0:0:0:0:
256,192,113335,1,0,0:0:0:0:
256,192,114244,1,0,0:0:0:0:
256,192,114699,1,0,0:0:0:0:
256,192,114926,1,0,0:0:0:0:
256,192,115153,1,8,0:0:0:0:
256,192,115608,1,0,0:0:0:0:
256,192,116062,1,0,0:0:0:0:
256,192,116517,1,0,0:0:0:0:
256,192,116972,1,0,0:0:0:0:
256,192,117085,1,8,0:0:0:0:
256,192,117312,1,0,0:0:0:0:
256,192,117426,1,8,0:0:0:0:
256,192,117653,1,0,0:0:0:0:
256,192,117767,1,0,0:0:0:0:
256,192,117881,1,0,0:0:0:0:
256,192,117994,1,0,0:0:0:0:
256,192,118108,1,0,0:0:0:0:
256,192,118222,1,8,0:0:0:0:
256,192,118790,1,8,0:0:0:0:
256,192,119017,1,0,0:0:0:0:
256,192,119244,1,0,0:0:0:0:
256,192,119472,1,8,0:0:0:0:
256,192,119699,1,0,0:0:0:0:
256,192,119926,1,0,0:0:0:0:
256,192,120153,1,8,0:0:0:0:
256,192,120381,1,0,0:0:0:0:
256,192,120608,1,0,0:0:0:0:
256,192,121062,1,0,0:0:0:0:
256,192,121290,1,8,0:0:0:0:
256,192,121517,1,0,0:0:0:0:
256,192,121744,1,0,0:0:0:0:
256,192,121972,1,8,0:0:0:0:
256,192,122199,1,0,0:0:0:0:
256,192,122426,1,8,0:0:0:0:
256,192,122653,1,0,0:0:0:0:
256,192,122881,1,0,0:0:0:0:
256,192,123108,1,8,0:0:0:0:
256,192,123335,1,0,0:0:0:0:
256,192,123562,1,0,0:0:0:0:
256,192,123790,1,8,0:0:0:0:
256,192,124244,1,0,0:0:0:0:
256,192,124699,1,0,0:0:0:0:
256,192,124926,1,0,0:0:0:0:
256,192,125040,1,0,0:0:0:0:
256,192,125153,1,8,0:0:0:0:
256,192,125381,1,0,0:0:0:0:
256,192,125608,1,8,0:0:0:0:
256,192,125835,1,0,0:0:0:0:
256,192,125949,1,0,0:0:0:0:
256,192,126062,1,8,0:0:0:0:
256,192,126290,1,0,0:0:0:0:
256,192,126517,1,0,0:0:0:0:
256,192,126744,1,8,0:0:0:0:
256,192,126972,1,0,0:0:0:0:
256,192,127199,1,0,0:0:0:0:
256,192,127426,1,8,0:0:0:0:
256,192,127653,1,0,0:0:0:0:
256,192,127881,1,0,0:0:0:0:
256,192,128335,1,8,0:0:0:0:
256,192,128562,1,0,0:0:0:0:
256,192,128790,1,8,0:0:0:0:
256,192,129017,1,8,0:0:0:0:
256,192,129244,1,0,0:0:0:0:
256,192,129472,1,8,0:0:0:0:
256,192,129699,1,8,0:0:0:0:
256,192,129926,1,0,0:0:0:0:
256,192,130153,1,0,0:0:0:0:
256,192,130381,1,8,0:0:0:0:
256,192,130608,1,0,0:0:0:0:
256,192,130835,1,0,0:0:0:0:
160,192,131062,1,0,0:0:0:0:
192,192,131176,1,0,0:0:0:0:
192,192,131290,1,0,0:0:0:0:
224,192,131403,1,0,0:0:0:0:
256,192,131517,1,8,0:0:0:0:
256,192,131972,1,0,0:0:0:0:
256,192,132199,1,0,0:0:0:0:
256,192,132426,1,0,0:0:0:0:
256,192,132653,1,0,0:0:0:0:
256,192,132881,1,0,0:0:0:0:
256,192,133108,1,0,0:0:0:0:
256,192,133335,1,4,0:0:0:0:
256,192,147881,5,8,0:0:0:0:
256,192,148108,1,0,0:0:0:0:
256,192,148335,1,8,0:0:0:0:
256,192,148790,1,0,0:0:0:0:
256,192,149017,1,8,0:0:0:0:
256,192,149244,1,0,0:0:0:0:
256,192,149699,1,8,0:0:0:0:
256,192,149812,1,8,0:0:0:0:
256,192,149926,1,0,0:0:0:0:
256,192,150153,1,8,0:0:0:0:
256,192,150608,1,0,0:0:0:0:
256,192,150835,1,8,0:0:0:0:
256,192,151062,1,0,0:0:0:0:
224,192,151290,1,0,0:0:0:0:
224,192,151403,1,0,0:0:0:0:
256,192,151517,1,8,0:0:0:0:
256,192,151744,1,0,0:0:0:0:
256,192,151972,1,8,0:0:0:0:
256,192,152426,1,8,0:0:0:0:
256,192,152653,1,0,0:0:0:0:
256,192,152881,1,8,0:0:0:0:
256,192,153108,1,0,0:0:0:0:
256,192,153335,1,8,0:0:0:0:
256,192,153562,1,0,0:0:0:0:
256,192,153790,1,8,0:0:0:0:
256,192,154244,1,8,0:0:0:0:
256,192,154472,1,8,0:0:0:0:
256,192,154699,1,8,0:0:0:0:
256,192,154926,1,0,0:0:0:0:
256,192,155040,1,0,0:0:0:0:
256,192,155153,1,8,0:0:0:0:
256,192,155381,1,0,0:0:0:0:
256,192,155608,1,8,0:0:0:0:
256,192,155835,1,0,0:0:0:0:
256,192,156062,1,8,0:0:0:0:
256,192,156517,1,8,0:0:0:0:
256,192,156744,1,0,0:0:0:0:
256,192,156972,1,8,0:0:0:0:
256,192,157199,1,0,0:0:0:0:
256,192,157426,1,8,0:0:0:0:
256,192,157653,1,0,0:0:0:0:
256,192,157881,1,8,0:0:0:0:
256,192,158335,1,8,0:0:0:0:
256,192,158562,1,0,0:0:0:0:
256,192,158790,1,8,0:0:0:0:
256,192,159017,1,0,0:0:0:0:
256,192,159244,1,8,0:0:0:0:
256,192,159472,1,0,0:0:0:0:
256,192,159699,1,8,0:0:0:0:
256,192,160153,1,8,0:0:0:0:
256,192,160381,1,0,0:0:0:0:
256,192,160608,1,8,0:0:0:0:
256,192,160835,1,0,0:0:0:0:
256,192,161062,1,0,0:0:0:0:
256,192,161290,1,0,0:0:0:0:
256,192,161517,1,0,0:0:0:0:
256,192,161744,1,0,0:0:0:0:
256,192,161972,1,0,0:0:0:0:
256,192,162199,1,0,0:0:0:0:
256,192,166062,5,0,0:0:0:0:
256,192,166290,1,8,0:0:0:0:
256,192,166403,1,8,0:0:0:0:
256,192,166517,1,0,0:0:0:0:
256,192,166744,1,8,0:0:0:0:
256,192,167199,1,0,0:0:0:0:
256,192,167426,1,8,0:0:0:0:
256,192,167653,1,0,0:0:0:0:
256,192,167881,1,0,0:0:0:0:
256,192,168108,1,8,0:0:0:0:
256,192,168222,1,8,0:0:0:0:
256,192,168335,1,0,0:0:0:0:
256,192,168562,1,8,0:0:0:0:
256,192,169017,1,8,0:0:0:0:
256,192,169244,1,0,0:0:0:0:
256,192,169472,1,0,0:0:0:0:
256,192,169699,1,12,0:0:0:0:
256,192,169926,1,8,0:0:0:0:
256,192,170040,1,8,0:0:0:0:
256,192,170153,1,0,0:0:0:0:
256,192,170381,1,8,0:0:0:0:
256,192,170835,1,8,0:0:0:0:
256,192,171062,1,0,0:0:0:0:
256,192,171290,1,0,0:0:0:0:
256,192,171517,1,8,0:0:0:0:
256,192,171744,1,8,0:0:0:0:
256,192,171858,1,8,0:0:0:0:
256,192,171972,1,0,0:0:0:0:
256,192,172199,1,8,0:0:0:0:
256,192,172653,1,0,0:0:0:0:
160,160,172881,2,0,L|224:160,2,35
256,192,173335,1,0,0:0:0:0:
256,192,173562,1,8,0:0:0:0:
256,192,173676,1,8,0:0:0:0:
256,192,173790,1,0,0:0:0:0:
256,192,174017,1,8,0:0:0:0:
256,192,174472,1,0,0:0:0:0:
256,192,174585,1,0,0:0:0:0:
256,192,174699,1,8,0:0:0:0:
256,192,174926,1,0,0:0:0:0:
256,192,175153,1,0,0:0:0:0:
256,192,175381,1,8,0:0:0:0:
256,192,175494,1,8,0:0:0:0:
256,192,175608,1,0,0:0:0:0:
256,192,175835,1,8,0:0:0:0:
256,192,176290,1,0,0:0:0:0:
256,192,176517,1,8,0:0:0:0:
256,192,176631,1,8,0:0:0:0:
256,192,176744,1,0,0:0:0:0:
256,192,176972,1,0,0:0:0:0:
256,192,177199,1,8,0:0:0:0:
256,192,177312,1,8,0:0:0:0:
256,192,177426,1,0,0:0:0:0:
256,192,177653,1,8,0:0:0:0:
256,192,178108,1,0,0:0:0:0:
256,192,178335,1,8,0:0:0:0:
256,192,178562,1,0,0:0:0:0:
256,192,178790,1,0,0:0:0:0:
256,192,179017,1,8,0:0:0:0:
256,192,179131,1,8,0:0:0:0:
256,192,179244,1,8,0:0:0:0:
256,192,179358,1,8,0:0:0:0:
256,192,179472,1,0,0:0:0:0:
256,192,179699,1,8,0:0:0:0:
256,192,179926,1,8,0:0:0:0:
256,192,180040,1,8,0:0:0:0:
256,192,180153,1,0,0:0:0:0:
256,192,180267,1,0,0:0:0:0:
256,192,180381,1,8,0:0:0:0:
256,192,180494,1,8,0:0:0:0:
256,192,180608,1,0,0:0:0:0:
256,192,181062,1,0,0:0:0:0:
256,192,181290,1,8,0:0:0:0:
256,192,181517,1,0,0:0:0:0:
256,192,181744,1,8,0:0:0:0:
256,192,181972,1,0,0:0:0:0:
256,192,182199,1,0,0:0:0:0:
256,192,182312,1,0,0:0:0:0:
256,192,182426,1,8,0:0:0:0:
256,192,182653,1,0,0:0:0:0:
256,192,183108,1,0,0:0:0:0:
256,192,183336,1,8,0:0:0:0:
256,192,183562,1,0,0:0:0:0:
256,192,183790,1,8,0:0:0:0:
256,192,184017,1,0,0:0:0:0:
256,192,184131,1,0,0:0:0:0:
256,192,184245,1,8,0:0:0:0:
256,192,184472,1,0,0:0:0:0:
256,192,184926,1,0,0:0:0:0:
256,192,185153,1,8,0:0:0:0:
256,192,185381,1,0,0:0:0:0:
256,192,185608,1,8,0:0:0:0:
256,192,185835,1,0,0:0:0:0:
256,192,185949,1,0,0:0:0:0:
256,192,186062,1,8,0:0:0:0:
256,192,186290,1,0,0:0:0:0:
256,192,186744,1,0,0:0:0:0:
256,192,186972,1,8,0:0:0:0:
256,192,187199,1,0,0:0:0:0:
256,192,187426,1,8,0:0:0:0:
256,192,187653,1,0,0:0:0:0:
256,192,187767,1,0,0:0:0:0:
256,192,187881,1,8,0:0:0:0:
256,192,188108,1,0,0:0:0:0:
256,192,188335,1,8,0:0:0:0:
256,192,188790,1,8,0:0:0:0:
256,192,189017,1,0,0:0:0:0:
256,192,189244,1,8,0:0:0:0:
256,192,189472,1,0,0:0:0:0:
256,192,189699,1,8,0:0:0:0:
256,224,189926,1,0,0:0:0:0:
256,192,190153,1,8,0:0:0:0:
256,192,190608,1,8,0:0:0:0:
256,192,190835,1,0,0:0:0:0:
256,192,191062,1,8,0:0:0:0:
256,192,191290,1,0,0:0:0:0:
256,192,191403,1,0,0:0:0:0:
256,192,191517,1,8,0:0:0:0:
256,192,191744,1,0,0:0:0:0:
256,192,191972,1,8,0:0:0:0:
256,192,192426,1,0,0:0:0:0:
256,160,192653,1,8,0:0:0:0:
256,160,192881,1,0,0:0:0:0:
256,192,193108,1,8,0:0:0:0:
256,192,193222,1,8,0:0:0:0:
256,192,193335,1,0,0:0:0:0:
256,192,193562,1,0,0:0:0:0:
256,192,193790,1,0,0:0:0:0:
256,192,194017,1,0,0:0:0:0:
256,192,194244,1,0,0:0:0:0:
256,192,194472,1,0,0:0:0:0:
256,192,194699,1,0,0:0:0:0:
256,192,194926,1,0,0:0:0:0:
256,192,195153,1,0,0:0:0:0:
256,192,195608,1,0,0:0:0:0:
256,192,195835,1,0,0:0:0:0:
256,192,196062,1,8,0:0:0:0:
256,192,196517,1,0,0:0:0:0:
256,192,196744,1,0,0:0:0:0:
256,192,196972,1,8,0:0:0:0:
256,192,197426,1,0,0:0:0:0:
256,192,197653,1,0,0:0:0:0:
256,192,197881,1,8,0:0:0:0:
256,192,198335,1,8,0:0:0:0:
256,192,198562,1,0,0:0:0:0:
256,192,198790,1,8,0:0:0:0:
256,192,199017,1,0,0:0:0:0:
256,192,199244,1,0,0:0:0:0:
256,192,199699,1,0,0:0:0:0:
256,192,199926,1,8,0:0:0:0:
256,192,200153,1,0,0:0:0:0:
256,192,200381,1,0,0:0:0:0:
256,192,200608,1,8,0:0:0:0:
256,192,201062,1,0,0:0:0:0:
256,192,201290,1,0,0:0:0:0:
256,192,201517,1,8,0:0:0:0:
256,192,201972,1,0,0:0:0:0:
256,192,202199,1,0,0:0:0:0:
256,192,202426,1,8,0:0:0:0:
256,192,202881,1,0,0:0:0:0:
256,192,203108,1,0,0:0:0:0:
256,192,203335,1,8,0:0:0:0:
256,192,203790,1,0,0:0:0:0:
256,192,204017,1,0,0:0:0:0:
256,192,204244,1,8,0:0:0:0:
256,192,204699,1,0,0:0:0:0:
256,192,204926,1,0,0:0:0:0:
256,192,205153,1,8,0:0:0:0:
256,192,205608,1,8,0:0:0:0:
256,192,205835,1,0,0:0:0:0:
256,192,206062,1,8,0:0:0:0:
256,192,206517,1,8,0:0:0:0:
256,192,206744,1,0,0:0:0:0:
256,192,206972,1,8,0:0:0:0:
256,192,207199,1,0,0:0:0:0:
256,192,207426,1,0,0:0:0:0:
256,192,207653,1,0,0:0:0:0:
160,160,207881,2,0,L|224:160,8,35
256,192,209017,1,0,0:0:0:0:
256,192,209244,1,0,0:0:0:0:
256,192,209472,1,0,0:0:0:0:
256,192,209699,1,4,0:0:0:0:
256,192,221972,5,4,0:0:0:0:
