osu file format v14

[General]
AudioFilename: audio.mp3
AudioLeadIn: 0
PreviewTime: 59710
Countdown: 0
SampleSet: Soft
StackLeniency: 0.7
Mode: 2
LetterboxInBreaks: 0
WidescreenStoryboard: 1

[Editor]
DistanceSpacing: 1.7
BeatDivisor: 4
GridSize: 4
TimelineZoom: 1.5

[Metadata]
Title:Winding Road (TV Size)
TitleUnicode:Winding Road (TV Size)
Artist:MAN WITH A MISSION
ArtistUnicode:MAN WITH A MISSION
Creator:rew0825
Version:Salad
Source:ゴールデンカムイ
Tags:MWAM Golden Kamuy OP Opening Anime Japanese J-Rock JRock Rock Male Vocal Vocals TOKYO TANAKA Jean-Ken Johnny Kamikaze Boy DJ Santa Monica Spear Rib
BeatmapID:3393850
BeatmapSetID:1659778

[Difficulty]
HPDrainRate:3
CircleSize:3
OverallDifficulty:6.8
ApproachRate:6.8
SliderMultiplier:1.92
SliderTickRate:2

[Events]
//Background and Video events
0,0,"BG.jpg",0,0
Video,-100,"VDO.m4v"
//Break Periods
//Storyboard Layer 0 (Background)
//Storyboard Layer 1 (Fail)
//Storyboard Layer 2 (Pass)
//Storyboard Layer 3 (Foreground)
//Storyboard Layer 4 (Overlay)
//Storyboard Sound Samples

[TimingPoints]
681,454.545454545455,4,2,1,65,1,0
2499,-100,4,2,1,75,0,0
16703,-100,4,2,2,75,0,0
17044,-100,4,2,1,45,0,0
30681,-100,4,2,1,55,0,0
31590,-100,4,2,1,65,0,0
45567,-100,4,2,2,55,0,0
46135,-100,4,2,1,55,0,0
53408,-100,4,2,1,60,0,0
54317,-100,4,2,2,60,0,0
54431,-100,4,2,1,60,0,0
55908,-100,4,2,2,60,0,0
56249,-100,4,2,1,60,0,0
57044,-100,4,2,1,65,0,0
58862,-100,4,2,1,70,0,0
59771,-100,4,2,1,55,0,0
60681,-100,4,2,1,80,0,1
74544,-100,4,2,2,80,0,1
74999,-100,4,2,1,80,0,1
75112,-100,4,2,1,80,0,0
75226,-100,4,2,1,80,0,1
86135,-100,4,2,1,65,0,0

[Colours]
Combo1 : 241,244,117
Combo2 : 191,191,191
Combo3 : 213,132,230
Combo4 : 116,141,245

[HitObjects]
256,192,681,12,0,1590,0:0:0:0:
66,285,2044,6,0,L|64:187,1,96,0|4,3:2|2:3,0:0:0:0:
266,189,2499,6,0,P|340:179|384:77,1,192,14|0,3:2|1:2,0:0:0:0:
278,80,3181,2,0,L|74:81,1,192,10|0,3:2|1:2,0:0:0:0:
191,80,3862,1,10,3:2:0:0:
402,80,4317,5,8,3:2:0:0:
296,80,4544,2,0,L|294:283,1,192,2|8,1:2|3:2,0:0:0:0:
400,271,5226,2,0,P|455:230|390:152,1,192,2|10,1:2|3:2,0:0:0:0:
65,151,6135,6,0,L|63:343,1,192,14|0,3:2|1:2,0:0:0:0:
168,342,6817,2,0,L|366:341,1,192,10|0,3:2|1:2,0:0:0:0:
465,341,7499,1,10,3:2:0:0:
254,341,7953,5,8,3:2:0:0:
148,341,8181,2,0,P|90:273|157:221,1,192,2|8,1:2|3:2,0:0:0:0:
259,220,8862,2,0,L|57:220,1,192,2|10,1:2|3:2,0:0:0:0:
393,220,9771,6,0,P|446:158|377:95,1,192,14|0,3:2|1:2,0:0:0:0:
272,94,10453,2,0,P|219:156|288:219,1,192,10|0,3:2|1:2,0:0:0:0:
392,219,11135,1,10,3:2:0:0:
65,219,11590,6,0,P|48:162|138:87,1,192,14|0,3:2|1:2,0:0:0:0:
244,87,12271,2,0,P|261:144|171:219,1,192,10|0,3:2|1:2,0:0:0:0:
64,218,12953,1,10,3:2:0:0:
391,218,13408,6,0,P|447:177|378:105,1,192,14|0,3:2|1:2,0:0:0:0:
275,104,14090,2,0,L|471:104,1,192,10|0,3:2|1:2,0:0:0:0:
361,104,14771,1,8,3:2:0:0:
34,104,15226,6,0,L|31:302,1,192,14|0,3:2|1:2,0:0:0:0:
146,295,15908,1,14,3:2:0:0:
251,295,16135,5,0,1:2:0:0:
303,286,16249,1,0,3:2:0:0:
319,236,16362,1,0,3:2:0:0:
299,186,16476,1,0,3:2:0:0:
246,181,16590,1,0,1:2:0:0:
140,181,16817,1,4,2:3:0:0:
332,181,17044,6,0,P|389:177|448:66,1,192,2|2,1:2|0:0,0:0:0:0:
256,68,17953,2,0,P|192:120|256:180,1,192,2|0,0:0|3:2,0:0:0:0:
351,180,18635,5,2,1:2:0:0:
158,180,19090,2,0,P|158:228|275:278,1,192,2|0,1:2|3:2,0:0:0:0:
466,278,19999,1,0,1:2:0:0:
466,182,20226,1,2,3:2:0:0:
140,180,20681,6,0,P|86:117|159:58,1,192,2|2,1:2|1:2,0:0:0:0:
346,57,21590,2,0,P|354:117|250:166,1,192,2|2,0:0|3:2,0:0:0:0:
154,166,22271,5,2,1:2:0:0:
365,166,22726,2,0,P|418:208|352:285,1,192,2|0,1:2|3:2,0:0:0:0:
160,285,23635,1,2,1:2:0:0:
73,285,23862,1,2,3:2:0:0:
399,285,24317,6,0,P|450:238|378:162,1,192,2|2,1:2|1:2,0:0:0:0:
173,161,25226,2,0,P|114:105|182:49,1,192,2|2,0:0|3:2,0:0:0:0:
278,49,25908,5,2,0:0:0:0:
469,49,26362,1,2,1:2:0:0:
257,49,26817,2,0,L|249:260,1,192,2|0,3:2|1:2,0:0:0:0:
441,240,27726,1,2,1:2:0:0:
239,240,27953,6,0,P|162:220|126:118,1,192,2|2,1:2|1:2,0:0:0:0:
317,121,28862,2,0,P|394:141|430:243,1,192,2|2,0:0|3:2,0:0:0:0:
334,239,29544,5,2,1:2:0:0:
122,239,29999,2,0,P|59:185|132:138,1,192,2|2,1:2|3:2,0:0:0:0:
233,141,30681,1,2,0:0:0:0:
279,235,30908,1,2,0:0:0:0:
228,327,31135,1,2,0:0:0:0:
122,330,31362,1,2,0:0:0:0:
315,330,31590,6,0,P|377:268|317:207,1,192,6|10,3:2|1:2,0:0:0:0:
211,207,32271,1,0,3:2:0:0:
105,207,32499,2,0,P|51:149|119:84,1,192,10|10,1:2|3:2,0:0:0:0:
322,80,33181,6,0,L|324:180,1,96,2|8,1:2|3:2,0:0:0:0:
218,175,33635,2,0,P|141:183|98:286,1,192,2|0,1:2|3:2,0:0:0:0:
288,278,34544,1,2,1:2:0:0:
383,278,34771,1,10,3:2:0:0:
288,278,34999,1,2,1:2:0:0:
87,278,35226,6,0,P|32:202|96:153,1,192,10|10,3:2|1:2,0:0:0:0:
200,153,35908,1,0,3:2:0:0:
305,153,36135,2,0,P|357:117|288:37,1,192,10|10,1:2|3:2,0:0:0:0:
91,35,36817,6,0,L|89:138,1,96,2|8,1:2|3:2,0:0:0:0:
194,130,37271,2,0,P|272:138|306:247,1,192,2|0,1:2|3:2,0:0:0:0:
98,234,38181,2,0,P|46:172|112:104,1,192,2|2,1:2|3:2,0:0:0:0:
312,104,38862,6,0,P|368:138|302:220,1,192,14|10,3:2|1:2,0:0:0:0:
203,221,39544,1,0,3:2:0:0:
97,221,39771,2,0,P|93:290|199:333,1,192,10|10,1:2|3:2,0:0:0:0:
396,335,40453,6,0,L|398:237,1,96,2|8,1:2|3:2,0:0:0:0:
292,239,40908,2,0,P|194:209|174:127,1,192,2|2,1:2|3:2,0:0:0:0:
279,130,41590,1,8,1:2:0:0:
470,130,42044,1,10,3:2:0:0:
379,130,42271,1,2,1:2:0:0:
167,130,42499,6,0,P|110:177|182:243,1,192,10|10,3:2|1:2,0:0:0:0:
283,243,43181,1,0,3:2:0:0:
388,243,43408,2,0,P|396:187|289:124,1,192,10|10,1:2|3:2,0:0:0:0:
82,122,44317,6,0,P|41:184|97:276,1,192,10|8,3:2|1:2,0:0:0:0:
298,282,44999,2,0,L|302:187,1,96,4|10,3:2|1:2,0:0:0:0:
206,187,45453,1,0,3:2:0:0:
158,182,45567,1,8,2:3:0:0:
119,172,45681,1,4,2:3:0:0:
222,153,45908,1,4,2:3:0:0:
423,153,46135,6,0,P|489:213|321:349,1,384,4|2,1:2|0:0,0:0:0:0:
91,349,47953,2,0,P|28:280|202:144,1,384,2|2,0:0|0:0,0:0:0:0:
469,143,49771,6,0,L|141:355,2,384,2|2|2,0:0|0:0|0:0,0:0:0:0:
224,143,52226,1,2,0:0:0:0:
103,143,52499,2,0,P|54:206|104:297,1,192,2|2,0:0|0:0,0:0:0:0:
428,295,53408,6,0,L|81:90,2,384,2|10|2,1:2|2:3|1:2,0:0:0:0:
101,295,56135,2,0,L|95:92,1,192,10|2,2:3|0:0,0:0:0:0:
441,103,57044,6,0,P|483:175|424:256,1,192,2|0,1:2|1:2,0:0:0:0:
234,255,57953,1,0,3:2:0:0:
231,158,58181,1,0,3:2:0:0:
336,158,58408,1,0,3:2:0:0:
339,62,58635,1,2,3:2:0:0:
137,62,58862,5,2,3:2:0:0:
66,140,59090,1,0,3:2:0:0:
132,221,59317,1,0,3:2:0:0:
237,221,59544,1,0,3:2:0:0:
342,221,59771,2,0,P|414:209|452:101,1,192,2|2,0:0|0:0,0:0:0:0:
347,107,60453,1,2,0:0:0:0:
144,107,60681,6,0,P|94:155|151:246,1,192,14|8,3:2|3:2,0:0:0:0:
254,245,61362,2,0,P|332:236|385:144,1,192,2|2,0:0|0:0,0:0:0:0:
182,144,62044,6,0,P|99:134|66:37,1,192,10|8,3:2|3:2,0:0:0:0:
257,41,62953,1,8,3:2:0:0:
64,41,63408,2,0,L|59:251,1,192,10|10,3:2|3:2,0:0:0:0:
156,232,64090,1,2,1:2:0:0:
357,232,64317,6,0,P|425:218|445:104,1,192,14|10,3:2|3:2,0:0:0:0:
342,110,64999,2,0,L|142:110,1,192,2|2,0:0|0:0,0:0:0:0:
352,110,65681,6,0,P|401:169|343:251,1,192,10|8,3:2|3:2,0:0:0:0:
150,251,66590,1,8,3:2:0:0:
340,251,67044,2,0,P|413:238|448:132,1,192,10|10,3:2|3:2,0:0:0:0:
344,138,67726,1,2,1:2:0:0:
143,138,67953,6,0,P|71:166|69:274,1,192,14|10,3:2|3:2,0:0:0:0:
171,269,68635,2,0,L|368:271,1,192,2|2,0:0|0:0,0:0:0:0:
151,270,69317,6,0,P|80:244|65:137,1,192,10|8,3:2|3:2,0:0:0:0:
256,138,70226,1,8,3:2:0:0:
351,138,70453,1,2,0:0:0:0:
256,138,70681,1,10,3:2:0:0:
64,138,71135,1,10,3:2:0:0:
390,138,71590,6,0,P|448:209|385:265,1,192,14|2,3:2|3:2,0:0:0:0:
281,265,72271,2,0,P|175:257|117:198,1,192,14|2,1:2|1:2,0:0:0:0:
320,265,72953,6,0,P|388:257|442:151,1,192,14|0,3:2|1:2,0:0:0:0:
414,55,73635,1,8,3:2:0:0:
309,39,73862,1,8,3:2:0:0:
116,39,74317,1,10,3:2:0:0:
29,112,74544,1,10,0:3:0:0:
29,164,74658,1,8,0:3:0:0:
59,206,74771,1,6,0:3:0:0:
164,215,74999,1,0,1:2:0:0:
365,215,75226,6,0,P|422:168|362:90,1,192,14|10,3:2|3:2,0:0:0:0:
256,90,75908,2,0,P|194:146|262:206,1,192,2|2,1:2|1:2,0:0:0:0:
459,206,76590,6,0,P|470:262|367:317,1,192,14|8,3:2|3:2,0:0:0:0:
181,319,77499,1,8,3:2:0:0:
372,319,77953,1,10,3:2:0:0:
468,315,78181,1,2,1:2:0:0:
372,319,78408,1,10,3:2:0:0:
45,319,78862,6,0,P|32:252|125:186,1,192,14|10,3:2|3:2,0:0:0:0:
227,185,79544,2,0,P|296:176|339:71,1,192,2|2,1:2|1:2,0:0:0:0:
136,72,80226,6,0,P|81:125|147:206,1,192,14|8,3:2|3:2,0:0:0:0:
330,205,81135,1,8,3:2:0:0:
137,205,81590,2,0,P|62:169|67:71,1,192,10|10,3:2|3:2,0:0:0:0:
160,58,82271,1,2,1:2:0:0:
362,58,82499,6,0,P|418:106|357:184,1,192,14|10,3:2|3:2,0:0:0:0:
251,183,83181,2,0,P|263:231|390:269,1,192,2|2,1:2|1:2,0:0:0:0:
174,270,83862,6,0,P|106:246|70:129,1,192,14|8,3:2|3:2,0:0:0:0:
259,140,84771,1,8,3:2:0:0:
355,140,84999,1,2,1:2:0:0:
259,140,85226,1,10,3:2:0:0:
66,140,85681,1,10,3:2:0:0:
276,140,86135,6,0,P|333:200|271:269,1,192,2|2,0:0|0:0,0:0:0:0:
166,268,86817,2,0,P|115:221|177:137,1,192,2|2,0:0|0:0,0:0:0:0:
282,140,87499,2,0,P|384:117|422:42,1,192,2|0,0:0|0:0,0:0:0:0:
