osu file format v14

[General]
AudioFilename: audio.mp3
AudioLeadIn: 0
PreviewTime: 59710
Countdown: 0
SampleSet: Soft
StackLeniency: 0.7
Mode: 2
LetterboxInBreaks: 0
WidescreenStoryboard: 1

[Editor]
DistanceSpacing: 1.1
BeatDivisor: 4
GridSize: 8
TimelineZoom: 1.5

[Metadata]
Title:Winding Road (TV Size)
TitleUnicode:Winding Road (TV Size)
Artist:MAN WITH A MISSION
ArtistUnicode:MAN WITH A MISSION
Creator:rew0825
Version:Rain
Source:ゴールデンカムイ
Tags:MWAM Golden Kamuy OP Opening Anime Japanese J-Rock JRock Rock Male Vocal Vocals TOKYO TANAKA Jean-Ken Johnny Kamikaze Boy DJ Santa Monica Spear Rib
BeatmapID:3388297
BeatmapSetID:1659778

[Difficulty]
HPDrainRate:5
CircleSize:4
OverallDifficulty:8.8
ApproachRate:8.8
SliderMultiplier:2.32
SliderTickRate:2

[Events]
//Background and Video events
0,0,"BG.jpg",0,0
Video,-100,"VDO.m4v"
//Break Periods
//Storyboard Layer 0 (Background)
//Storyboard Layer 1 (Fail)
//Storyboard Layer 2 (Pass)
//Storyboard Layer 3 (Foreground)
//Storyboard Layer 4 (Overlay)
//Storyboard Sound Samples

[TimingPoints]
681,454.545454545455,4,2,1,65,1,0
2499,-100,4,2,1,75,0,0
16703,-100,4,2,2,75,0,0
17044,-100,4,2,1,45,0,0
30681,-100,4,2,1,55,0,0
31590,-100,4,2,1,65,0,0
45567,-100,4,2,2,55,0,0
46135,-100,4,2,1,55,0,0
53408,-100,4,2,1,60,0,0
54317,-100,4,2,2,60,0,0
54431,-100,4,2,1,60,0,0
55908,-100,4,2,2,60,0,0
56249,-100,4,2,1,60,0,0
57044,-100,4,2,1,65,0,0
58862,-100,4,2,1,70,0,0
59771,-100,4,2,1,55,0,0
60681,-100,4,2,1,80,0,1
74544,-100,4,2,2,80,0,1
74999,-100,4,2,1,80,0,1
75112,-100,4,2,1,80,0,0
75226,-100,4,2,1,80,0,1
86135,-100,4,2,1,65,0,0

[Colours]
Combo1 : 241,244,117
Combo2 : 191,191,191
Combo3 : 213,132,230
Combo4 : 116,141,245

[HitObjects]
256,192,681,12,0,1817,0:0:0:0:
200,289,2044,6,0,L|199:226,1,58,0|8,3:2|2:3,0:0:0:0:
309,231,2271,2,0,L|310:167,1,58,4|4,2:3|2:3,0:0:0:0:
86,173,2499,6,0,L|85:292,1,116,14|0,3:2|1:2,0:0:0:0:
270,288,2953,1,0,1:2:0:0:
85,288,3181,2,0,L|83:173,1,116,10|0,3:2|1:2,0:0:0:0:
272,172,3635,1,0,1:2:0:0:
86,173,3862,2,0,L|85:57,1,116,10|0,3:2|1:2,0:0:0:0:
387,57,4317,5,8,3:2:0:0:
201,57,4544,2,0,L|202:173,1,116,2|0,1:2|1:2,0:0:0:0:
388,172,4999,1,8,3:2:0:0:
202,172,5226,2,0,L|325:171,1,116,2|0,1:2|1:2,0:0:0:0:
131,171,5681,2,0,L|129:293,1,116,10|0,3:2|1:2,0:0:0:0:
441,286,6135,6,0,L|442:164,1,116,14|0,3:2|1:2,0:0:0:0:
256,171,6590,1,0,1:2:0:0:
444,170,6817,2,0,L|444:51,1,116,10|0,3:2|1:2,0:0:0:0:
258,55,7271,1,0,1:2:0:0:
444,55,7499,2,0,L|445:178,1,116,10|0,3:2|1:2,0:0:0:0:
143,170,7953,5,8,3:2:0:0:
329,170,8181,2,0,L|328:53,1,116,2|0,1:2|1:2,0:0:0:0:
142,54,8635,1,8,3:2:0:0:
328,54,8862,2,0,L|181:54,1,116,2|0,1:2|1:2,0:0:0:0:
398,54,9317,2,0,L|400:179,1,116,10|0,3:2|1:2,0:0:0:0:
87,169,9771,6,0,L|85:286,1,116,14|0,3:2|1:2,0:0:0:0:
271,284,10226,1,0,1:2:0:0:
85,284,10453,2,0,L|85:165,1,116,10|0,3:2|1:2,0:0:0:0:
271,168,10908,1,0,1:2:0:0:
85,168,11135,2,0,L|83:47,1,116,10|0,3:2|1:2,0:0:0:0:
395,54,11590,6,0,L|398:169,1,116,14|0,3:2|1:2,0:0:0:0:
212,169,12044,1,0,1:2:0:0:
398,169,12271,2,0,L|400:292,1,116,10|0,3:2|1:2,0:0:0:0:
213,284,12726,1,0,1:2:0:0:
399,284,12953,2,0,L|401:164,1,116,10|0,3:2|1:2,0:0:0:0:
336,168,13294,1,0,3:2:0:0:
114,168,13408,6,0,L|111:47,1,116,14|0,3:2|1:2,0:0:0:0:
296,52,13862,1,0,1:2:0:0:
111,52,14090,2,0,L|230:53,1,116,10|0,3:2|1:2,0:0:0:0:
41,52,14544,1,0,1:2:0:0:
227,52,14771,2,0,L|103:51,1,116,8|0,3:2|1:2,0:0:0:0:
413,51,15226,6,0,P|428:94|412:165,1,116,14|0,3:2|1:2,0:0:0:0:
228,166,15681,1,0,1:2:0:0:
425,167,15908,1,14,3:2:0:0:
429,278,16135,5,0,1:2:0:0:
366,282,16249,1,0,3:2:0:0:
165,282,16362,1,0,3:2:0:0:
229,282,16476,1,0,3:2:0:0:
433,282,16590,1,0,1:2:0:0:
468,229,16703,1,8,2:3:0:0:
430,177,16817,1,4,2:3:0:0:
365,177,16931,1,4,2:3:0:0:
134,177,17044,6,0,P|55:113|138:55,1,232,2|2,1:2|0:0,0:0:0:0:
309,54,17726,1,0,3:2:0:0:
135,54,17953,2,0,P|57:123|139:177,1,232,2|0,0:0|3:2,0:0:0:0:
323,177,18635,6,0,L|326:307,1,116,2|0,1:2|1:2,0:0:0:0:
139,292,19090,2,0,L|137:160,1,116,2|0,1:2|0:0,0:0:0:0:
323,177,19544,2,0,P|402:127|321:59,1,232,0|0,3:2|1:2,0:0:0:0:
135,58,20226,2,0,L|19:58,1,116,2|0,3:2|1:2,0:0:0:0:
322,57,20681,6,0,P|399:58|448:187,1,232,2|2,1:2|1:2,0:0:0:0:
274,186,21362,1,0,3:2:0:0:
448,186,21590,2,0,P|429:78|322:57,1,232,2|2,0:0|3:2,0:0:0:0:
136,56,22271,6,0,L|134:188,1,116,2|0,1:2|1:2,0:0:0:0:
320,171,22726,2,0,L|323:298,1,116,2|0,1:2|0:0,0:0:0:0:
137,286,23181,2,0,P|59:233|141:162,1,232,0|2,3:2|1:2,0:0:0:0:
323,161,23862,2,0,L|480:161,1,116,2|0,3:2|1:2,0:0:0:0:
138,161,24317,6,0,P|62:228|140:296,1,232,2|2,1:2|1:2,0:0:0:0:
314,295,24999,1,0,3:2:0:0:
140,295,25226,2,0,L|386:296,1,232,2|2,0:0|3:2,0:0:0:0:
185,295,25908,6,0,L|181:167,1,116,2|0,0:0|1:2,0:0:0:0:
366,179,26362,2,0,L|368:309,1,116,2|0,1:2|0:0,0:0:0:0:
185,295,26817,2,0,P|91:280|83:160,1,232,2|0,3:2|1:2,0:0:0:0:
221,161,27499,1,0,3:2:0:0:
82,161,27726,1,2,1:2:0:0:
383,161,27953,6,0,P|458:212|381:296,1,232,2|2,1:2|1:2,0:0:0:0:
208,296,28635,1,0,3:2:0:0:
382,296,28862,2,0,L|135:297,1,232,2|2,0:0|3:2,0:0:0:0:
336,296,29544,6,0,L|337:165,1,116,2|0,1:2|1:2,0:0:0:0:
150,180,29999,2,0,L|149:310,1,116,2|0,1:2|1:2,0:0:0:0:
336,296,30453,1,2,3:2:0:0:
149,295,30681,2,0,L|22:296,2,116,2|2|2,0:0|0:0|0:0,0:0:0:0:
336,296,31362,1,2,0:0:0:0:
34,201,31590,6,0,L|31:86,1,116,6|0,3:2|1:2,0:0:0:0:
216,85,32044,2,0,L|78:84,1,116,10|0,1:2|3:2,0:0:0:0:
286,84,32499,2,0,L|287:201,1,116,10|0,1:2|1:2,0:0:0:0:
101,199,32953,1,10,3:2:0:0:
403,199,33181,6,0,L|405:84,1,116,2|8,1:2|3:2,0:0:0:0:
219,83,33635,2,0,L|97:83,2,116,2|8|0,1:2|1:2|3:2,0:0:0:0:
405,83,34317,2,0,L|406:199,1,116,8|2,1:2|1:2,0:0:0:0:
221,198,34771,1,10,3:2:0:0:
407,199,34999,1,2,1:2:0:0:
111,199,35226,6,0,L|110:84,1,116,10|0,3:2|1:2,0:0:0:0:
296,82,35681,2,0,L|432:83,1,116,10|0,1:2|3:2,0:0:0:0:
226,83,36135,2,0,L|224:212,1,116,10|0,1:2|1:2,0:0:0:0:
410,198,36590,1,10,3:2:0:0:
108,198,36817,6,0,L|107:71,1,116,2|8,1:2|3:2,0:0:0:0:
292,82,37271,2,0,L|425:80,2,116,2|8|0,1:2|1:2|3:2,0:0:0:0:
105,82,37953,1,8,1:2:0:0:
292,82,38181,2,0,L|293:213,1,116,2|8,1:2|3:2,0:0:0:0:
107,197,38635,1,2,3:2:0:0:
42,197,38749,1,0,3:2:0:0:
261,197,38862,6,0,L|393:197,1,116,14|0,3:2|1:2,0:0:0:0:
190,197,39317,2,0,L|189:66,1,116,10|0,1:2|3:2,0:0:0:0:
374,81,39771,2,0,L|241:81,1,116,10|2,1:2|1:2,0:0:0:0:
444,81,40226,1,10,3:2:0:0:
142,81,40453,6,0,L|139:217,1,116,2|8,1:2|3:2,0:0:0:0:
325,196,40908,2,0,L|327:73,1,116,2|8,1:2|1:2,0:0:0:0:
142,81,41362,2,0,L|260:81,2,116,2|8|0,3:2|1:2|1:2,0:0:0:0:
328,81,42044,1,10,3:2:0:0:
144,81,42271,1,2,1:2:0:0:
446,81,42499,6,0,L|448:198,1,116,10|0,3:2|1:2,0:0:0:0:
262,196,42953,2,0,L|389:196,1,116,10|0,1:2|3:2,0:0:0:0:
191,196,43408,2,0,L|190:69,1,116,10|0,1:2|1:2,0:0:0:0:
377,80,43862,2,0,L|378:213,1,116,10|0,3:2|1:2,0:0:0:0:
75,195,44317,6,0,L|204:196,2,116,10|0|8,3:2|1:2|1:2,0:0:0:0:
389,195,44999,1,4,3:2:0:0:
203,195,45226,2,0,P|183:147|204:88,1,116,10|0,1:2|3:2,0:0:0:0:
266,84,45567,1,8,2:3:0:0:
463,84,45681,1,4,2:3:0:0:
481,144,45794,1,4,2:3:0:0:
446,197,45908,1,4,2:3:0:0:
382,202,46021,1,4,2:3:0:0:
160,293,46135,6,0,P|21:180|205:69,3,464,4|2|2|2,1:2|0:0|0:0|0:0,0:0:0:0:
438,51,49771,6,0,P|450:188|148:261,2,464,2|2|2,0:0|0:0|0:0,0:0:0:0:
138,51,52226,1,2,0:0:0:0:
347,51,52499,2,0,P|437:57|480:178,1,232,2|2,0:0|0:0,0:0:0:0:
363,177,53181,1,2,0:2:0:0:
61,177,53408,6,0,P|57:276|261:335,1,348,2|0,1:2|0:0,0:0:0:0:
74,333,54317,2,0,P|20:253|189:155,1,348,10|0,2:3|0:0,0:0:0:0:
387,171,55226,6,0,P|481:132|354:20,1,348,2|4,1:2|2:3,0:0:0:0:
168,19,56135,2,0,L|166:155,1,116,10|0,2:3|0:0,0:0:0:0:
352,134,56590,2,0,L|356:252,1,116,2|0,0:0|0:0,0:0:0:0:
61,249,57044,6,0,P|66:175|199:118,1,232,2|0,1:2|1:2,0:0:0:0:
383,116,57726,1,0,1:2:0:0:
196,116,57953,1,0,3:2:0:0:
67,116,58181,1,0,3:2:0:0:
196,116,58408,1,0,3:2:0:0:
383,116,58635,1,2,3:2:0:0:
93,116,58862,6,0,L|90:249,1,116,2|0,3:2|3:2,0:0:0:0:
264,231,59317,1,0,3:2:0:0:
90,231,59544,1,0,3:2:0:0:
275,231,59771,2,0,L|277:105,1,116,2|2,0:0|0:0,0:0:0:0:
93,116,60226,2,0,L|91:232,1,116,2|2,0:0|0:0,0:0:0:0:
417,230,60681,6,0,L|279:231,1,116,14|0,3:2|1:2,0:0:0:0:
474,230,61135,1,8,3:2:0:0:
184,230,61362,2,0,L|185:109,1,116,2|8,0:0|3:2,0:0:0:0:
371,114,61817,1,2,0:0:0:0:
69,114,62044,6,0,L|68:242,1,116,10|0,3:2|1:2,0:0:0:0:
254,229,62499,2,0,L|105:229,1,116,8|0,3:2|1:2,0:0:0:0:
323,229,62953,2,0,P|400:181|321:105,1,232,8|10,3:2|3:2,0:0:0:0:
135,104,63635,1,2,1:2:0:0:
436,104,63862,2,0,L|438:238,1,116,10|2,3:2|1:2,0:0:0:0:
123,219,64317,6,0,L|255:221,1,116,14|0,3:2|1:2,0:0:0:0:
65,220,64771,1,10,3:2:0:0:
366,220,64999,2,0,L|235:220,1,116,2|8,0:0|3:2,0:0:0:0:
423,220,65453,1,2,0:0:0:0:
120,220,65681,6,0,L|119:92,1,116,10|0,3:2|1:2,0:0:0:0:
304,104,66135,2,0,L|454:106,1,116,8|0,3:2|1:2,0:0:0:0:
233,105,66590,2,0,P|155:152|234:226,1,232,8|10,3:2|3:2,0:0:0:0:
419,226,67271,1,2,1:2:0:0:
116,226,67499,2,0,L|110:111,1,116,10|2,3:2|1:2,0:0:0:0:
411,110,67953,6,0,L|267:110,1,116,14|0,3:2|1:2,0:0:0:0:
469,110,68408,1,10,3:2:0:0:
179,110,68635,2,0,L|177:239,1,116,2|8,0:0|3:2,0:0:0:0:
479,225,69090,1,2,0:0:0:0:
177,225,69317,6,0,L|54:226,1,116,10|0,3:2|1:2,0:0:0:0:
246,225,69771,2,0,L|383:226,2,116,8|0|8,3:2|1:2|3:2,0:0:0:0:
61,225,70453,1,2,0:0:0:0:
361,225,70681,2,0,L|496:226,1,116,10|0,3:2|1:2,0:0:0:0:
176,226,71135,2,0,L|50:224,1,116,10|0,3:2|1:2,0:0:0:0:
374,224,71590,6,0,L|376:105,1,116,14|0,3:2|1:2,0:0:0:0:
190,108,72044,1,2,3:2:0:0:
491,107,72271,2,0,L|346:108,1,116,14|0,1:2|3:2,0:0:0:0:
72,107,72726,1,2,1:2:0:0:
375,107,72953,6,0,L|495:108,2,116,14|0|0,3:2|1:2|1:2,0:0:0:0:
188,107,73635,1,8,3:2:0:0:
375,107,73862,2,0,L|503:106,1,116,8|0,3:2|1:2,0:0:0:0:
188,107,74317,6,0,L|47:107,1,116,10|10,3:2|0:3,0:0:0:0:
136,107,74658,1,8,0:3:0:0:
332,107,74771,1,6,0:3:0:0:
396,107,74885,1,4,0:3:0:0:
198,107,74999,1,0,1:2:0:0:
134,107,75113,1,0,1:2:0:0:
353,107,75226,6,0,L|354:235,1,116,14|0,3:2|1:2,0:0:0:0:
167,222,75681,1,10,3:2:0:0:
469,224,75908,2,0,L|339:222,1,116,2|8,1:2|3:2,0:0:0:0:
167,222,76362,1,2,1:2:0:0:
481,222,76590,6,0,L|482:87,1,116,14|0,3:2|1:2,0:0:0:0:
296,106,77044,2,0,L|411:107,2,116,8|0|8,3:2|1:2|3:2,0:0:0:0:
482,106,77726,1,0,1:2:0:0:
180,106,77953,2,0,L|56:104,1,116,10|2,3:2|1:2,0:0:0:0:
366,106,78408,2,0,L|490:106,1,116,10|0,3:2|1:2,0:0:0:0:
417,106,78749,1,0,1:2:0:0:
197,106,78862,6,0,L|196:233,1,116,14|0,3:2|1:2,0:0:0:0:
382,221,79317,1,10,3:2:0:0:
80,221,79544,2,0,L|236:222,1,116,2|8,1:2|3:2,0:0:0:0:
382,221,79999,1,2,1:2:0:0:
69,221,80226,6,0,L|68:105,1,116,14|0,3:2|1:2,0:0:0:0:
254,105,80681,2,0,L|257:233,1,116,8|0,3:2|1:2,0:0:0:0:
442,220,81135,2,0,L|444:91,1,116,8|0,3:2|1:2,0:0:0:0:
130,104,81590,2,0,L|12:106,1,116,10|2,3:2|1:2,0:0:0:0:
315,104,82044,1,10,3:2:0:0:
130,104,82271,2,0,L|128:171,1,58,2|0,1:2|1:2,0:0:0:0:
351,161,82499,6,0,L|352:278,1,116,14|0,3:2|1:2,0:0:0:0:
166,276,82953,1,10,3:2:0:0:
468,276,83181,2,0,L|470:156,1,116,2|8,1:2|3:2,0:0:0:0:
168,160,83635,1,2,1:2:0:0:
469,160,83862,6,0,L|342:160,1,116,14|0,3:2|1:2,0:0:0:0:
168,160,84317,2,0,L|302:159,2,116,8|0|8,3:2|1:2|3:2,0:0:0:0:
354,160,84999,1,2,1:2:0:0:
52,160,85226,2,0,L|50:296,1,116,10|0,3:2|1:2,0:0:0:0:
352,275,85681,1,10,3:2:0:0:
175,275,85908,1,0,1:2:0:0:
174,205,86021,1,0,1:2:0:0:
371,205,86135,6,0,P|444:137|359:82,1,232,2|2,0:0|0:0,0:0:0:0:
167,80,86817,2,0,P|92:132|176:204,1,232,2|2,0:0|0:0,0:0:0:0:
359,204,87499,2,0,P|377:147|255:65,1,232,2|0,0:0|0:0,0:0:0:0:
