osu file format v14

[General]
AudioFilename: audio.mp3
AudioLeadIn: 0
PreviewTime: 59710
Countdown: 0
SampleSet: Soft
StackLeniency: 0.7
Mode: 2
LetterboxInBreaks: 0
WidescreenStoryboard: 1

[Editor]
DistanceSpacing: 1
BeatDivisor: 4
GridSize: 4
TimelineZoom: 1.5

[Metadata]
Title:Winding Road (TV Size)
TitleUnicode:Winding Road (TV Size)
Artist:MAN WITH A MISSION
ArtistUnicode:MAN WITH A MISSION
Creator:rew0825
Version:Cup
Source:ゴールデンカムイ
Tags:MWAM Golden Kamuy OP Opening Anime Japanese J-Rock JRock Rock Male Vocal Vocals TOKYO TANAKA Jean-Ken Johnny Kamikaze Boy DJ Santa Monica Spear Rib
BeatmapID:3394164
BeatmapSetID:1659778

[Difficulty]
HPDrainRate:2
CircleSize:2.5
OverallDifficulty:5.8
ApproachRate:5.8
SliderMultiplier:1.76
SliderTickRate:2

[Events]
//Background and Video events
0,0,"BG.jpg",0,0
Video,-100,"VDO.m4v"
//Break Periods
//Storyboard Layer 0 (Background)
//Storyboard Layer 1 (Fail)
//Storyboard Layer 2 (Pass)
//Storyboard Layer 3 (Foreground)
//Storyboard Layer 4 (Overlay)
//Storyboard Sound Samples

[TimingPoints]
681,454.545454545455,4,2,1,65,1,0
2499,-100,4,2,1,75,0,0
16703,-100,4,2,2,75,0,0
17044,-100,4,2,1,45,0,0
30681,-100,4,2,1,55,0,0
31590,-100,4,2,1,65,0,0
45567,-100,4,2,2,55,0,0
46135,-100,4,2,1,55,0,0
53408,-100,4,2,1,60,0,0
54317,-100,4,2,2,60,0,0
54431,-100,4,2,1,60,0,0
55908,-100,4,2,2,60,0,0
56249,-100,4,2,1,60,0,0
57044,-100,4,2,1,65,0,0
58862,-100,4,2,1,70,0,0
59771,-100,4,2,1,55,0,0
60681,-100,4,2,1,80,0,1
74544,-100,4,2,2,80,0,1
74999,-100,4,2,1,80,0,1
75112,-100,4,2,1,80,0,0
75226,-100,4,2,1,80,0,1
86135,-100,4,2,1,65,0,0

[Colours]
Combo1 : 241,244,117
Combo2 : 191,191,191
Combo3 : 213,132,230
Combo4 : 116,141,245

[HitObjects]
256,192,681,12,0,1590,0:0:0:0:
150,286,2044,5,0,3:2:0:0:
343,286,2499,6,0,P|423:264|335:174,1,264,14|10,3:2|3:2,0:0:0:0:
99,172,3862,1,10,3:2:0:0:
275,172,4317,5,8,3:2:0:0:
178,172,4544,2,0,P|91:213|185:293,1,264,2|2,1:2|1:2,0:0:0:0:
360,293,5681,1,10,3:2:0:0:
166,293,6135,6,0,L|409:187,2,264,14|10|10,3:2|3:2|3:2,0:0:0:0:
342,293,7953,5,8,3:2:0:0:
439,293,8181,2,0,P|467:240|341:120,1,264,2|2,1:2|1:2,0:0:0:0:
168,119,9317,1,10,3:2:0:0:
361,119,9771,6,0,L|118:225,2,264,14|10|10,3:2|3:2|3:2,0:0:0:0:
166,119,11590,6,0,P|76:164|170:244,1,264,14|10,3:2|3:2,0:0:0:0:
403,245,12953,1,10,3:2:0:0:
209,245,13408,6,0,P|132:215|34:62,2,264,14|10|8,3:2|3:2|3:2,0:0:0:0:
402,245,15226,6,0,P|450:178|393:122,1,176,14|0,3:2|1:2,0:0:0:0:
287,122,15908,1,14,3:2:0:0:
242,205,16135,1,0,1:2:0:0:
290,286,16362,1,0,3:2:0:0:
387,286,16590,1,0,1:2:0:0:
211,286,17044,6,0,P|129:267|90:191,1,176,2|2,1:2|0:0,0:0:0:0:
266,190,17953,2,0,P|339:179|386:94,1,176,2|0,0:0|3:2,0:0:0:0:
297,95,18635,5,2,1:2:0:0:
120,95,19090,2,0,L|118:281,1,176,2|0,1:2|3:2,0:0:0:0:
355,270,20226,1,2,3:2:0:0:
161,270,20681,6,0,P|183:198|272:172,1,176,2|2,1:2|1:2,0:0:0:0:
448,172,21590,2,0,P|426:100|337:74,1,176,2|2,0:0|3:2,0:0:0:0:
249,269,22271,5,2,1:2:0:0:
72,269,22726,2,0,P|65:211|163:154,1,176,2|0,1:2|3:2,0:0:0:0:
329,152,23635,1,2,1:2:0:0:
332,64,23862,1,2,3:2:0:0:
138,64,24317,6,0,P|90:115|143:189,1,176,2|2,1:2|1:2,0:0:0:0:
337,189,25226,2,0,P|414:180|451:91,1,176,2|2,0:0|3:2,0:0:0:0:
354,97,25908,5,2,0:0:0:0:
179,97,26362,1,2,1:2:0:0:
354,97,26817,2,0,L|356:283,1,176,2|0,3:2|1:2,0:0:0:0:
179,272,27726,1,2,1:2:0:0:
275,272,27953,6,0,P|345:259|388:165,1,176,2|2,1:2|1:2,0:0:0:0:
212,171,28862,2,0,P|142:158|99:64,1,176,2|2,0:0|3:2,0:0:0:0:
195,70,29544,5,2,1:2:0:0:
371,70,29999,2,0,P|422:121|366:191,1,176,2|2,1:2|3:2,0:0:0:0:
270,190,30681,6,0,L|112:278,1,176,2|2,0:0|0:0,0:0:0:0:
212,275,31362,1,2,0:0:0:0:
317,275,31590,6,0,P|393:261|441:173,1,176,6|10,3:2|1:2,0:0:0:0:
264,180,32499,2,0,P|188:166|140:78,1,176,10|10,1:2|3:2,0:0:0:0:
237,85,33181,5,2,1:2:0:0:
412,85,33635,2,0,P|456:147|401:218,1,176,2|0,1:2|3:2,0:0:0:0:
226,217,34544,1,2,1:2:0:0:
223,304,34771,1,10,3:2:0:0:
416,304,35226,6,0,L|245:242,1,176,10|10,3:2|1:2,0:0:0:0:
74,244,36135,2,0,L|245:182,1,176,10|10,1:2|3:2,0:0:0:0:
243,95,36817,5,2,1:2:0:0:
67,95,37271,2,0,L|65:278,1,176,2|0,1:2|3:2,0:0:0:0:
241,270,38181,2,0,L|414:236,1,176,2|2,1:2|3:2,0:0:0:0:
317,236,38862,6,0,L|132:213,1,176,14|10,3:2|1:2,0:0:0:0:
318,214,39771,2,0,L|322:33,1,176,10|10,1:2|3:2,0:0:0:0:
224,38,40453,6,0,P|162:44|105:141,1,176,2|2,1:2|1:2,0:0:0:0:
280,133,41362,2,0,P|349:148|377:248,1,176,2|0,3:2|1:2,0:0:0:0:
282,240,42044,1,10,3:2:0:0:
88,240,42499,6,0,P|45:176|106:100,1,176,10|10,3:2|1:2,0:0:0:0:
271,102,43408,1,10,1:2:0:0:
95,102,43862,1,10,3:2:0:0:
288,102,44317,6,0,P|331:164|283:241,1,176,10|8,3:2|1:2,0:0:0:0:
177,240,44999,1,4,3:2:0:0:
175,152,45226,1,10,1:2:0:0:
271,152,45453,1,0,3:2:0:0:
351,145,45681,1,4,2:3:0:0:
271,152,45908,1,4,2:3:0:0:
165,152,46135,6,0,P|43:215|168:311,1,352,4|2,1:2|0:0,0:0:0:0:
378,311,47953,2,0,P|446:227|293:102,1,352,2|2,0:0|0:0,0:0:0:0:
47,101,49771,6,0,L|339:297,2,352,2|2|2,0:0|0:0|0:0,0:0:0:0:
328,101,52499,2,0,L|332:291,1,176,2|2,0:0|0:0,0:0:0:0:
137,276,53408,6,0,L|430:80,2,352,2|10|2,1:2|2:3|1:2,0:0:0:0:
418,276,56135,2,0,L|421:100,1,176,10|2,2:3|0:0,0:0:0:0:
227,100,57044,6,0,L|44:91,1,176,2|0,1:2|1:2,0:0:0:0:
227,91,57953,2,0,L|417:84,1,176,0|0,3:2|3:2,0:0:0:0:
305,84,58635,1,2,3:2:0:0:
208,84,58862,6,0,P|157:142|210:208,1,176,2|0,3:2|3:2,0:0:0:0:
307,208,59544,1,0,3:2:0:0:
403,208,59771,2,0,L|406:28,1,176,2|2,0:0|0:0,0:0:0:0:
194,32,60681,6,0,P|112:57|99:145,1,176,14|8,3:2|3:2,0:0:0:0:
191,152,61362,1,2,0:0:0:0:
367,152,61817,1,2,0:0:0:0:
270,152,62044,6,0,P|232:213|272:302,1,176,10|8,3:2|3:2,0:0:0:0:
447,301,62953,1,8,3:2:0:0:
253,301,63408,2,0,L|65:303,1,176,10|10,3:2|3:2,0:0:0:0:
288,302,64317,6,0,L|466:272,1,176,14|10,3:2|3:2,0:0:0:0:
366,301,64999,1,2,0:0:0:0:
191,301,65453,1,2,0:0:0:0:
288,302,65681,6,0,P|333:232|280:167,1,176,10|8,3:2|3:2,0:0:0:0:
106,167,66590,1,8,3:2:0:0:
281,167,67044,2,0,L|95:167,1,176,10|10,3:2|3:2,0:0:0:0:
316,167,67953,6,0,P|361:227|309:301,1,176,14|10,3:2|3:2,0:0:0:0:
212,300,68635,1,2,0:0:0:0:
388,300,69090,1,2,0:0:0:0:
291,300,69317,6,0,P|209:274|172:189,1,176,10|8,3:2|3:2,0:0:0:0:
348,197,70226,1,8,3:2:0:0:
171,197,70681,2,0,L|357:197,1,176,10|10,3:2|3:2,0:0:0:0:
135,197,71590,6,0,P|83:259|137:327,1,176,14|2,3:2|3:2,0:0:0:0:
237,325,72271,1,14,1:2:0:0:
413,325,72726,1,2,1:2:0:0:
307,325,72953,6,0,P|261:271|326:191,1,176,14|0,3:2|1:2,0:0:0:0:
408,193,73635,1,8,3:2:0:0:
409,97,73862,1,8,3:2:0:0:
215,97,74317,1,10,3:2:0:0:
120,115,74544,1,10,0:3:0:0:
123,211,74771,1,6,0:3:0:0:
219,216,74999,1,0,1:2:0:0:
333,216,75226,6,0,P|381:175|319:100,1,176,14|10,3:2|3:2,0:0:0:0:
227,99,75908,1,2,1:2:0:0:
51,99,76362,1,2,1:2:0:0:
156,99,76590,6,0,L|160:288,1,176,14|8,3:2|3:2,0:0:0:0:
335,274,77499,1,8,3:2:0:0:
141,274,77953,2,0,L|136:89,1,176,10|10,3:2|3:2,0:0:0:0:
347,98,78862,6,0,P|352:155|255:212,1,176,14|10,3:2|3:2,0:0:0:0:
164,213,79544,1,2,1:2:0:0:
340,213,79999,1,2,1:2:0:0:
445,213,80226,6,0,P|493:155|440:84,1,176,14|8,3:2|3:2,0:0:0:0:
264,84,81135,1,8,3:2:0:0:
440,84,81590,2,0,P|420:134|302:177,1,176,10|10,3:2|3:2,0:0:0:0:
102,179,82499,6,0,P|65:246|104:332,1,176,14|10,3:2|3:2,0:0:0:0:
199,331,83181,1,2,1:2:0:0:
374,331,83635,1,2,1:2:0:0:
268,331,83862,6,0,P|201:316|154:222,1,176,14|8,3:2|3:2,0:0:0:0:
330,226,84771,2,0,P|378:156|323:100,1,176,8|10,3:2|3:2,0:0:0:0:
129,100,85681,1,10,3:2:0:0:
304,100,86135,6,0,P|305:162|139:237,1,264,2|2,0:0|0:0,0:0:0:0:
357,240,87499,2,0,L|359:55,1,176,2|0,0:0|0:0,0:0:0:0:
