osu file format v14

[General]
AudioFilename: audio.ogg
AudioLeadIn: 0
PreviewTime: 197809
Countdown: 0
SampleSet: Normal
StackLeniency: 0.7
Mode: 1
LetterboxInBreaks: 0
WidescreenStoryboard: 0

[Editor]
DistanceSpacing: 1.8
BeatDivisor: 4
GridSize: 32
TimelineZoom: 3.899998

[Metadata]
Title:When My Devil Rises
TitleUnicode:When My Devil Rises
Artist:MAN WITH A MISSION
ArtistUnicode:MAN WITH A MISSION
Creator:SudoKu37
Version:Overlord
Source:
Tags:tales of purefly devilman crybaby rock english japanese jrock j-rock MWAM ソニーミュージック sony music japan records DJ Santa Monica Jean-Ken Johnny Kamikaze Boy Spear Rib Tokyo Tanaka nassrall _HeLLFly_ HeLLFly
BeatmapID:4463972
BeatmapSetID:2124050

[Difficulty]
HPDrainRate:5.5
CircleSize:5
OverallDifficulty:7
ApproachRate:5
SliderMultiplier:1.4
SliderTickRate:1

[Events]
//Background and Video events
0,0,"Pleiadess.jpg",0,115
//Break Periods
//Storyboard Layer 0 (Background)
//Storyboard Layer 1 (Fail)
//Storyboard Layer 2 (Pass)
//Storyboard Layer 3 (Foreground)
//Storyboard Layer 4 (Overlay)
//Storyboard Sound Samples

[TimingPoints]
-555,280.373831775701,4,1,0,70,1,0
426,-111.111111111111,4,1,0,70,0,0
9117,-105.26317,4,1,0,75,0,0
9258,-102.55475,4,1,0,75,0,0
9398,-100,4,1,0,80,0,0
18510,-100,4,1,0,70,0,0
22856,-100,4,1,0,80,0,0
27482,-100,4,1,0,70,0,0
31828,-100,4,1,0,80,0,0
36033,-100,4,1,0,78,0,0
36173,-102.03785,4,1,0,75,0,0
36314,-104.17596,4,1,0,74,0,0
36454,-106.38944,4,1,0,70,0,0
36594,-108.69903,4,1,0,70,0,0
36734,-111.111115,4,1,0,70,0,0
47669,-111.10095,4,1,0,70,0,0
47809,-109.69626,4,1,0,70,0,0
47949,-108.32665,4,1,0,70,0,0
48230,-105.67832,4,1,0,70,0,0
48370,-104.40663,4,1,0,70,0,0
48510,-103.16517,4,1,0,70,0,0
48790,-100.76876,4,1,0,71,0,0
48930,-99.61184,4,1,0,72,0,0
49071,-98.473175,4,1,0,73,0,0
49141,-97.91751,4,1,0,74,0,0
49211,-97.36807,4,1,0,75,0,0
49281,-96.82476,4,1,0,76,0,0
49351,-96.28748,4,1,0,80,0,0
49491,-95.23063,4,1,0,80,0,0
49772,-90.9090909090909,4,1,0,90,0,1
67015,-90.90909,4,1,0,90,0,1
67155,-92.59015,4,1,0,90,0,1
67295,-94.33455,4,1,0,90,0,1
67435,-96.14593,4,1,0,90,0,1
67575,-98.028244,4,1,0,90,0,1
67716,-100,4,1,0,80,0,0
76827,-100,4,1,0,80,0,0
76967,-102.58135,4,1,0,80,0,0
77037,-103.92266,4,1,0,80,0,0
77107,-105.29951,4,1,0,80,0,0
77247,-108.16563,4,1,0,80,0,0
77387,-111.192154,4,1,0,70,0,0
80753,-111.111115,4,1,0,72,0,0
80893,-107.14286,4,1,0,74,0,0
81033,-103.44827,4,1,0,76,0,0
81173,-100,4,1,0,80,0,0
94351,-100,4,1,0,78,0,0
94491,-102.03785,4,1,0,76,0,0
94631,-104.16048,4,1,0,74,0,0
94772,-106.38944,4,1,0,70,0,0
94912,-108.69903,4,1,0,70,0,0
95052,-111.111115,4,1,0,70,0,0
105987,-111.10095,4,1,0,71,0,0
106127,-109.69626,4,1,0,72,0,0
106267,-108.32665,4,1,0,73,0,0
106547,-105.68752,4,1,0,74,0,0
106687,-104.4156,4,1,0,75,0,0
106828,-103.16517,4,1,0,76,0,0
107108,-100.76876,4,1,0,77,0,0
107248,-99.61184,4,1,0,79,0,0
107388,-98.48116,4,1,0,79,0,0
107459,-97.91751,4,1,0,80,0,0
107529,-97.36807,4,1,0,82,0,0
107599,-96.82476,4,1,0,82,0,0
107669,-96.28748,4,1,0,83,0,0
107809,-95.23063,4,1,0,84,0,0
108089,-90.9090909090909,4,1,0,90,0,1
125332,-90.90909,4,1,0,80,0,1
125473,-92.60238,4,1,0,80,0,1
125613,-94.34724,4,1,0,80,0,1
125753,-96.15912,4,1,0,80,0,1
125893,-98.041954,4,1,0,80,0,1
126033,-76.9230769230769,4,1,0,90,0,0
127295,-133.333333333333,4,1,0,90,0,0
130519,-133.333333333333,4,1,0,70,0,0
134024,-90.92594,4,1,0,75,0,0
134094,-92.12132,4,1,0,75,0,0
134164,-93.34855,4,1,0,75,0,0
134234,-94.60893,4,1,0,75,0,0
134304,-95.90379,4,1,0,75,0,0
134445,-98.622696,4,1,0,75,0,0
134585,-101.47926,4,1,0,75,0,0
134725,-104.50623,4,1,0,75,0,0
134865,-107.71934,4,1,0,75,0,0
135005,-111.136284,4,1,0,80,0,0
159538,-111.111115,4,1,0,80,0,0
159678,-109.67921,4,1,0,80,0,0
159748,-108.977005,4,1,0,80,0,0
159818,-108.28373,4,1,0,80,0,0
159959,-106.91373,4,1,0,80,0,0
160099,-105.58731,4,1,0,80,0,0
160239,-104.29341,4,1,0,80,0,0
160379,-103.03083,4,1,0,80,0,0
160519,-101.798454,4,1,0,80,0,0
160659,-100.595215,4,1,0,80,0,0
160730,-99.995804,4,1,0,80,0,0
160800,-99.41179,4,1,0,80,0,0
160870,-98.83456,4,1,0,80,0,0
160940,-98.263985,4,1,0,80,0,0
161010,-97.699974,4,1,0,80,0,0
161080,-97.142395,4,1,0,80,0,0
161150,-96.59114,4,1,0,80,0,0
161220,-96.046104,4,1,0,80,0,0
161290,-95.507195,4,1,0,80,0,0
161360,-94.97429,4,1,0,80,0,0
161430,-94.447296,4,1,0,80,0,0
161501,-93.91873,4,1,0,80,0,0
161571,-93.40336,4,1,0,80,0,0
161641,-92.89362,4,1,0,80,0,0
161711,-92.389404,4,1,0,80,0,0
161781,-91.89064,4,1,0,80,0,0
161851,-91.39723,4,1,0,80,0,0
161921,-90.90909,4,1,0,90,0,1
178884,-90.90909,4,1,0,80,0,1
178954,-90.36144,4,1,0,80,0,1
179024,-89.82036,4,1,0,80,0,1
179094,-89.28571,4,1,0,80,0,1
179164,-88.75739,4,1,0,80,0,1
179234,-88.2353,4,1,0,80,0,1
179304,-87.7193,4,1,0,80,0,1
179374,-87.209305,4,1,0,80,0,1
179445,-86.698044,4,1,0,80,0,1
179515,-86.19982,4,1,0,80,0,1
179585,-85.70729,4,1,0,80,0,1
179655,-85.22036,4,1,0,80,0,1
179725,-84.73893,4,1,0,80,0,1
179795,-84.2629,4,1,0,80,0,1
179865,-83.7922,4,1,0,80,0,1
179935,-83.32672,4,1,0,80,0,1
180005,-83.32672,4,1,0,80,0,0
180145,-85.4607,4,1,0,70,0,0
180286,-87.72333,4,1,0,70,0,0
180566,-92.59136,4,1,0,70,0,0
180706,-95.23379,4,1,0,70,0,0
180846,-98.03145,4,1,0,70,0,0
180987,-101.020294,4,1,0,70,0,0
181127,-104.1739,4,1,0,70,0,0
181267,-107.53072,4,1,0,70,0,0
181407,-111.111115,4,1,0,70,0,0
191220,-111.111115,4,1,0,74,0,0
191360,-109.37849,4,1,0,78,0,0
191501,-107.68725,4,1,0,80,0,0
191641,-106.05897,4,1,0,80,0,0
191781,-104.4792,4,1,0,80,0,0
191921,-102.9458,4,1,0,80,0,0
192061,-101.456764,4,1,0,80,0,0
192202,-100,4,1,0,80,0,0
192482,-101.26468,4,1,0,78,0,0
192622,-102.56175,4,1,0,76,0,0
192762,-103.892494,4,1,0,74,0,0
192902,-105.25822,4,1,0,72,0,0
193043,-106.67048,4,1,0,70,0,0
193183,-108.11072,4,1,0,68,0,0
193323,-109.59038,4,1,0,66,0,0
193463,-111.111115,4,1,0,64,0,0
197388,-100,4,1,0,80,0,0
197809,-90.9090909090909,4,1,0,90,0,1
232716,-90.90909,4,1,0,90,0,1
232786,-91.50327,4,1,0,90,0,1
232856,-92.105255,4,1,0,90,0,1
232926,-92.71523,4,1,0,90,0,1
232996,-93.33333,4,1,0,90,0,1
233066,-93.959724,4,1,0,90,0,1
233136,-94.5946,4,1,0,90,0,1
233206,-95.23809,4,1,0,90,0,1
233276,-95.89041,4,1,0,90,0,1
233346,-96.55173,4,1,0,90,0,1
233416,-97.22221,4,1,0,90,0,1
233487,-97.91188,4,1,0,90,0,1
233557,-98.60147,4,1,0,90,0,1
233697,-100.01021,4,1,0,80,0,0
242669,-100.01021,4,1,0,70,0,0
247155,-100.01021,4,1,0,80,0,0

[HitObjects]
259,179,426,5,4,1:0:0:0:
246,166,706,1,4,1:0:0:0:
361,191,846,1,12,1:0:0:0:
263,182,1547,1,4,1:0:0:0:
226,189,1828,1,4,1:0:0:0:
368,189,1968,1,12,1:0:0:0:
295,182,2669,1,4,1:0:0:0:
310,180,2949,1,4,1:0:0:0:
377,182,3089,1,12,1:0:0:0:
366,183,3790,1,12,1:0:0:0:
301,186,4071,1,4,1:0:0:0:
354,182,4351,1,12,1:0:0:0:
354,182,4631,1,12,1:0:0:0:
272,185,4912,1,4,1:0:0:0:
280,188,5192,1,0,1:0:0:0:
367,178,5332,1,8,1:0:0:0:
361,183,5613,1,8,1:0:0:0:
361,183,5753,1,8,1:0:0:0:
361,183,5893,1,8,1:0:0:0:
273,176,6033,1,4,1:0:0:0:
284,186,6314,1,0,1:0:0:0:
332,186,6454,1,8,1:0:0:0:
306,191,6734,1,8,1:0:0:0:
272,188,6874,1,0,1:0:0:0:
301,188,7015,1,8,1:0:0:0:
250,184,7155,1,4,1:0:0:0:
267,180,7435,1,0,1:0:0:0:
360,178,7575,1,8,1:0:0:0:
350,189,7856,1,8,1:0:0:0:
350,189,7996,1,8,1:0:0:0:
305,182,8136,1,0,1:0:0:0:
341,193,8276,1,12,1:0:0:0:
306,175,8557,1,4,1:0:0:0:
394,184,8837,1,12,1:0:0:0:
280,186,9117,1,0,1:0:0:0:
294,203,9258,1,0,1:0:0:0:
343,175,9398,5,12,1:0:0:0:
272,154,9678,1,0,1:0:0:0:
371,177,9818,1,8,1:0:0:0:
375,180,9888,1,8,1:0:0:0:
255,191,9959,1,0,1:0:0:0:
348,213,10099,1,8,1:0:0:0:
289,196,10239,1,0,1:0:0:0:
261,211,10309,1,0,1:0:0:0:
366,187,10379,1,8,1:0:0:0:
254,207,10519,1,4,1:0:0:0:
317,228,10800,1,0,1:0:0:0:
342,197,10940,1,8,1:0:0:0:
365,197,11010,1,8,1:0:0:0:
370,195,11080,1,8,1:0:0:0:
339,190,11220,1,8,1:0:0:0:
293,200,11360,1,0,1:0:0:0:
299,220,11430,1,0,1:0:0:0:
285,184,11501,1,0,1:0:0:0:
386,190,11641,1,12,1:0:0:0:
286,209,11921,1,0,1:0:0:0:
366,189,12061,1,8,1:0:0:0:
386,190,12131,1,8,1:0:0:0:
264,198,12202,1,0,1:0:0:0:
358,189,12342,1,8,1:0:0:0:
357,189,12412,1,8,1:0:0:0:
257,190,12482,1,0,1:0:0:0:
236,200,12552,1,0,1:0:0:0:
352,200,12622,1,8,1:0:0:0:
279,197,12762,1,4,1:0:0:0:
301,197,13043,1,0,1:0:0:0:
302,227,13183,1,0,1:0:0:0:
361,202,13323,1,12,1:0:0:0:
325,187,13603,1,8,1:0:0:0:
244,184,13744,1,0,1:0:0:0:
367,189,13884,1,12,1:0:0:0:
293,196,14164,1,0,1:0:0:0:
377,188,14304,1,8,1:0:0:0:
339,191,14374,1,8,1:0:0:0:
266,201,14445,1,0,1:0:0:0:
363,206,14585,1,8,1:0:0:0:
275,208,14725,1,0,1:0:0:0:
259,202,14795,1,0,1:0:0:0:
334,195,14865,1,8,1:0:0:0:
276,191,15005,1,4,1:0:0:0:
278,211,15286,1,0,1:0:0:0:
342,201,15426,1,8,1:0:0:0:
298,203,15496,1,8,1:0:0:0:
296,204,15566,1,8,1:0:0:0:
330,200,15706,1,8,1:0:0:0:
255,217,15846,1,0,1:0:0:0:
256,217,15916,1,0,1:0:0:0:
288,189,15987,1,0,1:0:0:0:
331,198,16127,1,12,1:0:0:0:
324,244,16407,1,0,1:0:0:0:
343,210,16547,1,8,1:0:0:0:
305,199,16617,1,8,1:0:0:0:
259,193,16687,1,0,1:0:0:0:
374,194,16828,1,8,1:0:0:0:
272,198,16898,1,0,1:0:0:0:
326,191,16968,1,8,1:0:0:0:
314,193,17038,1,8,1:0:0:0:
274,196,17108,1,0,1:0:0:0:
379,193,17248,1,12,1:0:0:0:
325,192,17529,1,0,1:0:0:0:
327,217,17669,1,0,1:0:0:0:
383,182,17809,1,12,1:0:0:0:
332,183,18089,1,8,1:0:0:0:
325,184,18230,1,8,1:0:0:0:
291,186,18370,1,0,1:0:0:0:
325,191,18510,1,12,1:0:0:0:
313,211,18650,1,0,1:0:0:0:
312,210,18720,1,0,1:0:0:0:
312,209,18790,1,0,1:0:0:0:
308,224,18930,1,0,1:0:0:0:
372,191,19071,1,8,1:0:0:0:
343,185,19211,1,8,1:0:0:0:
311,190,19351,1,0,1:0:0:0:
338,180,19631,1,8,1:0:0:0:
338,180,19772,1,8,1:0:0:0:
338,180,19842,1,8,1:0:0:0:
263,180,19912,1,0,1:0:0:0:
366,180,20052,1,8,1:0:0:0:
295,179,20332,1,0,1:0:0:0:
352,197,20473,1,8,1:0:0:0:
291,186,20613,1,0,1:0:0:0:
353,187,20893,1,8,1:0:0:0:
298,232,21033,1,0,1:0:0:0:
298,232,21103,1,0,1:0:0:0:
297,196,21173,1,0,1:0:0:0:
344,169,21314,1,8,1:0:0:0:
359,177,21454,1,8,1:0:0:0:
303,189,21594,1,0,1:0:0:0:
362,200,21874,1,8,1:0:0:0:
355,198,22015,1,8,1:0:0:0:
365,189,22085,1,8,1:0:0:0:
250,180,22155,1,0,1:0:0:0:
292,205,22295,1,0,1:0:0:0:
308,188,22435,1,8,1:0:0:0:
308,188,22575,1,8,1:0:0:0:
308,188,22716,1,8,1:0:0:0:
274,187,22856,1,4,1:0:0:0:
288,182,23136,1,0,1:0:0:0:
349,195,23276,1,8,1:0:0:0:
320,182,23346,1,8,1:0:0:0:
275,197,23416,1,0,1:0:0:0:
272,207,23557,1,0,1:0:0:0:
350,189,23697,1,8,1:0:0:0:
340,190,23767,1,8,1:0:0:0:
340,190,23837,1,8,1:0:0:0:
235,188,23977,1,4,1:0:0:0:
321,218,24258,1,0,1:0:0:0:
356,195,24398,1,8,1:0:0:0:
288,200,24468,1,0,1:0:0:0:
337,202,24538,1,8,1:0:0:0:
288,200,24678,1,0,1:0:0:0:
347,195,24818,1,8,1:0:0:0:
321,197,24888,1,8,1:0:0:0:
292,191,24959,1,0,1:0:0:0:
343,202,25099,1,12,1:0:0:0:
332,208,25379,1,0,1:0:0:0:
386,189,25519,1,8,1:0:0:0:
357,198,25589,1,8,1:0:0:0:
357,198,25659,1,8,1:0:0:0:
286,191,25800,1,0,1:0:0:0:
296,218,25870,1,0,1:0:0:0:
346,189,25940,1,8,1:0:0:0:
346,206,26010,1,8,1:0:0:0:
275,206,26080,1,0,1:0:0:0:
364,197,26220,1,12,1:0:0:0:
312,206,26501,1,0,1:0:0:0:
292,196,26641,1,0,1:0:0:0:
351,195,26781,1,12,1:0:0:0:
366,188,27061,1,8,1:0:0:0:
279,204,27202,1,0,1:0:0:0:
292,196,27342,1,0,1:0:0:0:
332,203,27482,1,12,1:0:0:0:
272,184,27622,1,0,1:0:0:0:
272,184,27692,1,0,1:0:0:0:
364,171,27762,1,8,1:0:0:0:
344,188,27902,1,8,1:0:0:0:
310,193,28043,1,0,1:0:0:0:
305,215,28183,1,0,1:0:0:0:
344,188,28323,1,8,1:0:0:0:
352,215,28603,1,8,1:0:0:0:
256,198,28744,1,0,1:0:0:0:
256,198,28814,1,0,1:0:0:0:
272,195,28884,1,0,1:0:0:0:
313,209,29024,1,8,1:0:0:0:
239,200,29164,1,0,1:0:0:0:
342,188,29304,1,8,1:0:0:0:
268,194,29374,1,0,1:0:0:0:
375,188,29445,1,8,1:0:0:0:
299,191,29585,1,0,1:0:0:0:
359,180,29725,1,8,1:0:0:0:
337,182,29865,1,8,1:0:0:0:
328,203,29935,1,8,1:0:0:0:
265,200,30005,1,0,1:0:0:0:
373,186,30145,1,8,1:0:0:0:
272,197,30286,1,0,1:0:0:0:
300,185,30356,1,0,1:0:0:0:
332,192,30426,1,8,1:0:0:0:
323,193,30496,1,8,1:0:0:0:
219,201,30566,1,0,1:0:0:0:
355,206,30706,1,8,1:0:0:0:
290,175,30846,1,0,1:0:0:0:
323,211,30916,1,0,1:0:0:0:
378,177,30987,1,8,1:0:0:0:
352,203,31057,1,8,1:0:0:0:
323,204,31127,1,8,1:0:0:0:
287,193,31267,1,0,1:0:0:0:
369,189,31407,1,8,1:0:0:0:
309,191,31477,1,0,1:0:0:0:
352,203,31547,1,8,1:0:0:0:
385,196,31617,1,8,1:0:0:0:
287,193,31687,1,0,1:0:0:0:
276,197,31758,1,0,1:0:0:0:
341,189,31828,1,12,1:0:0:0:
301,205,32108,1,0,1:0:0:0:
353,191,32248,1,8,1:0:0:0:
318,180,32318,1,8,1:0:0:0:
275,197,32388,1,0,1:0:0:0:
356,191,32529,1,8,1:0:0:0:
296,197,32669,1,0,1:0:0:0:
259,201,32739,1,0,1:0:0:0:
296,197,32809,1,0,1:0:0:0:
353,191,32949,1,12,1:0:0:0:
322,224,33230,1,0,1:0:0:0:
345,197,33370,1,8,1:0:0:0:
277,196,33440,1,0,1:0:0:0:
277,200,33510,1,0,1:0:0:0:
237,198,33650,1,0,1:0:0:0:
336,205,33790,1,8,1:0:0:0:
348,189,33860,1,8,1:0:0:0:
292,191,33930,1,0,1:0:0:0:
345,197,34071,1,12,1:0:0:0:
312,224,34351,1,0,1:0:0:0:
359,202,34491,1,8,1:0:0:0:
270,195,34561,1,0,1:0:0:0:
311,192,34631,1,8,1:0:0:0:
270,195,34772,1,0,1:0:0:0:
315,197,34842,1,8,1:0:0:0:
261,189,34912,1,0,1:0:0:0:
295,197,34982,1,0,1:0:0:0:
320,193,35052,1,8,1:0:0:0:
326,199,35192,1,12,1:0:0:0:
351,174,35473,1,4,1:0:0:0:
334,197,35753,1,12,1:0:0:0:
335,170,36033,1,12,1:0:0:0:
276,158,36173,1,0,1:0:0:0:
266,180,36314,1,0,1:0:0:0:
361,182,36454,1,12,1:0:0:0:
309,234,36594,1,0,1:0:0:0:
375,192,36734,1,8,1:0:0:0:
305,215,37015,1,0,1:0:0:0:
303,212,37155,1,0,1:0:0:0:
343,198,37295,1,8,1:0:0:0:
343,198,37435,1,8,1:0:0:0:
266,195,37575,1,0,1:0:0:0:
330,196,37716,1,8,1:0:0:0:
290,186,37856,1,0,1:0:0:0:
355,204,38136,1,8,1:0:0:0:
350,205,38276,1,8,1:0:0:0:
290,186,38416,1,0,1:0:0:0:
361,197,38697,1,8,1:0:0:0:
307,195,38837,1,0,1:0:0:0:
340,183,38977,1,8,1:0:0:0:
300,178,39258,1,0,1:0:0:0:
348,200,39398,1,8,1:0:0:0:
321,197,39538,1,0,1:0:0:0:
289,200,39678,1,0,1:0:0:0:
359,192,39818,1,8,1:0:0:0:
325,197,39959,1,8,1:0:0:0:
303,186,40099,1,0,1:0:0:0:
325,232,40379,1,0,1:0:0:0:
193,169,40519,1,0,1:0:0:0:
306,211,40659,1,8,1:0:0:0:
292,198,40940,1,8,1:0:0:0:
290,199,41080,1,8,1:0:0:0:
261,192,41220,1,0,1:0:0:0:
330,204,41501,1,8,1:0:0:0:
218,194,41641,1,0,1:0:0:0:
305,197,41781,1,8,1:0:0:0:
305,197,41921,1,8,1:0:0:0:
245,203,42061,1,0,1:0:0:0:
245,203,42202,1,0,1:0:0:0:
296,198,42342,1,8,1:0:0:0:
235,214,42622,1,0,1:0:0:0:
235,215,42762,1,0,1:0:0:0:
337,186,42902,1,8,1:0:0:0:
354,202,43183,1,0,1:0:0:0:
352,203,43323,1,8,1:0:0:0:
299,186,43463,1,0,1:0:0:0:
326,202,43744,1,8,1:0:0:0:
249,195,43884,1,0,1:0:0:0:
342,200,44024,1,8,1:0:0:0:
258,200,44164,1,0,1:0:0:0:
344,189,44304,1,8,1:0:0:0:
343,189,44445,1,8,1:0:0:0:
274,197,44585,1,0,1:0:0:0:
339,194,44865,1,8,1:0:0:0:
289,199,45005,1,0,1:0:0:0:
343,189,45145,1,8,1:0:0:0:
311,197,45426,1,0,1:0:0:0:
250,204,45566,1,0,1:0:0:0:
350,190,45706,1,8,1:0:0:0:
313,189,45987,1,8,1:0:0:0:
315,190,46127,1,8,1:0:0:0:
257,202,46267,1,0,1:0:0:0:
324,201,46407,1,8,1:0:0:0:
292,189,46547,1,0,1:0:0:0:
286,191,46687,1,0,1:0:0:0:
356,194,46828,1,8,1:0:0:0:
324,201,47108,1,0,1:0:0:0:
332,182,47248,1,0,1:0:0:0:
357,185,47388,1,8,1:0:0:0:
284,204,47669,1,0,1:0:0:0:
352,192,47809,1,8,1:0:0:0:
291,197,47949,1,0,1:0:0:0:
336,195,48230,1,8,1:0:0:0:
335,195,48370,1,8,1:0:0:0:
316,185,48510,1,0,1:0:0:0:
336,195,48790,1,8,1:0:0:0:
340,201,48930,1,8,1:0:0:0:
270,198,49071,1,0,1:0:0:0:
270,198,49141,1,0,1:0:0:0:
270,198,49211,1,0,1:0:0:0:
270,198,49281,1,0,1:0:0:0:
351,191,49351,1,12,1:0:0:0:
251,189,49491,1,4,1:0:0:0:
351,191,49772,1,12,1:0:0:0:
290,205,50052,1,0,1:0:0:0:
319,209,50192,1,8,1:0:0:0:
221,215,50332,1,0,1:0:0:0:
329,202,50473,1,8,1:0:0:0:
329,202,50543,1,8,1:0:0:0:
263,198,50613,1,0,1:0:0:0:
251,200,50683,1,0,1:0:0:0:
343,187,50753,1,8,1:0:0:0:
314,197,50893,1,0,1:0:0:0:
343,195,51033,1,8,1:0:0:0:
343,195,51103,1,8,1:0:0:0:
343,195,51173,1,8,1:0:0:0:
283,197,51314,1,0,1:0:0:0:
338,197,51454,1,8,1:0:0:0:
247,195,51594,1,0,1:0:0:0:
247,195,51664,1,0,1:0:0:0:
406,187,51734,1,8,1:0:0:0:
283,218,51804,1,0,1:0:0:0:
319,182,51874,1,8,1:0:0:0:
346,185,52015,1,12,1:0:0:0:
310,198,52295,1,0,1:0:0:0:
363,192,52435,1,8,1:0:0:0:
324,188,52575,1,0,1:0:0:0:
340,193,52716,1,8,1:0:0:0:
295,184,52786,1,0,1:0:0:0:
294,184,52856,1,0,1:0:0:0:
294,184,52926,1,0,1:0:0:0:
341,187,52996,1,8,1:0:0:0:
308,210,53136,1,0,1:0:0:0:
387,202,53276,1,8,1:0:0:0:
368,204,53346,1,8,1:0:0:0:
328,193,53416,1,0,1:0:0:0:
348,208,53557,1,8,1:0:0:0:
329,195,53697,1,0,1:0:0:0:
387,202,53837,1,8,1:0:0:0:
385,189,53907,1,8,1:0:0:0:
316,189,53977,1,0,1:0:0:0:
308,191,54047,1,0,1:0:0:0:
368,176,54117,1,8,1:0:0:0:
314,193,54258,1,0,1:0:0:0:
333,205,54398,1,8,1:0:0:0:
328,206,54468,1,8,1:0:0:0:
337,187,54538,1,0,1:0:0:0:
352,189,54678,1,8,1:0:0:0:
314,184,54818,1,0,1:0:0:0:
339,198,54959,1,8,1:0:0:0:
329,195,55029,1,0,1:0:0:0:
319,197,55099,1,0,1:0:0:0:
318,198,55169,1,0,1:0:0:0:
352,189,55239,1,8,1:0:0:0:
315,188,55379,1,0,1:0:0:0:
353,203,55519,1,8,1:0:0:0:
244,202,55589,1,0,1:0:0:0:
364,193,55659,1,8,1:0:0:0:
356,194,55730,1,8,1:0:0:0:
321,188,55800,1,0,1:0:0:0:
308,189,55870,1,0,1:0:0:0:
317,182,55940,1,8,1:0:0:0:
370,195,56010,1,8,1:0:0:0:
311,193,56080,1,0,1:0:0:0:
314,214,56220,1,0,1:0:0:0:
343,187,56360,1,8,1:0:0:0:
286,181,56501,1,0,1:0:0:0:
359,197,56641,1,8,1:0:0:0:
359,197,56711,1,8,1:0:0:0:
359,197,56781,1,8,1:0:0:0:
357,197,56851,1,8,1:0:0:0:
292,193,56921,1,0,1:0:0:0:
321,219,57061,1,0,1:0:0:0:
331,207,57202,1,8,1:0:0:0:
329,207,57272,1,8,1:0:0:0:
325,190,57342,1,0,1:0:0:0:
317,191,57412,1,0,1:0:0:0:
355,183,57482,1,8,1:0:0:0:
292,193,57622,1,0,1:0:0:0:
394,189,57762,1,8,1:0:0:0:
314,235,57902,1,0,1:0:0:0:
314,235,58043,1,0,1:0:0:0:
314,235,58113,1,0,1:0:0:0:
213,168,58183,1,0,0:0:0:0:
297,202,58253,1,0,1:0:0:0:
361,195,58323,1,12,1:0:0:0:
263,197,58463,1,4,1:0:0:0:
333,211,58744,1,12,1:0:0:0:
308,239,59024,1,0,1:0:0:0:
345,208,59164,1,8,1:0:0:0:
278,215,59304,1,0,1:0:0:0:
343,199,59445,1,8,1:0:0:0:
263,182,59515,1,0,1:0:0:0:
324,198,59585,1,8,1:0:0:0:
321,198,59655,1,8,1:0:0:0:
294,193,59725,1,0,1:0:0:0:
352,204,59865,1,8,1:0:0:0:
281,195,60005,1,0,1:0:0:0:
281,195,60075,1,0,1:0:0:0:
281,195,60145,1,0,1:0:0:0:
350,209,60286,1,8,1:0:0:0:
341,193,60426,1,0,1:0:0:0:
335,201,60566,1,8,1:0:0:0:
372,193,60636,1,8,1:0:0:0:
307,214,60706,1,0,1:0:0:0:
307,214,60776,1,0,1:0:0:0:
299,193,60846,1,0,1:0:0:0:
315,205,60987,1,12,1:0:0:0:
287,197,61267,1,0,1:0:0:0:
330,217,61407,1,8,1:0:0:0:
303,209,61547,1,0,1:0:0:0:
325,212,61687,1,8,1:0:0:0:
324,212,61758,1,8,1:0:0:0:
302,208,61828,1,0,1:0:0:0:
296,209,61898,1,0,1:0:0:0:
358,195,61968,1,8,1:0:0:0:
303,209,62108,1,0,1:0:0:0:
360,199,62248,1,8,1:0:0:0:
358,200,62318,1,8,1:0:0:0:
316,196,62388,1,0,1:0:0:0:
328,208,62529,1,8,1:0:0:0:
293,194,62669,1,0,1:0:0:0:
310,220,62809,1,0,1:0:0:0:
310,220,62879,1,0,1:0:0:0:
335,200,62949,1,8,1:0:0:0:
332,201,63019,1,8,1:0:0:0:
332,201,63089,1,8,1:0:0:0:
283,203,63230,1,0,1:0:0:0:
345,205,63370,1,8,1:0:0:0:
286,191,63440,1,0,1:0:0:0:
310,197,63510,1,0,1:0:0:0:
248,194,63580,1,0,1:0:0:0:
335,200,63650,1,8,1:0:0:0:
283,203,63790,1,0,1:0:0:0:
339,209,63930,1,8,1:0:0:0:
343,200,64001,1,8,1:0:0:0:
299,207,64071,1,0,1:0:0:0:
299,207,64141,1,0,1:0:0:0:
425,180,64211,1,8,1:0:0:0:
277,209,64281,1,0,1:0:0:0:
335,200,64351,1,8,1:0:0:0:
290,196,64491,1,0,1:0:0:0:
290,196,64561,1,0,1:0:0:0:
309,200,64631,1,8,1:0:0:0:
288,204,64702,1,0,1:0:0:0:
283,206,64772,1,8,1:0:0:0:
343,202,64842,1,8,1:0:0:0:
299,207,64912,1,0,1:0:0:0:
296,209,64982,1,0,1:0:0:0:
348,197,65052,1,8,1:0:0:0:
296,207,65192,1,0,1:0:0:0:
356,195,65332,1,8,1:0:0:0:
240,198,65473,1,0,1:0:0:0:
333,198,65613,1,8,1:0:0:0:
245,204,65683,1,0,1:0:0:0:
268,212,65753,1,0,1:0:0:0:
302,195,65823,1,0,1:0:0:0:
341,191,65893,1,8,1:0:0:0:
332,193,65963,1,8,1:0:0:0:
307,197,66033,1,0,1:0:0:0:
363,202,66173,1,8,1:0:0:0:
346,206,66244,1,8,1:0:0:0:
346,206,66314,1,8,1:0:0:0:
346,206,66384,1,8,1:0:0:0:
285,196,66454,1,0,1:0:0:0:
254,206,66524,1,0,1:0:0:0:
316,198,66594,1,8,1:0:0:0:
378,199,66734,1,8,1:0:0:0:
352,240,66804,1,8,1:0:0:0:
343,193,66874,1,0,1:0:0:0:
327,203,67015,1,8,1:0:0:0:
297,196,67155,1,0,1:0:0:0:
370,193,67295,1,8,1:0:0:0:
351,195,67435,1,8,1:0:0:0:
351,195,67575,1,8,1:0:0:0:
288,193,67716,1,4,1:0:0:0:
272,154,67996,1,0,1:0:0:0:
371,177,68136,1,8,1:0:0:0:
323,202,68206,1,8,1:0:0:0:
270,195,68276,1,0,1:0:0:0:
348,213,68416,1,8,1:0:0:0:
289,196,68557,1,0,1:0:0:0:
264,200,68627,1,0,1:0:0:0:
333,197,68697,1,8,1:0:0:0:
316,188,68837,1,4,1:0:0:0:
317,228,69117,1,0,1:0:0:0:
342,197,69258,1,8,1:0:0:0:
348,208,69328,1,8,1:0:0:0:
348,208,69398,1,8,1:0:0:0:
359,204,69538,1,8,1:0:0:0:
290,200,69678,1,0,1:0:0:0:
290,200,69748,1,0,1:0:0:0:
285,184,69818,1,0,1:0:0:0:
386,190,69959,1,12,1:0:0:0:
286,209,70239,1,0,1:0:0:0:
366,189,70379,1,8,1:0:0:0:
340,197,70449,1,8,1:0:0:0:
255,194,70519,1,0,1:0:0:0:
356,204,70659,1,8,1:0:0:0:
297,201,70730,1,0,1:0:0:0:
296,201,70800,1,0,1:0:0:0:
296,201,70870,1,0,1:0:0:0:
307,206,70940,1,8,1:0:0:0:
280,187,71080,1,4,1:0:0:0:
301,197,71360,1,0,1:0:0:0:
302,227,71501,1,0,1:0:0:0:
361,202,71641,1,12,1:0:0:0:
325,187,71921,1,8,1:0:0:0:
244,184,72061,1,0,1:0:0:0:
367,189,72202,1,12,1:0:0:0:
293,196,72482,1,0,1:0:0:0:
377,188,72622,1,8,1:0:0:0:
325,196,72692,1,8,1:0:0:0:
299,209,72762,1,0,1:0:0:0:
241,184,72902,1,0,1:0:0:0:
261,135,73043,1,8,1:0:0:0:
275,151,73113,1,8,1:0:0:0:
275,151,73183,1,8,1:0:0:0:
286,198,73323,1,4,1:0:0:0:
278,211,73603,1,0,1:0:0:0:
342,201,73744,1,8,1:0:0:0:
279,207,73814,1,0,1:0:0:0:
311,222,73884,1,8,1:0:0:0:
303,188,74024,1,0,1:0:0:0:
348,187,74164,1,8,1:0:0:0:
337,216,74234,1,8,1:0:0:0:
288,189,74304,1,0,1:0:0:0:
331,198,74445,1,12,1:0:0:0:
324,244,74725,1,0,1:0:0:0:
343,210,74865,1,8,1:0:0:0:
322,200,74935,1,8,1:0:0:0:
322,200,75005,1,8,1:0:0:0:
232,185,75145,1,0,1:0:0:0:
283,195,75216,1,0,1:0:0:0:
346,201,75286,1,8,1:0:0:0:
294,164,75356,1,8,1:0:0:0:
274,196,75426,1,0,1:0:0:0:
379,193,75566,1,12,1:0:0:0:
239,189,75846,1,4,1:0:0:0:
355,206,76127,1,12,1:0:0:0:
336,195,76407,1,8,1:0:0:0:
335,193,76547,1,8,1:0:0:0:
335,193,76687,1,8,1:0:0:0:
306,188,76828,1,4,1:0:0:0:
305,205,76968,1,8,1:0:0:0:
304,205,77038,1,8,1:0:0:0:
291,198,77108,1,0,1:0:0:0:
292,220,77248,1,0,1:0:0:0:
339,197,77388,1,8,1:0:0:0:
303,231,77669,1,0,1:0:0:0:
303,231,77809,1,0,1:0:0:0:
357,195,77949,1,8,1:0:0:0:
253,202,78089,1,0,1:0:0:0:
337,191,78230,1,8,1:0:0:0:
328,188,78370,1,8,1:0:0:0:
254,211,78650,1,0,1:0:0:0:
366,189,78790,1,8,1:0:0:0:
306,198,78930,1,0,1:0:0:0:
306,198,79071,1,0,1:0:0:0:
359,197,79211,1,8,1:0:0:0:
282,194,79351,1,0,1:0:0:0:
321,199,79491,1,8,1:0:0:0:
364,189,79631,1,8,1:0:0:0:
315,191,79912,1,0,1:0:0:0:
331,198,80052,1,8,1:0:0:0:
330,198,80192,1,8,1:0:0:0:
257,204,80332,1,0,1:0:0:0:
368,188,80473,1,8,1:0:0:0:
350,193,80753,1,8,1:0:0:0:
350,193,80893,1,8,1:0:0:0:
350,193,81033,1,8,1:0:0:0:
323,197,81173,1,4,1:0:0:0:
327,202,81454,1,0,1:0:0:0:
394,189,81594,1,8,1:0:0:0:
329,191,81664,1,8,1:0:0:0:
285,196,81734,1,0,1:0:0:0:
296,218,81874,1,0,1:0:0:0:
390,200,82015,1,8,1:0:0:0:
350,198,82085,1,8,1:0:0:0:
325,188,82155,1,8,1:0:0:0:
274,215,82295,1,4,1:0:0:0:
510,177,82575,1,0,1:0:0:0:
362,183,82716,1,8,1:0:0:0:
283,207,82786,1,0,1:0:0:0:
290,206,82856,1,0,1:0:0:0:
283,209,82996,1,0,1:0:0:0:
333,221,83136,1,8,1:0:0:0:
333,221,83206,1,8,1:0:0:0:
293,198,83276,1,0,1:0:0:0:
355,194,83416,1,12,1:0:0:0:
333,221,83697,1,0,1:0:0:0:
379,190,83837,1,8,1:0:0:0:
356,209,83907,1,8,1:0:0:0:
283,208,83977,1,0,1:0:0:0:
283,208,84117,1,8,1:0:0:0:
253,209,84187,1,0,1:0:0:0:
345,206,84258,1,8,1:0:0:0:
343,189,84328,1,8,1:0:0:0:
268,202,84398,1,0,1:0:0:0:
367,208,84538,1,12,1:0:0:0:
305,224,84818,1,0,1:0:0:0:
305,224,84959,1,0,1:0:0:0:
381,196,85099,1,12,1:0:0:0:
329,197,85379,1,0,1:0:0:0:
362,206,85519,1,8,1:0:0:0:
286,202,85659,1,0,1:0:0:0:
365,188,85800,1,12,1:0:0:0:
308,207,85940,1,0,1:0:0:0:
383,199,86080,1,8,1:0:0:0:
383,199,86150,1,8,1:0:0:0:
298,214,86220,1,0,1:0:0:0:
359,191,86360,1,8,1:0:0:0:
324,229,86430,1,8,1:0:0:0:
281,218,86501,1,0,1:0:0:0:
279,218,86571,1,0,1:0:0:0:
371,192,86641,1,8,1:0:0:0:
305,229,86781,1,0,1:0:0:0:
323,204,86921,1,8,1:0:0:0:
322,204,87061,1,8,1:0:0:0:
251,203,87202,1,0,1:0:0:0:
325,189,87342,1,8,1:0:0:0:
312,214,87622,1,0,1:0:0:0:
307,215,87762,1,0,1:0:0:0:
338,201,87902,1,8,1:0:0:0:
285,193,88043,1,0,1:0:0:0:
352,205,88183,1,8,1:0:0:0:
316,225,88463,1,0,1:0:0:0:
316,225,88533,1,0,1:0:0:0:
326,210,88603,1,8,1:0:0:0:
319,229,88884,1,0,1:0:0:0:
319,229,88954,1,0,1:0:0:0:
350,207,89024,1,8,1:0:0:0:
308,209,89094,1,0,1:0:0:0:
336,205,89164,1,8,1:0:0:0:
316,225,89304,1,0,1:0:0:0:
367,197,89445,1,8,1:0:0:0:
316,216,89585,1,0,1:0:0:0:
354,198,89725,1,8,1:0:0:0:
352,198,89865,1,8,1:0:0:0:
352,198,90005,1,8,1:0:0:0:
292,209,90145,1,4,1:0:0:0:
314,199,90426,1,0,1:0:0:0:
372,189,90566,1,8,1:0:0:0:
305,200,90636,1,8,1:0:0:0:
274,195,90706,1,0,1:0:0:0:
360,202,90846,1,8,1:0:0:0:
303,202,90987,1,0,1:0:0:0:
283,213,91057,1,0,1:0:0:0:
303,202,91127,1,0,1:0:0:0:
360,190,91267,1,12,1:0:0:0:
334,218,91547,1,0,1:0:0:0:
335,206,91687,1,8,1:0:0:0:
294,214,91758,1,0,1:0:0:0:
310,194,91828,1,8,1:0:0:0:
317,206,91968,1,0,1:0:0:0:
353,202,92108,1,8,1:0:0:0:
378,199,92178,1,8,1:0:0:0:
214,197,92248,1,0,1:0:0:0:
325,206,92388,1,12,1:0:0:0:
252,186,92669,1,0,1:0:0:0:
356,190,92809,1,8,1:0:0:0:
323,191,92879,1,8,1:0:0:0:
308,192,92949,1,8,1:0:0:0:
286,195,93089,1,0,1:0:0:0:
299,188,93159,1,0,1:0:0:0:
323,191,93230,1,8,1:0:0:0:
323,191,93300,1,8,1:0:0:0:
302,189,93370,1,0,1:0:0:0:
309,179,93510,1,12,1:0:0:0:
302,191,93790,1,4,1:0:0:0:
349,193,94071,1,12,1:0:0:0:
308,196,94351,1,0,1:0:0:0:
308,196,94491,1,0,1:0:0:0:
308,196,94631,1,0,1:0:0:0:
330,182,94772,1,8,1:0:0:0:
357,206,94912,1,8,1:0:0:0:
328,191,95052,1,0,1:0:0:0:
327,213,95332,1,0,1:0:0:0:
316,213,95473,1,8,1:0:0:0:
328,191,95613,1,0,1:0:0:0:
310,215,95753,1,0,1:0:0:0:
347,203,95893,1,8,1:0:0:0:
301,196,96033,1,0,1:0:0:0:
326,191,96173,1,8,1:0:0:0:
262,208,96454,1,0,1:0:0:0:
262,208,96594,1,0,1:0:0:0:
346,186,96734,1,8,1:0:0:0:
357,199,97015,1,8,1:0:0:0:
255,198,97155,1,0,1:0:0:0:
333,187,97295,1,8,1:0:0:0:
362,209,97575,1,8,1:0:0:0:
352,201,97716,1,8,1:0:0:0:
281,188,97856,1,0,1:0:0:0:
276,191,97996,1,0,1:0:0:0:
337,200,98136,1,8,1:0:0:0:
262,191,98276,1,0,1:0:0:0:
327,186,98416,1,8,1:0:0:0:
296,198,98697,1,0,1:0:0:0:
296,198,98837,1,0,1:0:0:0:
352,182,98977,1,8,1:0:0:0:
248,202,99258,1,0,1:0:0:0:
379,179,99398,1,8,1:0:0:0:
243,195,99538,1,0,1:0:0:0:
359,182,99818,1,8,1:0:0:0:
359,182,99959,1,8,1:0:0:0:
311,191,100099,1,0,1:0:0:0:
331,188,100239,1,8,1:0:0:0:
293,186,100379,1,0,1:0:0:0:
293,211,100519,1,0,1:0:0:0:
378,186,100659,1,8,1:0:0:0:
322,197,100940,1,0,1:0:0:0:
322,197,101080,1,0,1:0:0:0:
359,186,101220,1,8,1:0:0:0:
290,206,101501,1,0,1:0:0:0:
359,197,101641,1,8,1:0:0:0:
309,191,101781,1,0,1:0:0:0:
337,203,102061,1,8,1:0:0:0:
276,195,102202,1,0,1:0:0:0:
329,198,102342,1,8,1:0:0:0:
343,178,102482,1,8,1:0:0:0:
257,205,102622,1,0,1:0:0:0:
319,207,102762,1,0,1:0:0:0:
353,182,102902,1,8,1:0:0:0:
376,210,103183,1,8,1:0:0:0:
303,201,103323,1,0,1:0:0:0:
359,191,103463,1,8,1:0:0:0:
321,230,103744,1,0,1:0:0:0:
321,230,103884,1,0,1:0:0:0:
359,191,104024,1,8,1:0:0:0:
274,206,104304,1,0,1:0:0:0:
341,220,104445,1,8,1:0:0:0:
274,206,104585,1,0,1:0:0:0:
274,206,104725,1,0,1:0:0:0:
326,197,104865,1,8,1:0:0:0:
321,195,105005,1,0,1:0:0:0:
343,193,105145,1,8,1:0:0:0:
316,191,105426,1,0,1:0:0:0:
316,191,105566,1,0,1:0:0:0:
360,191,105706,1,8,1:0:0:0:
310,190,105987,1,0,1:0:0:0:
343,194,106127,1,8,1:0:0:0:
322,188,106267,1,0,1:0:0:0:
312,215,106547,1,0,1:0:0:0:
312,215,106687,1,0,1:0:0:0:
343,199,106828,1,8,1:0:0:0:
361,187,107108,1,8,1:0:0:0:
361,187,107248,1,8,1:0:0:0:
279,190,107388,1,0,1:0:0:0:
279,190,107459,1,0,1:0:0:0:
279,190,107529,1,0,1:0:0:0:
303,200,107599,1,0,1:0:0:0:
339,200,107669,1,12,1:0:0:0:
277,193,107809,1,4,1:0:0:0:
361,212,108089,1,12,1:0:0:0:
346,206,108370,1,0,1:0:0:0:
365,211,108510,1,8,1:0:0:0:
334,193,108650,1,0,1:0:0:0:
355,207,108790,1,8,1:0:0:0:
355,207,108860,1,8,1:0:0:0:
337,187,108930,1,0,1:0:0:0:
330,188,109001,1,0,1:0:0:0:
339,188,109071,1,8,1:0:0:0:
296,202,109211,1,8,1:0:0:0:
290,195,109351,1,0,1:0:0:0:
286,195,109421,1,0,1:0:0:0:
286,196,109491,1,0,1:0:0:0:
317,202,109631,1,8,1:0:0:0:
315,188,109772,1,0,1:0:0:0:
346,202,109912,1,8,1:0:0:0:
349,192,109982,1,8,1:0:0:0:
321,200,110052,1,0,1:0:0:0:
321,200,110122,1,0,1:0:0:0:
281,215,110192,1,0,1:0:0:0:
346,202,110332,1,12,1:0:0:0:
330,226,110613,1,0,1:0:0:0:
364,208,110753,1,8,1:0:0:0:
304,202,110893,1,0,1:0:0:0:
346,202,111033,1,8,1:0:0:0:
296,200,111103,1,0,1:0:0:0:
295,200,111173,1,0,1:0:0:0:
295,200,111244,1,0,1:0:0:0:
363,190,111314,1,8,1:0:0:0:
312,209,111454,1,0,1:0:0:0:
325,199,111594,1,8,1:0:0:0:
325,199,111664,1,8,1:0:0:0:
325,199,111734,1,8,1:0:0:0:
286,198,111874,1,0,1:0:0:0:
334,193,112015,1,8,1:0:0:0:
291,199,112155,1,0,1:0:0:0:
291,199,112225,1,0,1:0:0:0:
330,206,112295,1,8,1:0:0:0:
328,206,112365,1,8,1:0:0:0:
297,194,112435,1,0,1:0:0:0:
346,197,112575,1,8,1:0:0:0:
299,200,112716,1,0,1:0:0:0:
296,200,112786,1,0,1:0:0:0:
332,197,112856,1,8,1:0:0:0:
277,207,112996,1,0,1:0:0:0:
341,198,113136,1,8,1:0:0:0:
266,209,113276,1,0,1:0:0:0:
266,209,113346,1,0,1:0:0:0:
328,204,113416,1,8,1:0:0:0:
323,206,113487,1,8,1:0:0:0:
323,206,113557,1,8,1:0:0:0:
326,206,113697,1,0,1:0:0:0:
342,202,113837,1,8,1:0:0:0:
292,204,113907,1,0,1:0:0:0:
291,204,113977,1,0,1:0:0:0:
290,204,114047,1,0,1:0:0:0:
348,207,114117,1,8,1:0:0:0:
346,208,114187,1,8,1:0:0:0:
312,206,114258,1,0,1:0:0:0:
300,209,114328,1,0,1:0:0:0:
347,190,114398,1,8,1:0:0:0:
342,202,114538,1,8,1:0:0:0:
282,204,114678,1,0,1:0:0:0:
305,217,114818,1,0,1:0:0:0:
346,197,114959,1,8,1:0:0:0:
335,194,115029,1,0,1:0:0:0:
331,195,115099,1,0,1:0:0:0:
327,197,115169,1,0,1:0:0:0:
335,186,115239,1,8,1:0:0:0:
312,195,115379,1,0,1:0:0:0:
329,206,115519,1,8,1:0:0:0:
327,207,115589,1,8,1:0:0:0:
328,207,115659,1,8,1:0:0:0:
328,207,115730,1,8,1:0:0:0:
276,195,115800,1,0,1:0:0:0:
317,194,115940,1,0,1:0:0:0:
339,196,116080,1,8,1:0:0:0:
366,225,116220,1,8,1:0:0:0:
315,208,116360,1,0,1:0:0:0:
315,208,116430,1,0,1:0:0:0:
317,215,116501,1,8,1:0:0:0:
292,214,116571,1,0,1:0:0:0:
340,211,116641,1,12,1:0:0:0:
289,188,116781,1,4,1:0:0:0:
349,201,117061,1,12,1:0:0:0:
305,238,117342,1,0,1:0:0:0:
336,213,117482,1,8,1:0:0:0:
315,197,117622,1,0,1:0:0:0:
318,206,117762,1,8,1:0:0:0:
317,206,117832,1,8,1:0:0:0:
283,210,117902,1,0,1:0:0:0:
283,210,117973,1,0,1:0:0:0:
372,202,118043,1,8,1:0:0:0:
325,212,118183,1,0,1:0:0:0:
327,212,118323,1,8,1:0:0:0:
326,212,118393,1,8,1:0:0:0:
294,208,118463,1,0,1:0:0:0:
283,210,118603,1,0,1:0:0:0:
334,196,118744,1,8,1:0:0:0:
294,208,118884,1,0,1:0:0:0:
294,208,118954,1,0,1:0:0:0:
309,199,119024,1,8,1:0:0:0:
310,197,119094,1,0,1:0:0:0:
323,197,119164,1,8,1:0:0:0:
305,199,119304,1,12,1:0:0:0:
321,214,119585,1,0,1:0:0:0:
352,200,119725,1,8,1:0:0:0:
317,197,119865,1,0,1:0:0:0:
359,200,120005,1,8,1:0:0:0:
359,200,120075,1,8,1:0:0:0:
348,188,120145,1,0,1:0:0:0:
328,193,120216,1,0,1:0:0:0:
325,195,120286,1,0,1:0:0:0:
364,202,120426,1,8,1:0:0:0:
315,188,120566,1,0,1:0:0:0:
312,197,120636,1,8,1:0:0:0:
321,204,120706,1,0,1:0:0:0:
308,204,120846,1,8,1:0:0:0:
323,191,120987,1,0,1:0:0:0:
298,202,121127,1,0,1:0:0:0:
298,202,121197,1,0,1:0:0:0:
298,202,121267,1,0,1:0:0:0:
298,202,121337,1,0,1:0:0:0:
344,189,121407,1,12,1:0:0:0:
354,198,121687,1,8,1:0:0:0:
353,198,121758,1,8,1:0:0:0:
314,208,121828,1,8,1:0:0:0:
314,208,121898,1,8,1:0:0:0:
294,197,121968,1,0,1:0:0:0:
354,197,122108,1,8,1:0:0:0:
277,218,122248,1,0,1:0:0:0:
277,218,122318,1,0,1:0:0:0:
339,204,122388,1,8,1:0:0:0:
286,214,122459,1,0,1:0:0:0:
301,206,122529,1,8,1:0:0:0:
291,206,122599,1,8,1:0:0:0:
230,204,122669,1,0,1:0:0:0:
326,209,122809,1,8,1:0:0:0:
270,215,122879,1,0,1:0:0:0:
271,215,122949,1,0,1:0:0:0:
271,215,123019,1,0,1:0:0:0:
277,208,123089,1,8,1:0:0:0:
277,208,123159,1,8,1:0:0:0:
248,201,123230,1,0,1:0:0:0:
242,202,123300,1,0,1:0:0:0:
318,189,123370,1,8,1:0:0:0:
272,213,123510,1,0,1:0:0:0:
311,197,123650,1,8,1:0:0:0:
289,218,123790,1,0,1:0:0:0:
325,206,123930,1,8,1:0:0:0:
325,206,124001,1,8,1:0:0:0:
325,206,124071,1,8,1:0:0:0:
325,206,124141,1,8,1:0:0:0:
294,188,124211,1,0,1:0:0:0:
272,213,124281,1,0,1:0:0:0:
361,192,124351,1,8,1:0:0:0:
277,214,124491,1,0,1:0:0:0:
345,208,124561,1,8,1:0:0:0:
273,204,124631,1,0,1:0:0:0:
270,204,124702,1,0,1:0:0:0:
296,203,124772,1,8,1:0:0:0:
245,204,124842,1,0,1:0:0:0:
325,206,124912,1,8,1:0:0:0:
257,200,125052,1,0,1:0:0:0:
257,200,125122,1,0,1:0:0:0:
302,196,125192,1,8,1:0:0:0:
319,192,125332,1,8,1:0:0:0:
279,190,125473,1,0,1:0:0:0:
334,192,125613,1,8,1:0:0:0:
306,186,125753,1,0,1:0:0:0:
319,228,125893,1,0,1:0:0:0:
332,190,126033,1,12,1:0:0:0:
367,181,130519,1,8,1:0:0:0:
323,186,130800,1,8,1:0:0:0:
326,211,131080,1,8,1:0:0:0:
326,211,131220,1,8,1:0:0:0:
281,195,134024,5,0,1:0:0:0:
281,195,134094,1,0,1:0:0:0:
323,198,134164,1,8,1:0:0:0:
272,186,134234,1,0,1:0:0:0:
361,180,134304,1,8,1:0:0:0:
362,189,134445,1,8,1:0:0:0:
303,191,134585,1,0,1:0:0:0:
350,186,134725,1,8,1:0:0:0:
308,191,134865,1,0,1:0:0:0:
350,202,135005,1,12,1:0:0:0:
301,229,135286,1,0,1:0:0:0:
310,231,135566,1,0,1:0:0:0:
325,198,135706,1,12,1:0:0:0:
368,184,136127,1,8,1:0:0:0:
283,186,136407,1,0,1:0:0:0:
308,204,136687,1,0,1:0:0:0:
332,193,136828,1,12,1:0:0:0:
361,200,137248,1,8,1:0:0:0:
323,191,137529,1,0,1:0:0:0:
306,204,137809,1,0,1:0:0:0:
372,206,137949,1,12,1:0:0:0:
310,228,138370,1,0,1:0:0:0:
364,189,138510,1,8,1:0:0:0:
361,191,138650,1,8,1:0:0:0:
282,201,138790,1,0,1:0:0:0:
318,197,138930,1,8,1:0:0:0:
251,200,139071,1,0,1:0:0:0:
279,205,139211,1,0,1:0:0:0:
265,209,139351,1,0,1:0:0:0:
359,198,139491,1,12,1:0:0:0:
311,228,139772,1,0,1:0:0:0:
311,228,140052,1,0,1:0:0:0:
374,215,140192,1,12,1:0:0:0:
352,195,140613,1,8,1:0:0:0:
320,233,140893,1,0,1:0:0:0:
332,211,141173,1,0,1:0:0:0:
337,214,141314,1,12,1:0:0:0:
363,190,141734,1,8,1:0:0:0:
303,184,142015,1,0,1:0:0:0:
310,196,142295,1,0,1:0:0:0:
354,191,142435,1,12,1:0:0:0:
323,233,142856,1,0,1:0:0:0:
365,210,142996,1,8,1:0:0:0:
268,210,143066,1,0,1:0:0:0:
337,196,143136,1,8,1:0:0:0:
330,203,143276,1,8,1:0:0:0:
309,186,143416,1,0,1:0:0:0:
304,215,143557,1,8,1:0:0:0:
337,206,143697,1,0,1:0:0:0:
271,217,143837,1,0,1:0:0:0:
330,203,143977,1,12,1:0:0:0:
304,215,144258,1,0,1:0:0:0:
330,203,144538,1,0,1:0:0:0:
345,196,144678,1,12,1:0:0:0:
319,219,145099,1,0,1:0:0:0:
316,192,145379,1,8,1:0:0:0:
285,202,145659,1,0,1:0:0:0:
378,203,145800,1,12,1:0:0:0:
342,208,146220,1,8,1:0:0:0:
300,200,146501,1,0,1:0:0:0:
321,196,146781,1,0,1:0:0:0:
345,203,146921,1,12,1:0:0:0:
311,200,147342,1,0,1:0:0:0:
359,200,147482,1,8,1:0:0:0:
358,200,147622,1,8,1:0:0:0:
288,199,147762,1,0,1:0:0:0:
288,199,147902,1,0,1:0:0:0:
376,192,148043,1,8,1:0:0:0:
265,202,148183,1,0,1:0:0:0:
343,194,148323,1,8,1:0:0:0:
361,206,148463,1,8,1:0:0:0:
290,206,148744,1,0,1:0:0:0:
325,226,149024,1,0,1:0:0:0:
320,211,149164,1,12,1:0:0:0:
324,218,149585,1,0,1:0:0:0:
358,206,149865,1,8,1:0:0:0:
245,198,150145,1,0,1:0:0:0:
354,200,150286,1,12,1:0:0:0:
343,206,150706,1,8,1:0:0:0:
298,198,150987,1,0,1:0:0:0:
323,211,151267,1,0,1:0:0:0:
336,211,151407,1,12,1:0:0:0:
319,206,151828,1,0,1:0:0:0:
321,204,151968,1,8,1:0:0:0:
340,199,152108,1,8,1:0:0:0:
278,199,152248,1,0,1:0:0:0:
311,200,152388,1,8,1:0:0:0:
268,200,152529,1,0,1:0:0:0:
257,209,152669,1,0,1:0:0:0:
285,213,152809,1,0,1:0:0:0:
383,200,152949,1,12,1:0:0:0:
323,215,153230,1,0,1:0:0:0:
315,206,153510,1,0,1:0:0:0:
365,204,153650,1,12,1:0:0:0:
296,225,154071,1,0,1:0:0:0:
363,190,154351,1,8,1:0:0:0:
300,194,154631,1,0,1:0:0:0:
364,196,154772,1,12,1:0:0:0:
372,196,155192,1,8,1:0:0:0:
285,202,155473,1,0,1:0:0:0:
328,222,155753,1,0,1:0:0:0:
361,203,155893,1,12,1:0:0:0:
315,188,156314,1,0,1:0:0:0:
361,203,156454,1,8,1:0:0:0:
361,203,156594,1,8,1:0:0:0:
300,207,156734,1,0,1:0:0:0:
300,207,156874,1,0,1:0:0:0:
323,207,157015,1,8,1:0:0:0:
296,194,157155,1,0,1:0:0:0:
286,211,157295,1,0,1:0:0:0:
348,188,157435,1,12,1:0:0:0:
319,216,157716,1,0,1:0:0:0:
328,218,157996,1,0,1:0:0:0:
355,200,158136,1,12,1:0:0:0:
344,216,158557,1,0,1:0:0:0:
366,199,158837,1,8,1:0:0:0:
299,195,159117,1,0,1:0:0:0:
362,200,159258,1,12,1:0:0:0:
312,209,159538,1,0,1:0:0:0:
315,206,159678,1,8,1:0:0:0:
315,206,159748,1,8,1:0:0:0:
344,189,159818,1,0,1:0:0:0:
296,200,159959,1,0,1:0:0:0:
364,210,160099,1,8,1:0:0:0:
294,198,160239,1,0,1:0:0:0:
371,196,160379,1,8,1:0:0:0:
346,200,160519,1,8,1:0:0:0:
296,200,160659,1,0,1:0:0:0:
251,184,160730,1,0,1:0:0:0:
301,202,160800,1,8,1:0:0:0:
297,202,160870,1,8,1:0:0:0:
294,198,160940,1,0,1:0:0:0:
342,217,161010,1,8,1:0:0:0:
327,193,161080,1,0,1:0:0:0:
319,195,161150,1,0,1:0:0:0:
330,193,161220,1,8,1:0:0:0:
338,204,161290,1,8,1:0:0:0:
296,200,161360,1,0,1:0:0:0:
296,200,161430,1,0,1:0:0:0:
341,191,161501,1,8,1:0:0:0:
280,204,161571,1,0,1:0:0:0:
323,199,161641,1,8,1:0:0:0:
321,200,161711,1,8,1:0:0:0:
276,199,161781,1,0,1:0:0:0:
282,208,161851,1,0,1:0:0:0:
306,197,161921,1,12,1:0:0:0:
285,188,162202,1,0,1:0:0:0:
296,200,162272,1,0,1:0:0:0:
304,200,162342,1,8,1:0:0:0:
354,191,162412,1,8,1:0:0:0:
290,198,162482,1,0,1:0:0:0:
365,189,162622,1,8,1:0:0:0:
286,206,162692,1,0,1:0:0:0:
265,195,162762,1,0,1:0:0:0:
265,195,162832,1,0,1:0:0:0:
340,181,162902,1,8,1:0:0:0:
229,151,163043,1,0,1:0:0:0:
310,203,163183,1,8,1:0:0:0:
306,204,163253,1,8,1:0:0:0:
292,190,163323,1,0,1:0:0:0:
298,209,163393,1,0,1:0:0:0:
301,209,163463,1,0,1:0:0:0:
377,195,163603,1,8,1:0:0:0:
377,195,163673,1,8,1:0:0:0:
354,197,163744,1,0,1:0:0:0:
325,195,163814,1,0,1:0:0:0:
360,204,163884,1,8,1:0:0:0:
321,193,164024,1,0,1:0:0:0:
353,208,164164,1,12,1:0:0:0:
310,226,164445,1,0,1:0:0:0:
368,197,164585,1,8,1:0:0:0:
323,199,164725,1,0,1:0:0:0:
304,208,164795,1,0,1:0:0:0:
333,209,164865,1,8,1:0:0:0:
353,208,164935,1,8,1:0:0:0:
311,197,165005,1,0,1:0:0:0:
349,210,165145,1,8,1:0:0:0:
262,218,165286,1,0,1:0:0:0:
337,202,165426,1,8,1:0:0:0:
337,202,165496,1,8,1:0:0:0:
346,190,165566,1,8,1:0:0:0:
336,197,165706,1,0,1:0:0:0:
329,208,165987,1,8,1:0:0:0:
373,198,166057,1,8,1:0:0:0:
285,194,166127,1,0,1:0:0:0:
322,201,166267,1,0,1:0:0:0:
337,221,166407,1,12,1:0:0:0:
283,188,166687,1,0,1:0:0:0:
332,195,166828,1,8,1:0:0:0:
287,193,166898,1,0,1:0:0:0:
329,200,166968,1,8,1:0:0:0:
328,200,167038,1,8,1:0:0:0:
289,198,167108,1,0,1:0:0:0:
286,198,167178,1,0,1:0:0:0:
345,204,167248,1,8,1:0:0:0:
283,193,167318,1,0,1:0:0:0:
283,193,167388,1,0,1:0:0:0:
283,193,167459,1,0,1:0:0:0:
378,193,167529,1,8,1:0:0:0:
330,200,167599,1,8,1:0:0:0:
253,204,167669,1,0,1:0:0:0:
281,197,167739,1,0,1:0:0:0:
339,198,167809,1,8,1:0:0:0:
296,201,167949,1,0,1:0:0:0:
268,200,168019,1,0,1:0:0:0:
331,191,168089,1,8,1:0:0:0:
322,198,168230,1,8,1:0:0:0:
274,206,168370,1,0,1:0:0:0:
316,212,168440,1,8,1:0:0:0:
277,207,168510,1,0,1:0:0:0:
272,208,168580,1,0,1:0:0:0:
330,209,168650,1,12,1:0:0:0:
301,201,168930,1,0,1:0:0:0:
377,200,169071,1,8,1:0:0:0:
310,196,169211,1,0,1:0:0:0:
291,177,169281,1,0,1:0:0:0:
359,221,169351,1,8,1:0:0:0:
294,206,169491,1,0,1:0:0:0:
326,202,169631,1,8,1:0:0:0:
326,203,169772,1,8,1:0:0:0:
309,202,169912,1,0,1:0:0:0:
297,206,169982,1,0,1:0:0:0:
299,217,170052,1,0,1:0:0:0:
330,207,170192,1,12,1:0:0:0:
321,218,170332,1,0,1:0:0:0:
377,200,170473,1,8,1:0:0:0:
239,203,170543,1,0,1:0:0:0:
329,190,170613,1,8,1:0:0:0:
329,190,170683,1,8,1:0:0:0:
292,189,170753,1,0,1:0:0:0:
292,189,170823,1,0,1:0:0:0:
334,179,170893,1,8,1:0:0:0:
296,172,171033,1,0,1:0:0:0:
296,172,171103,1,0,1:0:0:0:
327,177,171173,1,8,1:0:0:0:
291,181,171244,1,0,1:0:0:0:
358,175,171314,1,8,1:0:0:0:
349,176,171384,1,8,1:0:0:0:
319,173,171454,1,0,1:0:0:0:
294,190,171524,1,0,1:0:0:0:
350,196,171594,1,8,1:0:0:0:
302,191,171664,1,0,1:0:0:0:
314,199,171734,1,0,1:0:0:0:
276,194,171804,1,0,1:0:0:0:
314,191,171874,1,8,1:0:0:0:
372,191,171945,1,8,1:0:0:0:
296,191,172015,1,0,1:0:0:0:
296,192,172085,1,0,1:0:0:0:
399,182,172155,1,8,1:0:0:0:
308,189,172295,1,0,1:0:0:0:
341,191,172435,1,8,1:0:0:0:
339,191,172505,1,8,1:0:0:0:
299,189,172575,1,0,1:0:0:0:
333,195,172716,1,8,1:0:0:0:
282,185,172856,1,0,1:0:0:0:
362,184,172996,1,8,1:0:0:0:
366,182,173136,1,12,1:0:0:0:
292,196,173416,1,0,1:0:0:0:
377,200,173557,1,8,1:0:0:0:
375,201,173627,1,8,1:0:0:0:
268,197,173697,1,0,1:0:0:0:
310,188,173767,1,0,1:0:0:0:
354,207,173837,1,8,1:0:0:0:
317,213,173977,1,0,1:0:0:0:
281,185,174117,1,0,1:0:0:0:
316,202,174258,1,8,1:0:0:0:
280,198,174398,1,0,1:0:0:0:
317,191,174468,1,0,1:0:0:0:
343,198,174538,1,8,1:0:0:0:
267,184,174678,1,0,1:0:0:0:
348,191,174818,1,8,1:0:0:0:
280,198,174959,1,0,1:0:0:0:
365,192,175029,1,8,1:0:0:0:
332,192,175099,1,0,1:0:0:0:
327,193,175169,1,0,1:0:0:0:
344,188,175239,1,8,1:0:0:0:
363,178,175379,1,12,1:0:0:0:
329,204,175659,1,0,1:0:0:0:
316,206,175800,1,8,1:0:0:0:
311,207,175870,1,8,1:0:0:0:
326,202,175940,1,0,1:0:0:0:
355,193,176080,1,8,1:0:0:0:
277,195,176220,1,0,1:0:0:0:
306,215,176360,1,8,1:0:0:0:
337,186,176501,1,0,1:0:0:0:
345,200,176641,1,8,1:0:0:0:
310,205,176711,1,0,1:0:0:0:
306,205,176781,1,0,1:0:0:0:
244,188,176851,1,0,1:0:0:0:
346,185,176921,1,8,1:0:0:0:
215,225,176991,1,0,1:0:0:0:
332,186,177061,1,8,1:0:0:0:
235,187,177202,1,0,1:0:0:0:
357,213,177342,1,8,1:0:0:0:
357,213,177412,1,8,1:0:0:0:
278,209,177482,1,0,1:0:0:0:
346,206,177622,1,12,1:0:0:0:
312,229,177902,1,0,1:0:0:0:
337,219,178043,1,8,1:0:0:0:
336,219,178113,1,8,1:0:0:0:
314,208,178183,1,0,1:0:0:0:
309,212,178323,1,0,1:0:0:0:
339,210,178463,1,8,1:0:0:0:
338,210,178603,1,8,1:0:0:0:
338,210,178744,1,8,1:0:0:0:
325,223,178884,1,0,1:0:0:0:
324,223,178954,1,0,1:0:0:0:
325,214,179024,1,8,1:0:0:0:
250,204,179094,1,0,1:0:0:0:
330,200,179164,1,8,1:0:0:0:
329,200,179234,1,8,1:0:0:0:
298,204,179304,1,0,1:0:0:0:
298,204,179374,1,0,1:0:0:0:
311,210,179445,1,8,1:0:0:0:
305,201,179515,1,0,1:0:0:0:
298,204,179585,1,0,1:0:0:0:
298,204,179655,1,0,1:0:0:0:
366,192,179725,1,8,1:0:0:0:
312,200,179795,1,8,1:0:0:0:
298,204,179865,1,0,1:0:0:0:
290,205,179935,1,0,1:0:0:0:
357,202,180005,1,12,1:0:0:0:
247,193,180145,1,0,1:0:0:0:
370,187,180286,1,8,1:0:0:0:
294,204,180566,1,0,1:0:0:0:
351,206,180706,1,8,1:0:0:0:
306,197,180846,1,0,1:0:0:0:
297,198,180987,1,0,1:0:0:0:
377,197,181127,1,8,1:0:0:0:
285,206,181267,1,0,1:0:0:0:
365,191,181407,1,8,1:0:0:0:
303,204,181687,1,0,1:0:0:0:
301,206,181828,1,0,1:0:0:0:
341,193,181968,1,8,1:0:0:0:
392,191,182248,1,8,1:0:0:0:
272,211,182388,1,0,1:0:0:0:
330,200,182529,1,8,1:0:0:0:
340,201,182809,1,8,1:0:0:0:
340,201,182949,1,8,1:0:0:0:
262,198,183089,1,0,1:0:0:0:
346,204,183230,1,8,1:0:0:0:
302,202,183370,1,0,1:0:0:0:
294,202,183510,1,0,1:0:0:0:
362,202,183650,1,8,1:0:0:0:
320,197,183930,1,0,1:0:0:0:
298,198,184071,1,0,1:0:0:0:
354,191,184211,1,8,1:0:0:0:
381,199,184491,1,8,1:0:0:0:
292,210,184631,1,0,1:0:0:0:
373,196,184772,1,8,1:0:0:0:
321,204,185052,1,8,1:0:0:0:
355,202,185192,1,8,1:0:0:0:
319,209,185332,1,0,1:0:0:0:
286,211,185473,1,0,1:0:0:0:
345,197,185613,1,8,1:0:0:0:
283,197,185753,1,0,1:0:0:0:
324,199,185893,1,8,1:0:0:0:
288,198,186173,1,0,1:0:0:0:
283,197,186314,1,0,1:0:0:0:
344,186,186454,1,8,1:0:0:0:
290,203,186734,1,0,1:0:0:0:
336,202,186874,1,8,1:0:0:0:
270,198,187015,1,0,1:0:0:0:
336,202,187295,1,8,1:0:0:0:
290,203,187435,1,0,1:0:0:0:
320,197,187575,1,8,1:0:0:0:
320,197,187716,1,8,1:0:0:0:
265,193,187856,1,0,1:0:0:0:
296,197,187996,1,0,1:0:0:0:
374,182,188136,1,8,1:0:0:0:
269,198,188416,1,0,1:0:0:0:
266,199,188557,1,0,1:0:0:0:
350,182,188697,1,8,1:0:0:0:
297,202,188977,1,0,1:0:0:0:
319,211,189117,1,8,1:0:0:0:
272,199,189258,1,0,1:0:0:0:
346,201,189538,1,8,1:0:0:0:
286,204,189678,1,0,1:0:0:0:
356,200,189818,1,8,1:0:0:0:
336,202,189959,1,8,1:0:0:0:
299,197,190099,1,0,1:0:0:0:
321,208,190239,1,8,1:0:0:0:
312,188,190379,1,0,1:0:0:0:
286,195,190659,1,0,1:0:0:0:
286,195,190800,1,0,1:0:0:0:
350,192,190940,1,8,1:0:0:0:
367,202,191220,1,8,1:0:0:0:
249,202,191360,1,0,1:0:0:0:
354,185,191501,1,8,1:0:0:0:
356,216,191641,1,8,1:0:0:0:
259,198,191781,1,0,1:0:0:0:
259,198,191921,1,0,1:0:0:0:
319,193,192061,1,8,1:0:0:0:
336,202,192202,1,8,1:0:0:0:
292,213,192342,1,0,1:0:0:0:
357,200,192482,1,8,1:0:0:0:
277,200,192622,1,0,1:0:0:0:
274,200,192762,1,0,1:0:0:0:
337,191,192902,1,8,1:0:0:0:
297,197,193043,1,0,1:0:0:0:
325,206,193183,1,8,1:0:0:0:
325,206,193323,1,8,1:0:0:0:
292,191,193463,1,0,1:0:0:0:
237,211,197388,1,4,1:0:0:0:
277,208,197529,1,4,1:0:0:0:
351,197,197809,1,12,1:0:0:0:
277,215,198089,1,0,1:0:0:0:
351,197,198230,1,8,1:0:0:0:
293,200,198370,1,0,1:0:0:0:
346,202,198510,1,8,1:0:0:0:
346,202,198580,1,8,1:0:0:0:
334,199,198650,1,0,1:0:0:0:
290,221,198720,1,0,1:0:0:0:
334,217,198790,1,8,1:0:0:0:
307,208,198930,1,0,1:0:0:0:
337,205,199071,1,8,1:0:0:0:
337,205,199141,1,8,1:0:0:0:
279,202,199211,1,0,1:0:0:0:
350,202,199351,1,8,1:0:0:0:
290,197,199491,1,0,1:0:0:0:
325,198,199631,1,8,1:0:0:0:
283,203,199702,1,0,1:0:0:0:
356,196,199772,1,8,1:0:0:0:
352,197,199842,1,8,1:0:0:0:
294,198,199912,1,0,1:0:0:0:
340,190,200052,1,12,1:0:0:0:
324,226,200332,1,0,1:0:0:0:
371,207,200473,1,8,1:0:0:0:
352,197,200613,1,0,1:0:0:0:
308,204,200753,1,8,1:0:0:0:
308,204,200823,1,8,1:0:0:0:
294,224,200893,1,0,1:0:0:0:
294,224,200963,1,0,1:0:0:0:
297,204,201033,1,0,1:0:0:0:
351,209,201173,1,8,1:0:0:0:
252,201,201314,1,0,1:0:0:0:
252,201,201384,1,0,1:0:0:0:
252,201,201454,1,0,1:0:0:0:
321,213,201594,1,8,1:0:0:0:
303,209,201734,1,0,1:0:0:0:
304,235,201874,1,0,1:0:0:0:
304,235,201945,1,0,1:0:0:0:
304,235,202015,1,0,1:0:0:0:
304,233,202085,1,0,1:0:0:0:
352,195,202155,1,12,1:0:0:0:
312,196,202435,1,8,1:0:0:0:
310,197,202505,1,8,1:0:0:0:
258,200,202575,1,0,1:0:0:0:
316,211,202716,1,8,1:0:0:0:
276,199,202856,1,0,1:0:0:0:
328,195,202996,1,8,1:0:0:0:
323,195,203066,1,8,1:0:0:0:
255,205,203136,1,0,1:0:0:0:
255,205,203206,1,0,1:0:0:0:
348,195,203276,1,8,1:0:0:0:
284,200,203416,1,0,1:0:0:0:
339,209,203557,1,8,1:0:0:0:
339,209,203627,1,8,1:0:0:0:
280,204,203697,1,0,1:0:0:0:
273,209,203767,1,0,1:0:0:0:
352,213,203837,1,8,1:0:0:0:
276,209,203907,1,0,1:0:0:0:
278,213,203977,1,0,1:0:0:0:
278,213,204047,1,0,1:0:0:0:
311,208,204117,1,8,1:0:0:0:
281,197,204258,1,0,1:0:0:0:
365,184,204398,1,8,1:0:0:0:
307,246,204538,1,0,1:0:0:0:
321,202,204678,1,8,1:0:0:0:
320,202,204748,1,8,1:0:0:0:
321,202,204818,1,8,1:0:0:0:
321,202,204888,1,8,1:0:0:0:
285,206,204959,1,0,1:0:0:0:
332,224,205099,1,0,1:0:0:0:
340,206,205239,1,8,1:0:0:0:
288,198,205309,1,0,1:0:0:0:
288,198,205379,1,0,1:0:0:0:
288,198,205449,1,0,1:0:0:0:
345,197,205519,1,8,1:0:0:0:
340,199,205659,1,0,1:0:0:0:
312,215,205800,1,8,1:0:0:0:
297,204,205940,1,0,1:0:0:0:
301,213,206080,1,0,1:0:0:0:
301,213,206150,1,0,1:0:0:0:
329,201,206220,1,8,1:0:0:0:
318,196,206290,1,0,1:0:0:0:
346,202,206360,1,12,1:0:0:0:
251,180,206501,1,4,1:0:0:0:
364,193,206781,1,12,1:0:0:0:
316,208,207061,1,0,1:0:0:0:
341,204,207202,1,8,1:0:0:0:
299,204,207342,1,0,1:0:0:0:
315,216,207482,1,8,1:0:0:0:
279,209,207552,1,0,1:0:0:0:
277,209,207622,1,0,1:0:0:0:
277,209,207692,1,0,1:0:0:0:
301,204,207762,1,8,1:0:0:0:
285,217,207902,1,0,1:0:0:0:
336,210,208043,1,8,1:0:0:0:
336,210,208113,1,8,1:0:0:0:
336,210,208183,1,8,1:0:0:0:
285,215,208323,1,0,1:0:0:0:
311,206,208463,1,8,1:0:0:0:
272,209,208603,1,0,1:0:0:0:
257,209,208673,1,0,1:0:0:0:
335,200,208744,1,8,1:0:0:0:
332,200,208814,1,8,1:0:0:0:
277,199,208884,1,0,1:0:0:0:
298,200,209024,1,12,1:0:0:0:
319,215,209304,1,0,1:0:0:0:
347,206,209445,1,8,1:0:0:0:
286,214,209585,1,0,1:0:0:0:
326,211,209725,1,8,1:0:0:0:
272,208,209795,1,0,1:0:0:0:
325,204,209865,1,8,1:0:0:0:
325,204,209935,1,8,1:0:0:0:
253,206,210005,1,0,1:0:0:0:
337,204,210145,1,8,1:0:0:0:
281,206,210286,1,0,1:0:0:0:
281,206,210356,1,0,1:0:0:0:
510,171,210426,1,8,1:0:0:0:
317,197,210566,1,0,1:0:0:0:
297,204,210706,1,8,1:0:0:0:
275,209,210846,1,0,1:0:0:0:
275,209,210916,1,0,1:0:0:0:
285,204,210987,1,0,0:0:0:0:
291,213,211057,1,0,1:0:0:0:
332,203,211127,1,12,1:0:0:0:
297,195,211407,1,8,1:0:0:0:
292,197,211477,1,8,1:0:0:0:
263,199,211547,1,0,1:0:0:0:
232,232,211617,1,0,1:0:0:0:
326,204,211687,1,8,1:0:0:0:
301,196,211828,1,0,1:0:0:0:
315,217,211968,1,8,1:0:0:0:
285,209,212038,1,0,1:0:0:0:
277,210,212108,1,0,1:0:0:0:
276,210,212178,1,0,1:0:0:0:
319,197,212248,1,8,1:0:0:0:
339,199,212318,1,8,1:0:0:0:
281,198,212388,1,0,1:0:0:0:
349,211,212529,1,8,1:0:0:0:
287,204,212599,1,0,1:0:0:0:
366,200,212669,1,8,1:0:0:0:
354,196,212739,1,8,1:0:0:0:
280,206,212809,1,0,1:0:0:0:
277,210,212879,1,0,1:0:0:0:
339,202,212949,1,8,1:0:0:0:
285,197,213019,1,0,1:0:0:0:
346,189,213089,1,8,1:0:0:0:
265,209,213230,1,0,1:0:0:0:
325,200,213370,1,8,1:0:0:0:
272,200,213510,1,0,1:0:0:0:
367,193,213650,1,8,1:0:0:0:
357,203,213720,1,8,1:0:0:0:
285,197,213790,1,0,1:0:0:0:
279,196,213860,1,0,1:0:0:0:
305,189,213930,1,8,1:0:0:0:
225,211,214001,1,0,1:0:0:0:
325,200,214071,1,8,1:0:0:0:
261,199,214211,1,0,1:0:0:0:
249,200,214281,1,0,1:0:0:0:
327,206,214351,1,8,1:0:0:0:
292,194,214421,1,0,1:0:0:0:
342,193,214491,1,8,1:0:0:0:
338,197,214561,1,8,1:0:0:0:
311,222,214631,1,0,1:0:0:0:
334,202,214772,1,8,1:0:0:0:
334,202,214842,1,8,1:0:0:0:
274,206,214912,1,0,1:0:0:0:
347,204,215052,1,8,1:0:0:0:
343,205,215122,1,8,1:0:0:0:
343,206,215192,1,8,1:0:0:0:
304,197,215332,1,0,1:0:0:0:
298,198,215473,1,0,1:0:0:0:
296,198,215613,1,0,1:0:0:0:
325,187,215753,1,12,1:0:0:0:
311,199,216033,1,0,1:0:0:0:
349,195,216173,1,8,1:0:0:0:
287,202,216314,1,0,1:0:0:0:
357,204,216454,1,8,1:0:0:0:
385,187,216524,1,8,1:0:0:0:
306,208,216594,1,0,1:0:0:0:
301,209,216664,1,0,1:0:0:0:
299,198,216734,1,8,1:0:0:0:
275,200,216874,1,0,1:0:0:0:
347,203,217015,1,8,1:0:0:0:
347,203,217085,1,8,1:0:0:0:
347,203,217155,1,8,1:0:0:0:
294,209,217295,1,0,1:0:0:0:
334,201,217435,1,8,1:0:0:0:
276,208,217575,1,0,1:0:0:0:
315,211,217645,1,8,1:0:0:0:
238,210,217716,1,0,1:0:0:0:
238,210,217786,1,0,1:0:0:0:
297,200,217856,1,8,1:0:0:0:
354,206,217996,1,12,1:0:0:0:
310,214,218276,1,0,1:0:0:0:
323,224,218416,1,8,1:0:0:0:
305,212,218557,1,0,1:0:0:0:
317,210,218697,1,8,1:0:0:0:
310,214,218767,1,8,1:0:0:0:
290,204,218837,1,0,1:0:0:0:
290,204,218907,1,0,1:0:0:0:
268,203,218977,1,0,1:0:0:0:
331,220,219117,1,8,1:0:0:0:
303,203,219258,1,0,1:0:0:0:
303,203,219328,1,0,1:0:0:0:
339,202,219398,1,8,1:0:0:0:
296,208,219538,1,0,1:0:0:0:
342,202,219678,1,8,1:0:0:0:
290,200,219818,1,0,1:0:0:0:
290,200,219888,1,0,1:0:0:0:
248,192,219959,1,0,1:0:0:0:
255,208,220029,1,0,1:0:0:0:
339,202,220099,1,12,1:0:0:0:
316,198,220379,1,8,1:0:0:0:
315,199,220449,1,8,1:0:0:0:
315,199,220519,1,8,1:0:0:0:
315,199,220589,1,8,1:0:0:0:
307,184,220659,1,0,1:0:0:0:
339,188,220800,1,8,1:0:0:0:
283,197,220940,1,0,1:0:0:0:
283,197,221010,1,0,1:0:0:0:
316,198,221080,1,8,1:0:0:0:
289,198,221150,1,0,1:0:0:0:
337,191,221220,1,8,1:0:0:0:
323,200,221290,1,8,1:0:0:0:
334,188,221360,1,0,1:0:0:0:
337,197,221501,1,8,1:0:0:0:
303,205,221571,1,0,1:0:0:0:
303,205,221641,1,0,1:0:0:0:
303,205,221711,1,0,1:0:0:0:
365,208,221781,1,8,1:0:0:0:
361,208,221851,1,8,1:0:0:0:
325,198,221921,1,0,1:0:0:0:
344,189,221991,1,8,1:0:0:0:
344,189,222061,1,8,1:0:0:0:
344,189,222131,1,8,1:0:0:0:
313,187,222202,1,0,1:0:0:0:
312,188,222272,1,0,1:0:0:0:
353,179,222342,1,8,1:0:0:0:
230,198,222482,1,0,1:0:0:0:
331,190,222622,1,8,1:0:0:0:
331,190,222692,1,8,1:0:0:0:
331,190,222762,1,8,1:0:0:0:
331,190,222832,1,8,1:0:0:0:
270,202,222902,1,0,1:0:0:0:
270,202,222973,1,0,1:0:0:0:
306,192,223043,1,8,1:0:0:0:
274,206,223183,1,0,1:0:0:0:
274,206,223253,1,0,1:0:0:0:
321,203,223323,1,8,1:0:0:0:
215,203,223393,1,0,1:0:0:0:
330,205,223463,1,8,1:0:0:0:
330,205,223533,1,8,1:0:0:0:
278,208,223603,1,0,1:0:0:0:
343,222,223744,1,8,1:0:0:0:
342,222,223814,1,8,1:0:0:0:
285,223,223884,1,0,1:0:0:0:
282,223,223954,1,0,1:0:0:0:
343,200,224024,1,8,1:0:0:0:
294,209,224164,1,0,1:0:0:0:
335,211,224304,1,8,1:0:0:0:
332,211,224445,1,8,1:0:0:0:
300,206,224585,1,0,1:0:0:0:
294,208,224725,1,12,1:0:0:0:
311,208,225005,1,0,1:0:0:0:
314,200,225145,1,8,1:0:0:0:
312,200,225216,1,8,1:0:0:0:
300,206,225286,1,0,1:0:0:0:
354,197,225426,1,8,1:0:0:0:
288,204,225496,1,0,1:0:0:0:
275,200,225566,1,0,1:0:0:0:
274,200,225636,1,0,1:0:0:0:
328,207,225706,1,8,1:0:0:0:
396,186,225776,1,8,1:0:0:0:
308,188,225846,1,0,1:0:0:0:
361,188,225987,1,8,1:0:0:0:
365,191,226057,1,8,1:0:0:0:
310,192,226127,1,0,1:0:0:0:
372,188,226197,1,8,1:0:0:0:
280,188,226267,1,0,1:0:0:0:
311,197,226337,1,0,1:0:0:0:
374,189,226407,1,8,1:0:0:0:
301,201,226477,1,0,1:0:0:0:
288,198,226547,1,0,1:0:0:0:
329,188,226617,1,0,1:0:0:0:
324,191,226687,1,8,1:0:0:0:
297,188,226828,1,0,1:0:0:0:
365,189,226968,1,8,1:0:0:0:
306,189,227108,1,0,1:0:0:0:
311,218,227178,1,0,1:0:0:0:
387,199,227248,1,8,1:0:0:0:
264,174,227318,1,0,1:0:0:0:
330,174,227388,1,8,1:0:0:0:
387,199,227459,1,8,1:0:0:0:
325,192,227529,1,0,1:0:0:0:
399,195,227669,1,8,1:0:0:0:
394,197,227739,1,8,1:0:0:0:
327,196,227809,1,0,1:0:0:0:
320,197,227879,1,0,1:0:0:0:
366,192,227949,1,8,1:0:0:0:
215,121,228089,1,0,1:0:0:0:
368,190,228230,1,8,1:0:0:0:
331,203,228300,1,8,1:0:0:0:
310,190,228370,1,0,1:0:0:0:
285,204,228440,1,0,1:0:0:0:
339,184,228510,1,8,1:0:0:0:
285,204,228580,1,0,1:0:0:0:
285,204,228650,1,0,1:0:0:0:
285,204,228720,1,0,1:0:0:0:
368,190,228790,1,8,1:0:0:0:
274,199,228860,1,0,1:0:0:0:
376,185,228930,1,8,1:0:0:0:
412,184,229001,1,8,1:0:0:0:
312,196,229071,1,0,1:0:0:0:
339,184,229211,1,8,1:0:0:0:
274,197,229351,1,0,1:0:0:0:
274,197,229421,1,0,1:0:0:0:
368,190,229491,1,8,1:0:0:0:
354,188,229561,1,8,1:0:0:0:
354,188,229631,1,8,1:0:0:0:
356,197,229702,1,8,1:0:0:0:
312,198,229772,1,0,1:0:0:0:
302,221,229842,1,0,1:0:0:0:
350,200,229912,1,8,1:0:0:0:
292,198,229982,1,0,1:0:0:0:
289,198,230052,1,0,1:0:0:0:
289,198,230122,1,0,1:0:0:0:
326,195,230192,1,8,1:0:0:0:
268,197,230262,1,0,1:0:0:0:
344,197,230332,1,8,1:0:0:0:
344,197,230402,1,8,1:0:0:0:
301,200,230473,1,0,1:0:0:0:
297,200,230543,1,0,1:0:0:0:
297,200,230613,1,0,1:0:0:0:
297,201,230683,1,0,1:0:0:0:
335,192,230753,1,8,1:0:0:0:
357,193,230823,1,8,1:0:0:0:
326,195,230893,1,0,1:0:0:0:
314,194,230963,1,0,1:0:0:0:
353,194,231033,1,8,1:0:0:0:
286,204,231103,1,0,1:0:0:0:
285,204,231173,1,0,1:0:0:0:
285,205,231244,1,0,1:0:0:0:
342,195,231314,1,8,1:0:0:0:
297,201,231454,1,0,1:0:0:0:
294,202,231594,1,8,1:0:0:0:
292,203,231664,1,8,1:0:0:0:
292,203,231734,1,8,1:0:0:0:
292,203,231804,1,8,1:0:0:0:
252,200,231874,1,0,1:0:0:0:
286,211,231945,1,0,1:0:0:0:
290,215,232015,1,8,1:0:0:0:
264,215,232085,1,0,1:0:0:0:
339,200,232155,1,8,1:0:0:0:
260,201,232225,1,0,1:0:0:0:
252,200,232295,1,0,1:0:0:0:
255,202,232365,1,0,1:0:0:0:
307,193,232435,1,8,1:0:0:0:
328,232,232505,1,8,1:0:0:0:
268,208,232575,1,0,1:0:0:0:
268,208,232645,1,0,1:0:0:0:
311,198,232716,1,8,1:0:0:0:
261,205,232786,1,0,1:0:0:0:
261,206,232856,1,0,1:0:0:0:
261,206,232926,1,0,1:0:0:0:
345,202,232996,1,8,1:0:0:0:
345,202,233066,1,8,1:0:0:0:
345,202,233136,1,8,1:0:0:0:
307,205,233206,1,0,1:0:0:0:
310,210,233276,1,8,1:0:0:0:
309,210,233346,1,8,1:0:0:0:
280,211,233416,1,0,1:0:0:0:
288,209,233487,1,0,1:0:0:0:
330,206,233557,1,8,1:0:0:0:
293,189,233697,1,4,1:0:0:0:
272,154,233977,1,0,1:0:0:0:
371,177,234117,1,8,1:0:0:0:
325,182,234187,1,8,1:0:0:0:
299,191,234258,1,0,1:0:0:0:
348,213,234398,1,8,1:0:0:0:
289,196,234538,1,0,1:0:0:0:
289,196,234608,1,0,1:0:0:0:
301,205,234678,1,0,1:0:0:0:
354,206,234818,1,12,1:0:0:0:
317,228,235099,1,0,1:0:0:0:
342,197,235239,1,8,1:0:0:0:
290,211,235309,1,0,1:0:0:0:
331,206,235379,1,8,1:0:0:0:
269,217,235519,1,0,1:0:0:0:
361,190,235659,1,8,1:0:0:0:
361,190,235730,1,8,1:0:0:0:
285,184,235800,1,0,1:0:0:0:
386,190,235940,1,12,1:0:0:0:
286,209,236220,1,0,1:0:0:0:
366,189,236360,1,8,1:0:0:0:
333,188,236430,1,8,1:0:0:0:
300,191,236501,1,0,1:0:0:0:
356,204,236641,1,8,1:0:0:0:
232,200,236711,1,0,1:0:0:0:
317,202,236781,1,8,1:0:0:0:
310,202,236851,1,8,1:0:0:0:
250,200,236921,1,0,1:0:0:0:
354,215,237061,1,12,1:0:0:0:
301,197,237342,1,0,1:0:0:0:
302,227,237482,1,0,1:0:0:0:
361,202,237622,1,12,1:0:0:0:
325,187,237902,1,8,1:0:0:0:
244,184,238043,1,0,1:0:0:0:
367,189,238183,1,12,1:0:0:0:
293,196,238463,1,0,1:0:0:0:
377,188,238603,1,8,1:0:0:0:
333,209,238673,1,8,1:0:0:0:
334,189,238744,1,0,1:0:0:0:
363,206,238884,1,8,1:0:0:0:
275,208,239024,1,0,1:0:0:0:
275,208,239094,1,0,1:0:0:0:
331,188,239164,1,8,1:0:0:0:
288,193,239304,1,4,1:0:0:0:
278,211,239585,1,0,1:0:0:0:
342,201,239725,1,8,1:0:0:0:
296,209,239795,1,0,1:0:0:0:
333,213,239865,1,8,1:0:0:0:
266,214,240005,1,0,1:0:0:0:
312,197,240145,1,8,1:0:0:0:
331,193,240216,1,8,1:0:0:0:
288,189,240286,1,0,1:0:0:0:
331,198,240426,1,12,1:0:0:0:
324,244,240706,1,0,1:0:0:0:
343,210,240846,1,8,1:0:0:0:
363,200,240916,1,8,1:0:0:0:
330,201,240987,1,8,1:0:0:0:
221,160,241127,1,0,1:0:0:0:
254,180,241197,1,0,1:0:0:0:
321,188,241267,1,8,1:0:0:0:
321,188,241337,1,8,1:0:0:0:
254,196,241407,1,0,1:0:0:0:
379,193,241547,1,12,1:0:0:0:
294,201,241828,1,0,1:0:0:0:
294,201,241968,1,0,1:0:0:0:
323,189,242108,1,12,1:0:0:0:
349,204,242388,1,8,1:0:0:0:
263,188,242529,1,0,1:0:0:0:
333,188,242669,1,12,1:0:0:0:
296,210,242949,1,0,1:0:0:0:
335,191,243089,1,8,1:0:0:0:
292,192,243370,1,0,1:0:0:0:
284,193,243510,1,0,1:0:0:0:
284,193,243650,1,0,1:0:0:0:
348,194,243790,1,12,1:0:0:0:
347,209,244071,1,8,1:0:0:0:
294,191,244211,1,0,1:0:0:0:
328,198,244491,1,8,1:0:0:0:
326,198,244631,1,8,1:0:0:0:
327,198,244772,1,8,1:0:0:0:
274,187,244912,1,4,1:0:0:0:
286,204,245192,1,0,1:0:0:0:
338,203,245332,1,8,1:0:0:0:
333,201,245613,1,0,1:0:0:0:
350,193,245753,1,8,1:0:0:0:
301,199,245893,1,0,1:0:0:0:
326,197,246033,1,12,1:0:0:0:
268,186,246314,1,4,1:0:0:0:
334,186,246594,1,12,1:0:0:0:
272,188,246874,1,0,1:0:0:0:
287,188,247015,1,0,1:0:0:0:
346,180,247155,1,12,1:0:0:0:
272,154,247435,1,0,1:0:0:0:
371,177,247575,1,8,1:0:0:0:
316,192,247645,1,8,1:0:0:0:
277,193,247716,1,0,1:0:0:0:
348,213,247856,1,8,1:0:0:0:
289,196,247996,1,0,1:0:0:0:
289,196,248066,1,0,1:0:0:0:
301,205,248136,1,0,1:0:0:0:
354,206,248276,1,12,1:0:0:0:
317,228,248557,1,0,1:0:0:0:
342,197,248697,1,8,1:0:0:0:
308,206,248767,1,0,1:0:0:0:
328,206,248837,1,8,1:0:0:0:
259,198,248977,1,0,1:0:0:0:
361,190,249117,1,8,1:0:0:0:
361,190,249187,1,8,1:0:0:0:
285,184,249258,1,0,1:0:0:0:
386,190,249398,1,12,1:0:0:0:
286,209,249678,1,0,1:0:0:0:
366,189,249818,1,8,1:0:0:0:
325,202,249888,1,8,1:0:0:0:
277,200,249959,1,0,1:0:0:0:
356,204,250099,1,8,1:0:0:0:
270,207,250169,1,8,1:0:0:0:
229,195,250239,1,0,1:0:0:0:
229,195,250309,1,0,1:0:0:0:
290,212,250379,1,8,1:0:0:0:
270,202,250519,1,4,1:0:0:0:
296,193,250800,1,4,1:0:0:0:
375,190,251080,1,12,1:0:0:0:
348,198,251360,1,12,1:0:0:0:
333,186,251641,1,8,1:0:0:0:
333,186,251781,1,8,1:0:0:0:
333,186,251921,1,8,1:0:0:0:
288,184,252061,1,4,1:0:0:0:
346,182,252342,1,12,1:0:0:0:
281,207,252622,1,4,1:0:0:0:
308,211,252902,1,12,1:0:0:0:
