osu file format v14

[General]
AudioFilename: audio.ogg
AudioLeadIn: 0
PreviewTime: 197809
Countdown: 0
SampleSet: Normal
StackLeniency: 0.7
Mode: 1
LetterboxInBreaks: 0
WidescreenStoryboard: 1

[Editor]
DistanceSpacing: 1.8
BeatDivisor: 4
GridSize: 32
TimelineZoom: 3.899998

[Metadata]
Title:When My Devil Rises
TitleUnicode:When My Devil Rises
Artist:MAN WITH A MISSION
ArtistUnicode:MAN WITH A MISSION
Creator:SudoKu37
Version:Oni
Source:
Tags:tales of purefly devilman crybaby rock english japanese jrock j-rock MWAM ソニーミュージック sony music japan records DJ Santa Monica Jean-Ken Johnny Kamikaze Boy Spear Rib Tokyo Tanaka nassrall _HeLLFly_ HeLLFly
BeatmapID:4465173
BeatmapSetID:2124050

[Difficulty]
HPDrainRate:5
CircleSize:5
OverallDifficulty:6
ApproachRate:5
SliderMultiplier:1.4
SliderTickRate:1

[Events]
//Background and Video events
0,0,"Pleiadess.jpg",0,115
//Break Periods
//Storyboard Layer 0 (Background)
//Storyboard Layer 1 (Fail)
//Storyboard Layer 2 (Pass)
//Storyboard Layer 3 (Foreground)
//Storyboard Layer 4 (Overlay)
//Storyboard Sound Samples

[TimingPoints]
-555,280.373831775701,4,1,0,70,1,0
426,-105.263157894737,4,1,0,70,0,0
9398,-100,4,1,0,80,0,0
18510,-100,4,1,0,70,0,0
22856,-100,4,1,0,80,0,0
27482,-100,4,1,0,70,0,0
31828,-100,4,1,0,80,0,0
36454,-100,4,1,0,70,0,0
49772,-100,4,1,0,90,0,1
67716,-100,4,1,0,80,0,0
76828,-100,4,1,0,70,0,0
81173,-100,4,1,0,80,0,0
94772,-100,4,1,0,70,0,0
108089,-100,4,1,0,90,0,1
126033,-100,4,1,0,90,0,0
130519,-100,4,1,0,65,0,0
134024,-100,4,1,0,60,0,0
135005,-100,4,1,0,70,0,0
161921,-100,4,1,0,85,0,1
180005,-100,4,1,0,70,0,0
197809,-100,4,1,0,90,0,1
233697,-100,4,1,0,80,0,0
242949,-100,4,1,0,70,0,0
247155,-100,4,1,0,80,0,0

[HitObjects]
206,177,426,5,0,0:0:0:0:
237,174,706,1,0,0:0:0:0:
323,175,846,1,8,0:0:0:0:
267,191,1547,1,0,0:0:0:0:
267,191,1828,1,0,0:0:0:0:
322,186,1968,1,8,0:0:0:0:
267,182,2669,1,0,0:0:0:0:
256,192,2949,1,0,1:0:0:0:
317,189,3089,1,8,0:0:0:0:
256,192,3790,1,8,1:0:0:0:
256,192,4071,1,0,1:0:0:0:
340,219,4351,1,8,0:0:0:0:
256,192,4631,1,8,1:0:0:0:
256,192,4912,1,0,1:0:0:0:
256,192,5192,1,8,1:0:0:0:
256,192,5332,1,0,1:0:0:0:
256,192,5613,1,8,1:0:0:0:
256,192,5753,1,8,1:0:0:0:
256,192,5893,1,8,1:0:0:0:
256,192,6033,1,0,1:0:0:0:
256,192,6314,1,8,1:0:0:0:
256,192,6454,1,0,1:0:0:0:
256,192,6734,1,8,1:0:0:0:
243,211,6874,1,0,0:0:0:0:
256,192,7015,1,8,1:0:0:0:
256,192,7155,1,0,1:0:0:0:
256,192,7435,1,8,1:0:0:0:
256,192,7575,1,0,1:0:0:0:
256,192,7856,1,8,1:0:0:0:
256,192,7996,1,8,1:0:0:0:
256,192,8136,1,8,1:0:0:0:
256,192,8276,1,4,1:0:0:0:
336,194,8557,1,12,0:0:0:0:
256,192,8837,1,4,1:0:0:0:
256,192,9117,1,0,1:0:0:0:
256,177,9258,1,0,0:0:0:0:
327,193,9398,1,12,0:0:0:0:
256,192,9678,1,0,1:0:0:0:
256,192,9818,1,8,1:0:0:0:
256,192,9959,1,8,1:0:0:0:
256,192,10099,1,0,1:0:0:0:
270,218,10169,1,0,0:0:0:0:
270,218,10239,1,0,0:0:0:0:
256,192,10379,1,8,1:0:0:0:
256,192,10519,1,4,1:0:0:0:
256,192,10800,1,0,1:0:0:0:
256,192,10940,1,8,1:0:0:0:
256,192,11080,1,0,1:0:0:0:
256,192,11220,1,8,1:0:0:0:
313,206,11290,1,8,0:0:0:0:
283,193,11360,1,0,0:0:0:0:
256,192,11501,1,8,1:0:0:0:
256,192,11641,1,4,1:0:0:0:
256,192,11921,1,0,1:0:0:0:
256,192,12061,1,8,1:0:0:0:
256,192,12202,1,8,1:0:0:0:
256,192,12342,1,0,1:0:0:0:
276,204,12412,1,0,0:0:0:0:
256,192,12482,1,8,1:0:0:0:
301,228,12622,1,0,0:0:0:0:
363,202,12762,1,12,0:0:0:0:
256,192,13043,1,0,1:0:0:0:
248,201,13183,1,0,0:0:0:0:
256,192,13323,1,12,1:0:0:0:
256,192,13603,1,8,1:0:0:0:
218,177,13744,1,0,0:0:0:0:
323,200,13884,1,12,0:0:0:0:
256,192,14164,1,8,1:0:0:0:
256,192,14304,1,8,1:0:0:0:
256,192,14445,1,0,1:0:0:0:
256,192,14585,1,8,1:0:0:0:
308,212,14655,1,0,0:0:0:0:
318,208,14725,1,8,0:0:0:0:
302,202,14865,1,0,0:0:0:0:
345,193,15005,1,12,0:0:0:0:
256,192,15286,1,0,1:0:0:0:
256,192,15426,1,8,1:0:0:0:
256,192,15566,1,0,1:0:0:0:
256,192,15706,1,8,1:0:0:0:
379,193,15776,1,8,0:0:0:0:
256,192,15846,1,8,1:0:0:0:
294,204,15987,1,0,0:0:0:0:
350,207,16127,1,12,0:0:0:0:
256,192,16407,1,0,1:0:0:0:
256,192,16547,1,8,1:0:0:0:
256,192,16687,1,8,1:0:0:0:
256,192,16828,1,0,1:0:0:0:
298,196,16898,1,0,0:0:0:0:
256,192,16968,1,0,1:0:0:0:
256,192,17108,1,8,1:0:0:0:
256,192,17248,1,4,1:0:0:0:
256,192,17529,1,0,1:0:0:0:
301,200,17669,1,8,0:0:0:0:
240,203,17809,1,4,0:0:0:0:
256,192,18089,1,8,1:0:0:0:
215,204,18230,1,0,0:0:0:0:
256,192,18370,1,0,1:0:0:0:
256,192,18510,1,12,1:0:0:0:
256,192,18790,1,0,1:0:0:0:
256,192,19071,1,8,1:0:0:0:
256,192,19211,1,0,1:0:0:0:
256,192,19351,1,8,1:0:0:0:
256,192,19631,1,0,1:0:0:0:
256,192,19772,1,0,1:0:0:0:
256,192,19912,1,8,1:0:0:0:
256,192,20052,1,0,1:0:0:0:
256,192,20332,1,8,1:0:0:0:
375,186,20473,1,8,0:0:0:0:
256,192,20613,1,0,1:0:0:0:
219,204,20753,1,0,0:0:0:0:
330,205,20893,1,8,0:0:0:0:
296,208,21033,1,0,0:0:0:0:
256,192,21314,1,0,1:0:0:0:
319,230,21454,1,0,0:0:0:0:
256,192,21594,1,8,1:0:0:0:
345,180,21874,1,8,0:0:0:0:
256,192,22015,1,0,1:0:0:0:
256,192,22155,1,8,1:0:0:0:
256,192,22435,1,8,1:0:0:0:
256,192,22575,1,8,1:0:0:0:
256,192,22716,1,8,1:0:0:0:
256,192,22856,1,4,1:0:0:0:
256,192,23136,1,0,1:0:0:0:
256,192,23276,1,8,1:0:0:0:
256,192,23416,1,8,1:0:0:0:
256,192,23557,1,0,1:0:0:0:
281,208,23627,1,0,0:0:0:0:
256,192,23697,1,0,1:0:0:0:
256,192,23837,1,8,1:0:0:0:
256,192,23977,1,4,1:0:0:0:
256,192,24258,1,0,1:0:0:0:
256,192,24398,1,8,1:0:0:0:
256,192,24538,1,0,1:0:0:0:
256,192,24678,1,8,1:0:0:0:
349,203,24748,1,8,0:0:0:0:
296,197,24818,1,0,0:0:0:0:
256,192,24959,1,8,1:0:0:0:
256,192,25099,1,4,1:0:0:0:
256,192,25379,1,0,1:0:0:0:
256,192,25519,1,8,1:0:0:0:
256,192,25659,1,8,1:0:0:0:
256,192,25800,1,0,1:0:0:0:
292,200,25870,1,0,0:0:0:0:
256,192,25940,1,8,1:0:0:0:
256,192,26080,1,8,1:0:0:0:
256,192,26220,1,4,1:0:0:0:
256,192,26501,1,0,1:0:0:0:
185,188,26641,1,0,0:0:0:0:
256,192,26781,1,12,1:0:0:0:
256,192,27061,1,8,1:0:0:0:
289,195,27202,1,8,0:0:0:0:
256,192,27342,1,0,1:0:0:0:
256,192,27482,1,12,1:0:0:0:
256,192,27762,1,0,1:0:0:0:
256,192,27902,1,8,1:0:0:0:
256,192,28043,1,0,1:0:0:0:
233,202,28183,1,0,0:0:0:0:
256,192,28323,1,8,1:0:0:0:
342,191,28603,1,8,0:0:0:0:
342,191,28744,1,8,0:0:0:0:
276,192,28884,1,0,0:0:0:0:
339,186,29024,1,8,0:0:0:0:
315,192,29304,1,8,0:0:0:0:
291,200,29445,1,0,0:0:0:0:
284,193,29585,1,0,0:0:0:0:
375,185,29725,1,8,0:0:0:0:
256,192,29865,1,8,1:0:0:0:
303,218,30005,1,0,0:0:0:0:
321,208,30145,1,8,0:0:0:0:
292,193,30286,1,0,0:0:0:0:
256,192,30566,1,0,1:0:0:0:
256,192,30846,1,8,1:0:0:0:
256,192,30987,1,8,1:0:0:0:
256,192,31127,1,0,1:0:0:0:
256,192,31407,1,8,1:0:0:0:
256,192,31547,1,8,1:0:0:0:
256,192,31687,1,8,1:0:0:0:
256,192,31828,1,4,1:0:0:0:
256,192,32108,1,0,1:0:0:0:
256,192,32248,1,8,1:0:0:0:
256,192,32388,1,8,1:0:0:0:
256,192,32529,1,0,1:0:0:0:
295,234,32599,1,0,0:0:0:0:
256,192,32669,1,0,1:0:0:0:
256,192,32809,1,8,1:0:0:0:
256,192,32949,1,4,1:0:0:0:
256,192,33230,1,0,1:0:0:0:
256,192,33370,1,8,1:0:0:0:
256,192,33510,1,0,1:0:0:0:
256,192,33650,1,8,1:0:0:0:
326,209,33720,1,8,0:0:0:0:
271,175,33790,1,0,0:0:0:0:
256,192,33930,1,8,1:0:0:0:
256,192,34071,1,4,1:0:0:0:
256,192,34351,1,0,1:0:0:0:
256,192,34491,1,8,1:0:0:0:
256,192,34631,1,8,1:0:0:0:
256,192,34772,1,0,1:0:0:0:
275,204,34842,1,0,0:0:0:0:
256,192,34912,1,0,1:0:0:0:
256,192,35052,1,8,1:0:0:0:
256,192,35192,1,4,1:0:0:0:
256,192,35473,1,4,1:0:0:0:
256,192,35753,1,12,1:0:0:0:
256,192,36033,1,12,1:0:0:0:
306,226,36173,1,0,0:0:0:0:
256,192,36314,1,0,1:0:0:0:
256,192,36454,1,12,1:0:0:0:
353,202,36734,1,8,0:0:0:0:
256,192,36874,1,0,1:0:0:0:
297,233,37015,1,0,0:0:0:0:
256,192,37155,1,8,1:0:0:0:
320,226,37295,1,8,0:0:0:0:
256,192,37435,1,0,1:0:0:0:
256,192,37716,1,0,1:0:0:0:
371,199,37856,1,8,0:0:0:0:
256,192,37996,1,8,1:0:0:0:
233,182,38276,1,0,0:0:0:0:
341,193,38416,1,8,0:0:0:0:
288,206,38557,1,8,0:0:0:0:
256,192,38697,1,0,1:0:0:0:
337,203,38977,1,8,0:0:0:0:
256,192,39117,1,0,1:0:0:0:
256,192,39398,1,8,1:0:0:0:
321,222,39538,1,8,0:0:0:0:
256,192,39678,1,0,1:0:0:0:
256,192,39959,1,8,1:0:0:0:
256,192,40099,1,0,1:0:0:0:
256,192,40379,1,0,1:0:0:0:
294,201,40519,1,0,0:0:0:0:
256,192,40659,1,8,1:0:0:0:
256,192,40940,1,0,1:0:0:0:
256,192,41220,1,8,1:0:0:0:
256,192,41501,1,0,1:0:0:0:
256,192,41641,1,0,1:0:0:0:
256,192,41781,1,8,1:0:0:0:
332,262,41921,1,8,0:0:0:0:
256,192,42061,1,0,1:0:0:0:
256,192,42342,1,8,1:0:0:0:
256,192,42482,1,0,1:0:0:0:
288,229,42622,1,8,0:0:0:0:
256,192,42902,1,8,1:0:0:0:
256,192,43183,1,0,1:0:0:0:
261,197,43323,1,0,0:0:0:0:
256,192,43463,1,8,1:0:0:0:
338,187,43744,1,8,0:0:0:0:
283,196,43884,1,0,0:0:0:0:
256,192,44024,1,8,1:0:0:0:
352,210,44164,1,8,0:0:0:0:
256,192,44304,1,0,1:0:0:0:
339,193,44585,1,8,0:0:0:0:
261,204,44865,1,0,0:0:0:0:
261,204,45005,1,0,0:0:0:0:
360,181,45145,1,8,0:0:0:0:
256,192,45426,1,12,1:0:0:0:
365,181,45706,1,8,0:0:0:0:
256,192,45846,1,0,1:0:0:0:
256,192,46127,1,8,1:0:0:0:
356,184,46267,1,8,0:0:0:0:
256,192,46407,1,0,1:0:0:0:
256,192,46687,1,8,1:0:0:0:
256,192,46828,1,0,1:0:0:0:
256,192,47108,1,8,1:0:0:0:
256,192,47248,1,0,1:0:0:0:
256,192,47388,1,8,1:0:0:0:
256,192,47669,1,0,1:0:0:0:
256,192,47809,1,0,1:0:0:0:
256,192,47949,1,8,1:0:0:0:
256,192,48230,1,0,1:0:0:0:
370,177,48370,1,8,0:0:0:0:
256,192,48510,1,8,1:0:0:0:
256,192,48790,1,0,1:0:0:0:
347,177,48930,1,8,0:0:0:0:
288,182,49071,1,0,0:0:0:0:
288,182,49141,1,0,0:0:0:0:
288,182,49211,1,0,0:0:0:0:
288,182,49281,1,0,0:0:0:0:
256,192,49351,1,8,1:0:0:0:
256,192,49491,1,0,1:0:0:0:
256,192,49772,1,12,1:0:0:0:
263,183,50052,1,0,0:0:0:0:
256,192,50192,1,8,1:0:0:0:
256,192,50332,1,0,1:0:0:0:
256,192,50473,1,8,1:0:0:0:
356,191,50543,1,8,0:0:0:0:
256,192,50613,1,0,1:0:0:0:
231,207,50683,1,0,0:0:0:0:
301,189,50753,1,8,0:0:0:0:
279,187,50893,1,8,0:0:0:0:
288,224,51033,1,0,0:0:0:0:
275,195,51103,1,0,0:0:0:0:
274,196,51173,1,0,0:0:0:0:
266,197,51314,1,8,0:0:0:0:
254,210,51454,1,0,0:0:0:0:
317,200,51594,1,8,0:0:0:0:
357,187,51664,1,8,0:0:0:0:
317,200,51734,1,8,0:0:0:0:
352,191,51874,1,8,0:0:0:0:
256,192,52015,1,4,1:0:0:0:
332,195,52295,1,8,0:0:0:0:
295,184,52435,1,0,0:0:0:0:
339,193,52575,1,8,0:0:0:0:
256,192,52716,1,0,1:0:0:0:
265,184,52786,1,0,0:0:0:0:
336,188,52856,1,8,0:0:0:0:
336,188,52926,1,8,0:0:0:0:
256,192,52996,1,8,1:0:0:0:
256,192,53136,1,8,1:0:0:0:
256,192,53276,1,0,1:0:0:0:
285,197,53346,1,0,0:0:0:0:
284,197,53416,1,0,0:0:0:0:
256,192,53557,1,8,1:0:0:0:
277,192,53697,1,0,0:0:0:0:
327,189,53837,1,8,0:0:0:0:
311,209,53907,1,8,0:0:0:0:
294,197,53977,1,0,0:0:0:0:
345,188,54117,1,8,0:0:0:0:
256,192,54398,1,0,1:0:0:0:
298,208,54468,1,0,0:0:0:0:
256,192,54538,1,0,1:0:0:0:
256,192,54678,1,8,1:0:0:0:
291,191,54818,1,0,0:0:0:0:
343,190,54959,1,8,0:0:0:0:
343,190,55029,1,8,0:0:0:0:
311,189,55099,1,0,0:0:0:0:
383,180,55239,1,8,0:0:0:0:
256,192,55519,1,8,1:0:0:0:
333,197,55589,1,8,0:0:0:0:
256,192,55659,1,0,1:0:0:0:
256,192,55730,1,0,1:0:0:0:
406,186,55800,1,8,0:0:0:0:
256,192,55940,1,0,1:0:0:0:
256,192,56080,1,8,1:0:0:0:
344,177,56150,1,8,0:0:0:0:
256,192,56220,1,8,1:0:0:0:
256,192,56360,1,0,1:0:0:0:
256,192,56641,1,8,1:0:0:0:
332,186,56711,1,8,0:0:0:0:
276,190,56781,1,0,0:0:0:0:
256,192,56921,1,0,1:0:0:0:
256,192,57061,1,8,1:0:0:0:
286,207,57202,1,0,0:0:0:0:
283,191,57272,1,0,0:0:0:0:
256,192,57342,1,0,1:0:0:0:
256,192,57482,1,8,1:0:0:0:
256,192,57762,1,8,1:0:0:0:
256,192,57902,1,8,1:0:0:0:
256,192,58043,1,0,1:0:0:0:
256,192,58113,1,0,1:0:0:0:
256,192,58183,1,0,1:0:0:0:
288,224,58253,1,0,0:0:0:0:
256,192,58323,1,8,1:0:0:0:
256,192,58463,1,0,1:0:0:0:
256,192,58744,1,12,1:0:0:0:
312,229,59024,1,0,0:0:0:0:
256,192,59164,1,8,1:0:0:0:
256,192,59304,1,0,1:0:0:0:
256,192,59445,1,8,1:0:0:0:
366,177,59515,1,8,0:0:0:0:
266,202,59585,1,0,0:0:0:0:
266,202,59655,1,0,0:0:0:0:
266,202,59725,1,0,0:0:0:0:
316,192,59865,1,8,0:0:0:0:
256,192,60005,1,8,1:0:0:0:
314,200,60075,1,8,0:0:0:0:
285,203,60145,1,0,0:0:0:0:
256,192,60286,1,8,1:0:0:0:
332,194,60426,1,8,0:0:0:0:
307,226,60566,1,0,0:0:0:0:
285,203,60636,1,0,0:0:0:0:
314,193,60706,1,0,0:0:0:0:
336,193,60846,1,8,0:0:0:0:
256,192,60987,1,4,0:0:0:0:
277,207,61267,1,0,0:0:0:0:
256,192,61407,1,8,1:0:0:0:
243,209,61547,1,0,0:0:0:0:
256,192,61687,1,8,1:0:0:0:
339,201,61758,1,8,0:0:0:0:
256,192,61828,1,0,1:0:0:0:
299,198,61898,1,0,0:0:0:0:
256,192,61968,1,8,1:0:0:0:
256,192,62108,1,8,1:0:0:0:
256,192,62248,1,0,1:0:0:0:
276,206,62318,1,0,0:0:0:0:
276,206,62388,1,0,0:0:0:0:
256,192,62529,1,8,1:0:0:0:
287,222,62669,1,0,0:0:0:0:
316,216,62809,1,8,0:0:0:0:
305,209,62879,1,0,0:0:0:0:
316,216,62949,1,8,0:0:0:0:
276,206,63089,1,0,0:0:0:0:
256,192,63370,1,0,1:0:0:0:
285,197,63440,1,0,0:0:0:0:
256,192,63510,1,8,1:0:0:0:
328,223,63650,1,8,0:0:0:0:
256,192,63790,1,0,1:0:0:0:
256,192,63930,1,8,1:0:0:0:
336,186,64001,1,8,0:0:0:0:
256,192,64071,1,8,1:0:0:0:
256,192,64211,1,0,1:0:0:0:
256,192,64491,1,0,1:0:0:0:
325,189,64561,1,8,0:0:0:0:
288,193,64631,1,0,0:0:0:0:
271,193,64702,1,0,0:0:0:0:
256,192,64772,1,8,1:0:0:0:
256,192,64912,1,0,1:0:0:0:
256,192,65052,1,8,1:0:0:0:
356,195,65122,1,8,0:0:0:0:
252,204,65192,1,0,0:0:0:0:
356,195,65332,1,8,0:0:0:0:
256,192,65613,1,8,1:0:0:0:
337,201,65683,1,8,0:0:0:0:
256,192,65753,1,0,1:0:0:0:
256,192,65893,1,8,1:0:0:0:
256,192,66033,1,0,1:0:0:0:
305,192,66173,1,8,0:0:0:0:
339,205,66244,1,8,0:0:0:0:
336,206,66314,1,8,0:0:0:0:
266,193,66454,1,0,0:0:0:0:
256,192,66734,1,8,1:0:0:0:
286,209,66874,1,0,0:0:0:0:
329,199,67015,1,8,0:0:0:0:
328,200,67085,1,8,0:0:0:0:
256,192,67155,1,0,1:0:0:0:
256,192,67295,1,8,1:0:0:0:
256,192,67435,1,8,1:0:0:0:
256,192,67575,1,8,1:0:0:0:
256,192,67716,1,4,1:0:0:0:
235,188,67996,1,0,0:0:0:0:
256,192,68136,1,8,1:0:0:0:
256,192,68276,1,8,1:0:0:0:
256,192,68416,1,0,1:0:0:0:
299,187,68487,1,0,0:0:0:0:
256,192,68557,1,0,1:0:0:0:
256,192,68697,1,8,1:0:0:0:
256,192,68837,1,4,1:0:0:0:
385,192,69117,1,8,0:0:0:0:
256,192,69258,1,8,1:0:0:0:
256,192,69398,1,0,1:0:0:0:
256,192,69538,1,8,1:0:0:0:
358,194,69608,1,8,0:0:0:0:
256,192,69678,1,8,1:0:0:0:
274,205,69818,1,0,0:0:0:0:
331,188,69959,1,12,0:0:0:0:
256,192,70239,1,0,1:0:0:0:
256,192,70379,1,8,1:0:0:0:
256,192,70519,1,8,1:0:0:0:
256,192,70659,1,0,1:0:0:0:
283,197,70730,1,0,0:0:0:0:
256,192,70800,1,8,1:0:0:0:
283,197,70940,1,0,0:0:0:0:
348,194,71080,1,12,0:0:0:0:
256,192,71360,1,0,1:0:0:0:
244,172,71501,1,0,0:0:0:0:
256,192,71641,1,12,1:0:0:0:
256,192,71921,1,8,1:0:0:0:
286,209,72061,1,0,0:0:0:0:
309,208,72202,1,12,0:0:0:0:
256,192,72482,1,8,1:0:0:0:
256,192,72622,1,8,1:0:0:0:
256,192,72762,1,0,1:0:0:0:
256,192,72902,1,8,1:0:0:0:
363,199,72973,1,8,0:0:0:0:
237,176,73043,1,0,0:0:0:0:
256,192,73183,1,8,1:0:0:0:
256,192,73323,1,4,1:0:0:0:
256,192,73603,1,0,1:0:0:0:
256,192,73744,1,8,1:0:0:0:
256,192,73884,1,0,1:0:0:0:
256,192,74024,1,8,1:0:0:0:
297,209,74094,1,0,0:0:0:0:
256,192,74164,1,8,1:0:0:0:
287,190,74304,1,0,0:0:0:0:
319,195,74445,1,12,0:0:0:0:
256,192,74725,1,0,1:0:0:0:
256,192,74865,1,8,1:0:0:0:
256,192,75005,1,8,1:0:0:0:
256,192,75145,1,0,1:0:0:0:
292,192,75216,1,0,0:0:0:0:
256,192,75286,1,0,1:0:0:0:
256,192,75426,1,8,1:0:0:0:
256,192,75566,1,4,1:0:0:0:
256,192,75846,1,4,1:0:0:0:
256,192,76127,1,12,1:0:0:0:
256,192,76407,1,8,1:0:0:0:
350,187,76547,1,8,0:0:0:0:
350,187,76687,1,8,0:0:0:0:
256,192,76828,1,4,1:0:0:0:
295,213,77108,1,0,0:0:0:0:
345,212,77388,1,8,0:0:0:0:
278,190,77669,1,0,0:0:0:0:
288,216,77809,1,0,0:0:0:0:
330,200,77949,1,8,0:0:0:0:
343,198,78089,1,8,0:0:0:0:
272,195,78230,1,0,0:0:0:0:
325,193,78370,1,8,0:0:0:0:
317,195,78650,1,8,0:0:0:0:
255,192,78790,1,0,0:0:0:0:
299,192,79071,1,8,0:0:0:0:
339,195,79211,1,8,0:0:0:0:
301,180,79351,1,0,0:0:0:0:
275,189,79491,1,0,0:0:0:0:
363,195,79631,1,8,0:0:0:0:
286,199,79912,1,0,0:0:0:0:
359,207,80192,1,8,0:0:0:0:
302,197,80332,1,0,0:0:0:0:
256,192,80473,1,8,1:0:0:0:
256,192,80753,1,8,1:0:0:0:
256,192,80893,1,8,1:0:0:0:
256,192,81033,1,8,1:0:0:0:
256,192,81173,1,4,1:0:0:0:
256,192,81454,1,0,1:0:0:0:
256,192,81594,1,8,1:0:0:0:
256,192,81734,1,8,1:0:0:0:
256,192,81874,1,0,1:0:0:0:
282,226,81945,1,0,0:0:0:0:
256,192,82015,1,0,1:0:0:0:
256,192,82155,1,8,1:0:0:0:
256,192,82295,1,4,1:0:0:0:
256,192,82575,1,0,1:0:0:0:
256,192,82716,1,8,1:0:0:0:
256,192,82856,1,0,1:0:0:0:
256,192,82996,1,8,1:0:0:0:
319,218,83066,1,8,0:0:0:0:
294,205,83136,1,0,0:0:0:0:
256,192,83276,1,8,1:0:0:0:
256,192,83416,1,4,1:0:0:0:
256,192,83697,1,0,1:0:0:0:
256,192,83837,1,8,1:0:0:0:
256,192,83977,1,8,1:0:0:0:
256,192,84117,1,0,1:0:0:0:
282,209,84187,1,0,0:0:0:0:
256,192,84258,1,8,1:0:0:0:
306,198,84398,1,0,0:0:0:0:
347,198,84538,1,12,0:0:0:0:
256,192,84818,1,0,1:0:0:0:
282,209,84959,1,0,0:0:0:0:
256,192,85099,1,12,1:0:0:0:
256,192,85379,1,8,1:0:0:0:
308,234,85519,1,0,0:0:0:0:
256,192,85659,1,0,1:0:0:0:
256,192,85800,1,12,1:0:0:0:
256,192,86080,1,8,1:0:0:0:
256,192,86220,1,0,1:0:0:0:
256,192,86360,1,8,1:0:0:0:
256,192,86501,1,0,1:0:0:0:
256,192,86641,1,8,1:0:0:0:
256,192,86921,1,0,1:0:0:0:
256,192,87061,1,0,1:0:0:0:
256,192,87202,1,8,1:0:0:0:
313,203,87342,1,8,0:0:0:0:
256,192,87622,1,0,1:0:0:0:
256,192,87762,1,8,1:0:0:0:
256,192,87902,1,8,1:0:0:0:
283,197,88043,1,0,0:0:0:0:
346,188,88183,1,8,0:0:0:0:
256,192,88463,1,0,1:0:0:0:
283,197,88533,1,0,0:0:0:0:
256,192,88603,1,8,1:0:0:0:
256,192,88884,1,8,1:0:0:0:
256,192,88954,1,8,1:0:0:0:
256,192,89024,1,8,1:0:0:0:
347,198,89094,1,8,0:0:0:0:
256,192,89164,1,0,1:0:0:0:
256,192,89304,1,0,1:0:0:0:
256,192,89445,1,8,1:0:0:0:
256,192,89585,1,0,1:0:0:0:
256,192,89725,1,8,1:0:0:0:
256,192,89865,1,8,1:0:0:0:
256,192,90005,1,8,1:0:0:0:
256,192,90145,1,4,1:0:0:0:
195,194,90426,1,0,0:0:0:0:
256,192,90566,1,8,1:0:0:0:
256,192,90706,1,8,1:0:0:0:
256,192,90846,1,0,1:0:0:0:
270,204,90916,1,0,0:0:0:0:
256,192,90987,1,0,1:0:0:0:
256,192,91127,1,8,1:0:0:0:
256,192,91267,1,4,1:0:0:0:
256,192,91547,1,0,1:0:0:0:
256,192,91687,1,8,1:0:0:0:
256,192,91828,1,0,1:0:0:0:
256,192,91968,1,8,1:0:0:0:
340,200,92038,1,8,0:0:0:0:
257,215,92108,1,0,0:0:0:0:
256,192,92248,1,8,1:0:0:0:
256,192,92388,1,4,1:0:0:0:
256,192,92669,1,0,1:0:0:0:
256,192,92809,1,8,1:0:0:0:
256,192,92949,1,8,1:0:0:0:
256,192,93089,1,0,1:0:0:0:
269,197,93159,1,0,0:0:0:0:
256,192,93230,1,8,1:0:0:0:
304,204,93370,1,0,0:0:0:0:
359,199,93510,1,12,0:0:0:0:
256,192,93790,1,4,1:0:0:0:
256,192,94071,1,12,1:0:0:0:
256,192,94351,1,8,1:0:0:0:
256,192,94491,1,0,1:0:0:0:
256,192,94631,1,0,1:0:0:0:
256,192,94772,1,8,1:0:0:0:
289,215,95052,1,0,0:0:0:0:
349,195,95192,1,8,0:0:0:0:
256,192,95473,1,8,1:0:0:0:
391,189,95613,1,8,0:0:0:0:
256,192,95753,1,0,1:0:0:0:
378,192,96033,1,8,0:0:0:0:
261,201,96173,1,0,0:0:0:0:
330,189,96454,1,8,0:0:0:0:
296,198,96594,1,0,0:0:0:0:
364,196,96734,1,8,0:0:0:0:
256,192,97015,1,0,1:0:0:0:
317,189,97155,1,0,0:0:0:0:
256,192,97295,1,8,1:0:0:0:
314,201,97575,1,0,0:0:0:0:
256,192,97716,1,8,1:0:0:0:
328,201,97856,1,8,0:0:0:0:
256,192,97996,1,0,1:0:0:0:
362,173,98136,1,8,0:0:0:0:
256,192,98416,1,0,1:0:0:0:
256,192,98697,1,0,1:0:0:0:
256,192,98837,1,0,1:0:0:0:
256,192,98977,1,8,1:0:0:0:
256,192,99258,1,0,1:0:0:0:
334,188,99398,1,8,0:0:0:0:
354,181,99538,1,8,0:0:0:0:
256,192,99818,1,0,1:0:0:0:
290,189,99959,1,0,0:0:0:0:
256,192,100099,1,8,1:0:0:0:
370,188,100239,1,8,0:0:0:0:
256,192,100379,1,0,1:0:0:0:
256,192,100659,1,8,1:0:0:0:
306,202,100940,1,8,0:0:0:0:
343,181,101080,1,8,0:0:0:0:
308,186,101220,1,0,0:0:0:0:
363,197,101501,1,8,0:0:0:0:
294,229,101641,1,0,0:0:0:0:
306,213,101781,1,8,0:0:0:0:
256,192,102061,1,0,1:0:0:0:
290,228,102202,1,0,0:0:0:0:
256,192,102342,1,8,1:0:0:0:
317,200,102482,1,8,0:0:0:0:
256,192,102622,1,0,1:0:0:0:
305,171,102902,1,8,0:0:0:0:
256,192,103183,1,0,1:0:0:0:
256,192,103323,1,8,1:0:0:0:
256,192,103463,1,0,1:0:0:0:
256,192,103744,1,12,1:0:0:0:
347,198,104024,1,8,0:0:0:0:
256,192,104164,1,0,1:0:0:0:
256,192,104445,1,8,1:0:0:0:
343,204,104585,1,8,0:0:0:0:
256,192,104725,1,0,1:0:0:0:
256,192,105005,1,0,1:0:0:0:
256,192,105145,1,8,1:0:0:0:
256,192,105426,1,8,1:0:0:0:
256,192,105566,1,0,1:0:0:0:
256,192,105706,1,8,1:0:0:0:
256,192,105987,1,0,1:0:0:0:
256,192,106127,1,0,1:0:0:0:
256,192,106267,1,8,1:0:0:0:
256,192,106547,1,0,1:0:0:0:
357,190,106687,1,8,0:0:0:0:
322,182,106828,1,0,0:0:0:0:
332,195,107108,1,8,0:0:0:0:
372,195,107248,1,8,0:0:0:0:
268,191,107388,1,0,0:0:0:0:
268,191,107459,1,0,0:0:0:0:
268,191,107529,1,0,0:0:0:0:
294,205,107599,1,0,0:0:0:0:
256,192,107669,1,8,1:0:0:0:
256,192,107809,1,0,1:0:0:0:
256,192,108089,1,12,1:0:0:0:
289,209,108370,1,0,0:0:0:0:
256,192,108510,1,8,1:0:0:0:
256,192,108650,1,0,1:0:0:0:
256,192,108790,1,8,1:0:0:0:
322,228,108860,1,8,0:0:0:0:
256,192,108930,1,0,1:0:0:0:
256,192,109001,1,0,1:0:0:0:
344,203,109071,1,8,0:0:0:0:
344,197,109211,1,8,0:0:0:0:
283,195,109351,1,0,0:0:0:0:
283,195,109421,1,0,0:0:0:0:
283,195,109491,1,0,0:0:0:0:
332,230,109631,1,8,0:0:0:0:
283,184,109772,1,0,0:0:0:0:
285,202,109912,1,0,0:0:0:0:
259,190,109982,1,0,0:0:0:0:
322,208,110052,1,8,0:0:0:0:
363,182,110192,1,8,0:0:0:0:
286,195,110332,1,4,0:0:0:0:
256,192,110613,1,0,1:0:0:0:
256,192,110753,1,8,1:0:0:0:
256,192,110893,1,0,1:0:0:0:
357,189,111033,1,8,0:0:0:0:
249,202,111103,1,0,0:0:0:0:
292,204,111173,1,8,0:0:0:0:
292,204,111244,1,8,0:0:0:0:
257,187,111314,1,0,0:0:0:0:
256,192,111454,1,8,1:0:0:0:
256,192,111594,1,0,1:0:0:0:
292,215,111664,1,0,0:0:0:0:
292,215,111734,1,0,0:0:0:0:
256,192,111874,1,8,1:0:0:0:
245,202,112015,1,0,0:0:0:0:
301,208,112155,1,8,0:0:0:0:
321,205,112225,1,8,0:0:0:0:
281,186,112295,1,0,0:0:0:0:
256,192,112435,1,8,1:0:0:0:
256,192,112716,1,0,1:0:0:0:
321,202,112786,1,0,0:0:0:0:
357,202,112856,1,8,0:0:0:0:
252,201,112996,1,0,0:0:0:0:
256,192,113136,1,8,1:0:0:0:
314,206,113276,1,8,0:0:0:0:
314,206,113346,1,8,0:0:0:0:
256,192,113416,1,8,1:0:0:0:
256,192,113557,1,0,1:0:0:0:
256,192,113837,1,8,1:0:0:0:
386,197,113907,1,8,0:0:0:0:
256,192,113977,1,0,1:0:0:0:
256,192,114047,1,0,1:0:0:0:
256,192,114117,1,0,1:0:0:0:
319,211,114258,1,8,0:0:0:0:
305,206,114398,1,0,0:0:0:0:
288,216,114468,1,0,0:0:0:0:
256,192,114538,1,8,1:0:0:0:
256,192,114678,1,0,1:0:0:0:
256,192,114959,1,8,1:0:0:0:
371,204,115029,1,8,0:0:0:0:
253,204,115099,1,0,0:0:0:0:
256,192,115239,1,0,1:0:0:0:
256,192,115379,1,8,1:0:0:0:
234,197,115519,1,0,0:0:0:0:
239,195,115589,1,0,0:0:0:0:
256,192,115659,1,0,1:0:0:0:
256,192,115800,1,8,1:0:0:0:
256,192,116080,1,8,1:0:0:0:
256,192,116220,1,8,1:0:0:0:
256,192,116360,1,0,1:0:0:0:
256,192,116430,1,0,1:0:0:0:
228,195,116501,1,0,0:0:0:0:
262,195,116571,1,0,0:0:0:0:
256,192,116641,1,8,1:0:0:0:
256,192,116781,1,0,1:0:0:0:
256,192,117061,1,12,1:0:0:0:
314,256,117342,1,0,0:0:0:0:
256,192,117482,1,8,1:0:0:0:
256,192,117622,1,0,1:0:0:0:
256,192,117762,1,8,1:0:0:0:
338,189,117832,1,8,0:0:0:0:
305,218,117902,1,0,0:0:0:0:
279,202,117973,1,0,0:0:0:0:
256,192,118043,1,8,1:0:0:0:
256,192,118183,1,0,1:0:0:0:
256,192,118323,1,8,1:0:0:0:
319,201,118393,1,8,0:0:0:0:
280,182,118463,1,0,0:0:0:0:
256,192,118603,1,8,1:0:0:0:
256,192,118744,1,0,1:0:0:0:
381,199,118884,1,8,0:0:0:0:
381,199,118954,1,8,0:0:0:0:
381,199,119024,1,8,0:0:0:0:
274,193,119164,1,0,0:0:0:0:
346,199,119304,1,12,0:0:0:0:
256,192,119585,1,0,1:0:0:0:
256,192,119725,1,8,1:0:0:0:
270,209,119865,1,0,0:0:0:0:
256,192,120005,1,8,1:0:0:0:
356,210,120075,1,8,0:0:0:0:
338,208,120145,1,8,0:0:0:0:
321,197,120216,1,8,0:0:0:0:
226,195,120286,1,0,0:0:0:0:
256,192,120426,1,8,1:0:0:0:
256,192,120566,1,0,1:0:0:0:
282,230,120636,1,0,0:0:0:0:
288,224,120706,1,8,0:0:0:0:
273,198,120846,1,0,0:0:0:0:
305,198,120987,1,8,0:0:0:0:
256,192,121127,1,0,1:0:0:0:
304,206,121197,1,0,0:0:0:0:
303,206,121267,1,0,0:0:0:0:
293,208,121337,1,0,0:0:0:0:
256,192,121407,1,8,1:0:0:0:
256,192,121687,1,0,1:0:0:0:
288,218,121758,1,0,0:0:0:0:
256,192,121828,1,8,1:0:0:0:
256,192,121968,1,0,1:0:0:0:
333,204,122108,1,8,0:0:0:0:
298,194,122248,1,0,0:0:0:0:
298,194,122318,1,0,0:0:0:0:
256,192,122388,1,8,1:0:0:0:
256,192,122529,1,0,1:0:0:0:
256,192,122809,1,0,1:0:0:0:
278,189,122879,1,0,0:0:0:0:
256,192,122949,1,8,1:0:0:0:
256,192,123019,1,8,1:0:0:0:
256,192,123089,1,8,1:0:0:0:
256,192,123230,1,0,1:0:0:0:
329,193,123370,1,8,0:0:0:0:
329,193,123440,1,8,0:0:0:0:
303,186,123510,1,0,0:0:0:0:
326,182,123650,1,8,0:0:0:0:
256,192,123930,1,8,1:0:0:0:
324,189,124001,1,8,0:0:0:0:
256,192,124071,1,0,1:0:0:0:
256,192,124211,1,8,1:0:0:0:
284,200,124351,1,0,0:0:0:0:
337,195,124491,1,8,0:0:0:0:
334,195,124561,1,8,0:0:0:0:
256,192,124631,1,0,1:0:0:0:
256,192,124772,1,8,1:0:0:0:
256,192,125052,1,8,1:0:0:0:
256,192,125192,1,0,1:0:0:0:
256,192,125332,1,8,1:0:0:0:
256,192,125402,1,8,1:0:0:0:
309,197,125473,1,0,0:0:0:0:
256,192,125613,1,8,1:0:0:0:
256,192,125753,1,8,1:0:0:0:
256,192,125893,1,8,1:0:0:0:
256,192,126033,1,4,1:0:0:0:
346,194,130519,1,8,0:0:0:0:
346,194,130800,1,8,0:0:0:0:
346,194,131080,1,8,0:0:0:0:
346,194,131220,1,8,0:0:0:0:
256,192,134024,1,8,1:0:0:0:
332,188,134094,1,8,0:0:0:0:
256,192,134164,1,0,1:0:0:0:
297,205,134304,1,0,0:0:0:0:
256,192,134445,1,8,1:0:0:0:
334,195,134585,1,8,0:0:0:0:
289,215,134725,1,0,0:0:0:0:
256,192,134865,1,8,1:0:0:0:
256,192,135005,1,4,1:0:0:0:
256,192,135286,1,0,1:0:0:0:
256,192,135566,1,0,1:0:0:0:
256,192,135706,1,8,1:0:0:0:
348,202,136127,1,8,0:0:0:0:
256,192,136407,1,0,1:0:0:0:
256,192,136687,1,0,1:0:0:0:
256,192,136828,1,8,1:0:0:0:
256,192,137248,1,0,1:0:0:0:
363,185,137529,1,8,0:0:0:0:
256,192,137809,1,0,1:0:0:0:
256,192,137949,1,8,1:0:0:0:
256,192,138370,1,0,1:0:0:0:
256,192,138510,1,8,1:0:0:0:
323,226,138650,1,8,0:0:0:0:
256,192,138790,1,0,1:0:0:0:
256,192,139071,1,8,1:0:0:0:
256,192,139211,1,0,1:0:0:0:
256,192,139351,1,0,1:0:0:0:
256,192,139491,1,12,1:0:0:0:
256,192,139772,1,0,1:0:0:0:
256,192,140052,1,0,1:0:0:0:
256,192,140192,1,8,1:0:0:0:
256,192,140613,1,0,1:0:0:0:
346,194,140893,1,8,0:0:0:0:
256,192,141173,1,0,1:0:0:0:
256,192,141314,1,8,1:0:0:0:
330,184,141734,1,8,0:0:0:0:
256,192,142015,1,0,1:0:0:0:
256,192,142295,1,0,1:0:0:0:
256,192,142435,1,8,1:0:0:0:
256,192,142856,1,0,1:0:0:0:
256,192,142996,1,8,1:0:0:0:
318,219,143136,1,8,0:0:0:0:
256,192,143276,1,0,1:0:0:0:
297,191,143557,1,0,0:0:0:0:
256,192,143697,1,8,1:0:0:0:
256,192,143837,1,0,1:0:0:0:
256,192,143977,1,12,1:0:0:0:
256,192,144258,1,0,1:0:0:0:
256,192,144538,1,0,1:0:0:0:
256,192,144678,1,8,1:0:0:0:
256,192,145099,1,0,1:0:0:0:
325,195,145379,1,8,0:0:0:0:
256,192,145659,1,0,1:0:0:0:
256,192,145800,1,8,1:0:0:0:
324,185,146220,1,8,0:0:0:0:
256,192,146501,1,0,1:0:0:0:
256,192,146781,1,0,1:0:0:0:
256,192,146921,1,8,1:0:0:0:
256,192,147342,1,8,1:0:0:0:
256,192,147482,1,0,1:0:0:0:
378,189,147622,1,8,0:0:0:0:
256,192,147762,1,0,1:0:0:0:
256,192,148043,1,8,1:0:0:0:
256,192,148183,1,0,1:0:0:0:
256,192,148323,1,0,1:0:0:0:
256,192,148463,1,8,1:0:0:0:
256,192,148744,1,0,1:0:0:0:
256,192,149024,1,0,1:0:0:0:
256,192,149164,1,8,1:0:0:0:
256,192,149585,1,0,1:0:0:0:
354,215,149865,1,8,0:0:0:0:
256,192,150145,1,0,1:0:0:0:
256,192,150286,1,8,1:0:0:0:
328,224,150706,1,8,0:0:0:0:
256,192,150987,1,0,1:0:0:0:
256,192,151267,1,0,1:0:0:0:
256,192,151407,1,8,1:0:0:0:
256,192,151828,1,0,1:0:0:0:
256,192,151968,1,0,1:0:0:0:
356,189,152108,1,8,0:0:0:0:
256,192,152248,1,8,1:0:0:0:
256,192,152529,1,0,1:0:0:0:
256,192,152669,1,0,1:0:0:0:
256,192,152809,1,8,1:0:0:0:
256,192,152949,1,4,1:0:0:0:
256,192,153230,1,0,1:0:0:0:
256,192,153510,1,0,1:0:0:0:
256,192,153650,1,8,1:0:0:0:
256,192,154071,1,0,1:0:0:0:
316,220,154351,1,8,0:0:0:0:
256,192,154631,1,0,1:0:0:0:
256,192,154772,1,8,1:0:0:0:
319,242,155192,1,8,0:0:0:0:
256,192,155473,1,0,1:0:0:0:
256,192,155753,1,0,1:0:0:0:
256,192,155893,1,8,1:0:0:0:
256,192,156314,1,0,1:0:0:0:
256,192,156454,1,8,1:0:0:0:
370,206,156594,1,8,0:0:0:0:
256,192,156734,1,0,1:0:0:0:
256,192,157015,1,8,1:0:0:0:
256,192,157155,1,8,1:0:0:0:
256,192,157295,1,0,1:0:0:0:
256,192,157435,1,12,1:0:0:0:
256,192,157716,1,0,1:0:0:0:
256,192,157996,1,0,1:0:0:0:
256,192,158136,1,8,1:0:0:0:
256,192,158557,1,0,1:0:0:0:
347,202,158837,1,8,0:0:0:0:
256,192,159117,1,0,1:0:0:0:
256,192,159258,1,8,1:0:0:0:
256,192,159538,1,8,1:0:0:0:
256,192,159678,1,0,1:0:0:0:
300,186,159748,1,0,0:0:0:0:
311,185,159818,1,8,0:0:0:0:
395,177,159959,1,8,0:0:0:0:
290,217,160099,1,0,0:0:0:0:
357,198,160239,1,8,0:0:0:0:
256,192,160379,1,8,1:0:0:0:
256,192,160659,1,8,1:0:0:0:
256,192,160730,1,8,1:0:0:0:
256,192,160800,1,8,1:0:0:0:
359,186,160870,1,8,0:0:0:0:
256,192,160940,1,0,1:0:0:0:
387,185,161080,1,8,0:0:0:0:
256,192,161220,1,8,1:0:0:0:
256,192,161360,1,0,1:0:0:0:
256,192,161501,1,8,1:0:0:0:
256,192,161571,1,8,1:0:0:0:
265,206,161641,1,0,0:0:0:0:
264,206,161711,1,0,0:0:0:0:
345,186,161781,1,8,0:0:0:0:
256,192,161921,1,12,1:0:0:0:
254,216,162202,1,0,0:0:0:0:
256,192,162342,1,8,1:0:0:0:
346,200,162482,1,8,0:0:0:0:
256,192,162622,1,0,1:0:0:0:
256,192,162692,1,0,1:0:0:0:
256,192,162762,1,0,1:0:0:0:
256,192,162902,1,8,1:0:0:0:
277,215,163043,1,0,0:0:0:0:
354,200,163183,1,8,0:0:0:0:
354,200,163253,1,8,0:0:0:0:
299,205,163323,1,0,0:0:0:0:
256,192,163463,1,8,1:0:0:0:
256,192,163603,1,8,1:0:0:0:
256,192,163673,1,8,1:0:0:0:
256,192,163744,1,8,1:0:0:0:
256,192,163884,1,0,1:0:0:0:
284,198,164024,1,0,0:0:0:0:
287,211,164164,1,12,0:0:0:0:
256,192,164445,1,8,1:0:0:0:
256,192,164585,1,0,1:0:0:0:
354,193,164725,1,8,0:0:0:0:
354,193,164795,1,8,0:0:0:0:
276,193,164865,1,0,0:0:0:0:
256,192,165005,1,8,1:0:0:0:
256,192,165145,1,0,1:0:0:0:
256,192,165426,1,8,1:0:0:0:
256,192,165566,1,0,1:0:0:0:
256,192,165706,1,0,1:0:0:0:
269,244,165776,1,0,0:0:0:0:
185,205,165846,1,0,0:0:0:0:
256,192,165987,1,8,1:0:0:0:
256,192,166127,1,0,1:0:0:0:
303,231,166267,1,0,0:0:0:0:
318,197,166407,1,12,0:0:0:0:
353,202,166687,1,8,0:0:0:0:
256,192,166828,1,0,1:0:0:0:
256,192,166898,1,0,1:0:0:0:
368,202,166968,1,8,0:0:0:0:
312,200,167038,1,0,0:0:0:0:
256,192,167108,1,8,1:0:0:0:
256,192,167248,1,0,1:0:0:0:
256,192,167388,1,8,1:0:0:0:
256,192,167529,1,8,1:0:0:0:
256,192,167669,1,0,1:0:0:0:
283,197,167739,1,0,0:0:0:0:
352,191,167809,1,8,0:0:0:0:
294,193,167949,1,0,0:0:0:0:
256,192,168089,1,8,1:0:0:0:
256,192,168159,1,8,1:0:0:0:
288,198,168230,1,0,0:0:0:0:
357,193,168370,1,8,0:0:0:0:
256,192,168510,1,8,1:0:0:0:
256,192,168650,1,4,1:0:0:0:
256,192,168930,1,0,1:0:0:0:
256,192,169071,1,8,1:0:0:0:
256,192,169211,1,8,1:0:0:0:
256,192,169281,1,8,1:0:0:0:
228,206,169351,1,0,0:0:0:0:
256,192,169491,1,0,1:0:0:0:
256,192,169631,1,8,1:0:0:0:
256,192,169772,1,8,1:0:0:0:
256,192,169912,1,0,1:0:0:0:
301,218,170052,1,0,0:0:0:0:
256,192,170192,1,8,1:0:0:0:
256,192,170473,1,0,1:0:0:0:
256,192,170543,1,0,1:0:0:0:
256,192,170613,1,0,1:0:0:0:
301,223,170683,1,0,0:0:0:0:
256,192,170753,1,8,1:0:0:0:
256,192,170893,1,0,1:0:0:0:
338,204,171033,1,8,0:0:0:0:
302,206,171173,1,0,0:0:0:0:
291,207,171244,1,0,0:0:0:0:
256,192,171314,1,8,1:0:0:0:
256,192,171454,1,0,1:0:0:0:
256,192,171594,1,8,1:0:0:0:
256,192,171734,1,0,1:0:0:0:
352,198,171874,1,8,0:0:0:0:
352,198,171945,1,8,0:0:0:0:
256,192,172015,1,0,1:0:0:0:
286,213,172085,1,0,0:0:0:0:
256,192,172155,1,8,1:0:0:0:
256,192,172435,1,0,1:0:0:0:
256,192,172575,1,8,1:0:0:0:
256,192,172645,1,8,1:0:0:0:
256,192,172716,1,8,1:0:0:0:
345,193,172856,1,8,0:0:0:0:
264,192,172996,1,0,0:0:0:0:
364,200,173136,1,12,0:0:0:0:
256,192,173416,1,0,1:0:0:0:
256,192,173487,1,0,1:0:0:0:
345,193,173557,1,8,0:0:0:0:
256,192,173697,1,0,1:0:0:0:
256,192,173837,1,8,1:0:0:0:
256,192,173977,1,0,1:0:0:0:
256,192,174117,1,8,1:0:0:0:
339,227,174187,1,8,0:0:0:0:
256,192,174258,1,8,1:0:0:0:
256,192,174398,1,0,1:0:0:0:
243,216,174538,1,0,0:0:0:0:
383,204,174678,1,8,0:0:0:0:
234,178,174818,1,0,0:0:0:0:
346,195,174959,1,8,0:0:0:0:
284,184,175029,1,0,0:0:0:0:
366,180,175099,1,8,0:0:0:0:
287,205,175239,1,0,0:0:0:0:
351,198,175379,1,12,0:0:0:0:
309,173,175659,1,0,0:0:0:0:
256,192,175800,1,0,1:0:0:0:
256,192,175940,1,8,1:0:0:0:
256,192,176080,1,8,1:0:0:0:
360,216,176150,1,8,0:0:0:0:
256,192,176220,1,0,1:0:0:0:
343,191,176360,1,8,0:0:0:0:
290,195,176501,1,0,0:0:0:0:
356,202,176641,1,8,0:0:0:0:
361,198,176921,1,8,0:0:0:0:
290,195,177061,1,0,0:0:0:0:
283,193,177131,1,0,0:0:0:0:
256,192,177202,1,8,1:0:0:0:
256,192,177342,1,0,1:0:0:0:
299,222,177482,1,0,0:0:0:0:
321,194,177622,1,12,0:0:0:0:
256,192,177902,1,8,1:0:0:0:
299,222,178043,1,0,0:0:0:0:
336,215,178183,1,8,0:0:0:0:
334,215,178253,1,8,0:0:0:0:
256,192,178323,1,0,1:0:0:0:
256,192,178463,1,8,1:0:0:0:
256,192,178603,1,8,1:0:0:0:
256,192,178744,1,8,1:0:0:0:
292,219,178884,1,0,0:0:0:0:
288,215,179024,1,0,0:0:0:0:
308,204,179164,1,8,0:0:0:0:
372,215,179304,1,8,0:0:0:0:
256,192,179445,1,0,1:0:0:0:
303,208,179585,1,0,0:0:0:0:
326,185,179725,1,8,0:0:0:0:
337,206,179865,1,8,0:0:0:0:
295,181,180005,1,4,0:0:0:0:
360,202,180286,1,8,0:0:0:0:
256,192,180426,1,0,1:0:0:0:
256,192,180706,1,8,1:0:0:0:
239,215,180846,1,0,0:0:0:0:
337,202,180987,1,8,0:0:0:0:
256,192,181267,1,0,1:0:0:0:
277,214,181407,1,8,0:0:0:0:
296,191,181687,1,0,0:0:0:0:
294,214,181828,1,0,0:0:0:0:
333,178,181968,1,8,0:0:0:0:
256,192,182248,1,0,1:0:0:0:
339,200,182388,1,8,0:0:0:0:
296,194,182529,1,0,0:0:0:0:
281,207,182809,1,0,0:0:0:0:
256,192,182949,1,8,1:0:0:0:
376,200,183089,1,8,0:0:0:0:
256,192,183230,1,0,1:0:0:0:
337,193,183370,1,8,0:0:0:0:
356,186,183650,1,8,0:0:0:0:
256,192,183930,1,0,1:0:0:0:
276,195,184071,1,8,0:0:0:0:
247,177,184211,1,0,0:0:0:0:
256,192,184491,1,0,1:0:0:0:
301,180,184631,1,0,0:0:0:0:
256,192,184772,1,8,1:0:0:0:
362,194,185052,1,8,0:0:0:0:
256,192,185192,1,0,1:0:0:0:
256,192,185332,1,8,1:0:0:0:
324,204,185473,1,8,0:0:0:0:
256,192,185613,1,0,1:0:0:0:
279,188,185893,1,0,0:0:0:0:
337,198,186033,1,8,0:0:0:0:
335,216,186314,1,8,0:0:0:0:
257,202,186454,1,0,0:0:0:0:
339,211,186734,1,8,0:0:0:0:
316,195,186874,1,0,0:0:0:0:
368,201,187015,1,8,0:0:0:0:
256,192,187295,1,0,1:0:0:0:
256,192,187435,1,8,1:0:0:0:
285,218,187575,1,0,0:0:0:0:
280,202,187716,1,0,0:0:0:0:
339,189,187856,1,8,0:0:0:0:
334,224,187996,1,8,0:0:0:0:
301,195,188136,1,0,0:0:0:0:
256,192,188416,1,0,1:0:0:0:
306,220,188557,1,0,0:0:0:0:
345,200,188697,1,8,0:0:0:0:
256,192,188977,1,12,1:0:0:0:
326,221,189258,1,8,0:0:0:0:
256,192,189398,1,0,1:0:0:0:
256,192,189678,1,8,1:0:0:0:
343,213,189818,1,8,0:0:0:0:
256,192,189959,1,0,1:0:0:0:
256,192,190239,1,8,1:0:0:0:
256,192,190379,1,0,1:0:0:0:
256,192,190659,1,8,1:0:0:0:
256,192,190800,1,0,1:0:0:0:
256,192,190940,1,8,1:0:0:0:
256,192,191220,1,0,1:0:0:0:
250,210,191360,1,0,0:0:0:0:
256,192,191501,1,8,1:0:0:0:
326,209,191781,1,8,0:0:0:0:
278,190,191921,1,0,0:0:0:0:
357,186,192061,1,8,0:0:0:0:
256,192,192342,1,0,1:0:0:0:
321,201,192482,1,8,0:0:0:0:
285,195,192622,1,0,0:0:0:0:
285,195,192762,1,0,0:0:0:0:
329,190,192902,1,8,0:0:0:0:
278,191,193043,1,0,0:0:0:0:
330,187,193183,1,8,0:0:0:0:
329,190,193323,1,8,0:0:0:0:
256,192,193463,1,0,0:0:0:0:
247,191,197388,1,4,0:0:0:0:
256,192,197529,1,4,1:0:0:0:
256,192,197809,1,12,1:0:0:0:
279,244,198089,1,0,0:0:0:0:
256,192,198230,1,8,1:0:0:0:
256,192,198370,1,0,1:0:0:0:
256,192,198510,1,8,1:0:0:0:
279,204,198580,1,0,0:0:0:0:
343,207,198650,1,8,0:0:0:0:
343,207,198720,1,8,0:0:0:0:
256,192,198790,1,0,1:0:0:0:
358,198,198930,1,8,0:0:0:0:
293,208,199071,1,0,0:0:0:0:
292,208,199141,1,0,0:0:0:0:
292,208,199211,1,0,0:0:0:0:
332,204,199351,1,8,0:0:0:0:
305,195,199491,1,0,0:0:0:0:
256,192,199631,1,8,1:0:0:0:
350,203,199702,1,8,0:0:0:0:
256,192,199772,1,0,1:0:0:0:
256,192,199912,1,8,1:0:0:0:
256,192,200052,1,4,1:0:0:0:
256,192,200332,1,0,1:0:0:0:
256,192,200473,1,8,1:0:0:0:
256,192,200613,1,0,1:0:0:0:
304,196,200753,1,8,0:0:0:0:
304,196,200823,1,8,0:0:0:0:
256,192,200893,1,0,1:0:0:0:
248,213,200963,1,0,0:0:0:0:
256,192,201033,1,8,1:0:0:0:
256,192,201173,1,8,1:0:0:0:
256,192,201314,1,0,1:0:0:0:
292,215,201384,1,0,0:0:0:0:
354,200,201454,1,8,0:0:0:0:
299,186,201594,1,0,0:0:0:0:
336,202,201734,1,8,0:0:0:0:
256,192,201874,1,0,1:0:0:0:
289,206,201945,1,0,0:0:0:0:
289,206,202015,1,0,0:0:0:0:
290,208,202085,1,0,0:0:0:0:
256,192,202155,1,8,1:0:0:0:
256,192,202435,1,0,1:0:0:0:
301,210,202505,1,0,0:0:0:0:
350,202,202575,1,8,0:0:0:0:
292,201,202716,1,0,0:0:0:0:
290,208,202856,1,0,0:0:0:0:
343,191,202996,1,8,0:0:0:0:
343,191,203066,1,8,0:0:0:0:
256,192,203136,1,8,1:0:0:0:
256,192,203276,1,0,1:0:0:0:
256,192,203557,1,8,1:0:0:0:
336,195,203627,1,8,0:0:0:0:
326,202,203697,1,8,0:0:0:0:
348,197,203767,1,8,0:0:0:0:
256,192,203837,1,0,1:0:0:0:
256,192,203977,1,0,1:0:0:0:
256,192,204117,1,8,1:0:0:0:
328,221,204187,1,8,0:0:0:0:
310,202,204258,1,0,0:0:0:0:
370,203,204398,1,8,0:0:0:0:
256,192,204678,1,8,1:0:0:0:
304,205,204748,1,0,0:0:0:0:
256,192,204818,1,8,1:0:0:0:
256,192,204959,1,0,1:0:0:0:
256,192,205099,1,8,1:0:0:0:
278,188,205239,1,0,0:0:0:0:
278,188,205309,1,0,0:0:0:0:
256,192,205379,1,0,1:0:0:0:
256,192,205519,1,8,1:0:0:0:
256,192,205800,1,8,1:0:0:0:
256,192,205940,1,8,1:0:0:0:
256,192,206080,1,0,1:0:0:0:
256,192,206150,1,0,1:0:0:0:
256,192,206220,1,0,1:0:0:0:
295,219,206290,1,0,0:0:0:0:
256,192,206360,1,8,1:0:0:0:
256,192,206501,1,0,1:0:0:0:
256,192,206781,1,12,1:0:0:0:
310,240,207061,1,0,0:0:0:0:
256,192,207202,1,8,1:0:0:0:
256,192,207342,1,0,1:0:0:0:
287,194,207482,1,0,0:0:0:0:
254,169,207552,1,0,0:0:0:0:
256,192,207622,1,8,1:0:0:0:
256,192,207692,1,8,1:0:0:0:
292,191,207762,1,0,0:0:0:0:
356,199,207902,1,8,0:0:0:0:
303,198,208043,1,0,0:0:0:0:
305,197,208113,1,0,0:0:0:0:
306,200,208183,1,0,0:0:0:0:
256,192,208323,1,8,1:0:0:0:
256,192,208463,1,0,1:0:0:0:
356,199,208603,1,8,0:0:0:0:
356,199,208673,1,8,0:0:0:0:
356,199,208744,1,8,0:0:0:0:
256,192,208884,1,8,1:0:0:0:
256,192,209024,1,4,1:0:0:0:
256,192,209304,1,0,1:0:0:0:
256,192,209445,1,8,1:0:0:0:
279,194,209585,1,0,0:0:0:0:
256,192,209725,1,8,1:0:0:0:
317,198,209795,1,8,0:0:0:0:
256,192,209865,1,0,1:0:0:0:
298,195,209935,1,0,0:0:0:0:
294,197,210005,1,0,0:0:0:0:
256,192,210145,1,8,1:0:0:0:
256,192,210286,1,0,1:0:0:0:
298,196,210356,1,0,0:0:0:0:
335,200,210426,1,8,0:0:0:0:
273,218,210566,1,0,0:0:0:0:
332,209,210706,1,8,0:0:0:0:
256,192,210846,1,0,1:0:0:0:
314,206,210916,1,0,0:0:0:0:
314,206,210987,1,0,0:0:0:0:
314,206,211057,1,0,0:0:0:0:
256,192,211127,1,8,1:0:0:0:
256,192,211407,1,0,1:0:0:0:
275,209,211477,1,0,0:0:0:0:
256,192,211547,1,8,1:0:0:0:
256,192,211687,1,0,1:0:0:0:
308,187,211828,1,8,0:0:0:0:
256,192,211968,1,8,1:0:0:0:
311,191,212038,1,8,0:0:0:0:
256,192,212108,1,8,1:0:0:0:
256,192,212248,1,0,1:0:0:0:
256,192,212529,1,0,1:0:0:0:
317,192,212599,1,0,0:0:0:0:
256,192,212669,1,8,1:0:0:0:
256,192,212739,1,8,1:0:0:0:
256,192,212809,1,8,1:0:0:0:
256,192,212949,1,0,1:0:0:0:
256,192,213089,1,8,1:0:0:0:
373,187,213159,1,8,0:0:0:0:
256,192,213230,1,8,1:0:0:0:
256,192,213370,1,0,1:0:0:0:
256,192,213650,1,8,1:0:0:0:
346,211,213720,1,8,0:0:0:0:
256,192,213790,1,0,1:0:0:0:
256,192,213930,1,8,1:0:0:0:
256,192,214071,1,0,1:0:0:0:
365,222,214211,1,8,0:0:0:0:
368,215,214281,1,8,0:0:0:0:
256,192,214351,1,0,1:0:0:0:
256,192,214491,1,8,1:0:0:0:
256,192,214772,1,8,1:0:0:0:
286,195,214912,1,0,0:0:0:0:
361,200,215052,1,8,0:0:0:0:
361,200,215122,1,8,0:0:0:0:
256,192,215192,1,0,1:0:0:0:
256,192,215332,1,8,1:0:0:0:
256,192,215473,1,8,1:0:0:0:
256,192,215613,1,8,1:0:0:0:
256,192,215753,1,4,1:0:0:0:
316,228,216033,1,0,0:0:0:0:
256,192,216173,1,8,1:0:0:0:
256,192,216314,1,0,1:0:0:0:
256,192,216454,1,8,1:0:0:0:
353,187,216524,1,8,0:0:0:0:
256,192,216594,1,0,1:0:0:0:
256,192,216664,1,0,1:0:0:0:
353,195,216734,1,8,0:0:0:0:
256,192,216874,1,0,1:0:0:0:
256,192,217015,1,8,1:0:0:0:
348,191,217085,1,8,0:0:0:0:
272,194,217155,1,0,0:0:0:0:
315,203,217295,1,8,0:0:0:0:
277,213,217435,1,0,0:0:0:0:
330,205,217575,1,8,0:0:0:0:
328,205,217645,1,8,0:0:0:0:
292,177,217716,1,8,0:0:0:0:
246,200,217856,1,0,0:0:0:0:
350,198,217996,1,12,0:0:0:0:
256,192,218276,1,0,1:0:0:0:
256,192,218416,1,8,1:0:0:0:
325,185,218557,1,8,0:0:0:0:
256,192,218697,1,0,1:0:0:0:
314,193,218767,1,0,0:0:0:0:
348,195,218837,1,8,0:0:0:0:
348,195,218907,1,8,0:0:0:0:
256,192,218977,1,8,1:0:0:0:
313,205,219117,1,0,0:0:0:0:
352,196,219258,1,8,0:0:0:0:
337,209,219328,1,8,0:0:0:0:
314,198,219398,1,0,0:0:0:0:
256,192,219538,1,8,1:0:0:0:
365,198,219678,1,8,0:0:0:0:
256,192,219818,1,0,1:0:0:0:
280,195,219888,1,0,0:0:0:0:
280,195,219959,1,0,0:0:0:0:
280,195,220029,1,0,0:0:0:0:
256,192,220099,1,8,1:0:0:0:
256,192,220379,1,0,1:0:0:0:
301,216,220449,1,0,0:0:0:0:
341,196,220519,1,8,0:0:0:0:
308,198,220659,1,0,0:0:0:0:
256,192,220800,1,8,1:0:0:0:
369,198,220940,1,8,0:0:0:0:
369,198,221010,1,8,0:0:0:0:
301,216,221080,1,0,0:0:0:0:
301,216,221150,1,0,0:0:0:0:
366,193,221220,1,8,0:0:0:0:
317,229,221501,1,0,0:0:0:0:
343,206,221571,1,8,0:0:0:0:
256,192,221641,1,0,1:0:0:0:
289,206,221711,1,0,0:0:0:0:
345,212,221781,1,8,0:0:0:0:
256,192,221921,1,0,1:0:0:0:
256,192,222061,1,8,1:0:0:0:
332,208,222131,1,8,0:0:0:0:
328,197,222202,1,0,0:0:0:0:
348,189,222342,1,8,0:0:0:0:
256,192,222622,1,8,1:0:0:0:
325,201,222692,1,8,0:0:0:0:
325,201,222762,1,8,0:0:0:0:
325,201,222832,1,8,0:0:0:0:
256,192,222902,1,0,1:0:0:0:
256,192,223043,1,8,1:0:0:0:
266,212,223183,1,0,0:0:0:0:
305,251,223253,1,0,0:0:0:0:
303,227,223323,1,0,0:0:0:0:
256,192,223463,1,8,1:0:0:0:
256,192,223744,1,8,1:0:0:0:
290,216,223884,1,0,0:0:0:0:
361,224,224024,1,8,0:0:0:0:
344,224,224094,1,8,0:0:0:0:
256,192,224164,1,0,1:0:0:0:
306,199,224304,1,8,0:0:0:0:
306,199,224445,1,8,0:0:0:0:
306,199,224585,1,8,0:0:0:0:
263,200,224725,1,4,0:0:0:0:
292,229,225005,1,0,0:0:0:0:
256,192,225145,1,8,1:0:0:0:
479,355,225286,1,0,0:0:0:0:
256,192,225426,1,8,1:0:0:0:
319,218,225496,1,8,0:0:0:0:
261,218,225566,1,0,0:0:0:0:
261,218,225636,1,0,0:0:0:0:
256,192,225706,1,8,1:0:0:0:
353,214,225846,1,8,0:0:0:0:
242,211,225987,1,0,0:0:0:0:
243,212,226057,1,0,0:0:0:0:
243,212,226127,1,0,0:0:0:0:
256,192,226267,1,8,1:0:0:0:
256,192,226407,1,0,1:0:0:0:
324,194,226547,1,8,0:0:0:0:
267,193,226617,1,0,0:0:0:0:
347,194,226687,1,8,0:0:0:0:
287,191,226828,1,0,0:0:0:0:
316,180,226968,1,12,0:0:0:0:
324,194,227248,1,0,0:0:0:0:
256,192,227388,1,8,1:0:0:0:
286,208,227529,1,0,0:0:0:0:
256,192,227669,1,8,1:0:0:0:
332,202,227739,1,8,0:0:0:0:
256,192,227809,1,0,1:0:0:0:
259,202,227879,1,0,0:0:0:0:
258,202,227949,1,0,0:0:0:0:
256,192,228089,1,8,1:0:0:0:
243,202,228230,1,0,0:0:0:0:
243,202,228300,1,0,0:0:0:0:
243,202,228370,1,0,0:0:0:0:
256,192,228510,1,8,1:0:0:0:
298,204,228650,1,0,0:0:0:0:
357,190,228790,1,8,0:0:0:0:
282,197,228860,1,0,0:0:0:0:
385,200,228930,1,8,0:0:0:0:
368,204,229001,1,8,0:0:0:0:
266,203,229071,1,0,0:0:0:0:
256,192,229351,1,0,1:0:0:0:
314,218,229421,1,0,0:0:0:0:
256,192,229491,1,8,1:0:0:0:
256,192,229631,1,0,1:0:0:0:
374,190,229772,1,8,0:0:0:0:
256,192,229912,1,8,1:0:0:0:
326,213,229982,1,8,0:0:0:0:
278,202,230052,1,0,0:0:0:0:
277,202,230122,1,0,0:0:0:0:
311,195,230192,1,8,0:0:0:0:
337,202,230332,1,8,0:0:0:0:
256,192,230473,1,0,1:0:0:0:
258,206,230543,1,0,0:0:0:0:
247,193,230613,1,0,0:0:0:0:
256,192,230753,1,8,1:0:0:0:
256,192,230893,1,0,1:0:0:0:
256,192,231033,1,8,1:0:0:0:
331,196,231103,1,8,0:0:0:0:
278,196,231173,1,0,0:0:0:0:
352,195,231314,1,8,0:0:0:0:
293,204,231594,1,0,0:0:0:0:
293,204,231664,1,0,0:0:0:0:
319,209,231734,1,8,0:0:0:0:
301,203,231874,1,0,0:0:0:0:
344,215,232015,1,8,0:0:0:0:
256,192,232155,1,0,1:0:0:0:
278,213,232225,1,0,0:0:0:0:
256,192,232295,1,8,1:0:0:0:
342,216,232365,1,8,0:0:0:0:
283,201,232435,1,0,0:0:0:0:
350,210,232575,1,8,0:0:0:0:
172,187,232716,1,0,0:0:0:0:
255,208,232786,1,0,0:0:0:0:
255,208,232856,1,0,0:0:0:0:
294,206,232926,1,0,0:0:0:0:
312,214,232996,1,8,0:0:0:0:
265,204,233136,1,0,0:0:0:0:
256,192,233276,1,8,1:0:0:0:
317,203,233346,1,8,0:0:0:0:
256,192,233416,1,0,1:0:0:0:
256,192,233557,1,0,1:0:0:0:
256,192,233697,1,12,1:0:0:0:
239,224,233977,1,0,0:0:0:0:
256,192,234117,1,8,1:0:0:0:
256,192,234258,1,8,1:0:0:0:
256,192,234398,1,0,1:0:0:0:
259,198,234468,1,0,0:0:0:0:
256,192,234538,1,0,1:0:0:0:
256,192,234678,1,8,1:0:0:0:
256,192,234818,1,4,1:0:0:0:
290,228,235099,1,0,0:0:0:0:
256,192,235239,1,8,1:0:0:0:
256,192,235379,1,0,1:0:0:0:
256,192,235519,1,8,1:0:0:0:
339,213,235589,1,8,0:0:0:0:
301,211,235659,1,0,0:0:0:0:
256,192,235800,1,8,1:0:0:0:
256,192,235940,1,4,1:0:0:0:
256,192,236220,1,0,1:0:0:0:
256,192,236360,1,8,1:0:0:0:
256,192,236501,1,8,1:0:0:0:
256,192,236641,1,0,1:0:0:0:
281,204,236711,1,0,0:0:0:0:
256,192,236781,1,8,1:0:0:0:
256,192,236921,1,8,1:0:0:0:
256,192,237061,1,4,1:0:0:0:
256,192,237342,1,0,1:0:0:0:
261,211,237482,1,0,0:0:0:0:
256,192,237622,1,12,1:0:0:0:
256,192,237902,1,8,1:0:0:0:
283,229,238043,1,0,0:0:0:0:
341,205,238183,1,12,0:0:0:0:
256,192,238463,1,8,1:0:0:0:
256,192,238603,1,8,1:0:0:0:
256,192,238744,1,0,1:0:0:0:
256,192,238884,1,8,1:0:0:0:
314,198,238954,1,8,0:0:0:0:
256,192,239024,1,8,1:0:0:0:
285,201,239164,1,0,0:0:0:0:
316,193,239304,1,12,0:0:0:0:
256,192,239585,1,0,1:0:0:0:
256,192,239725,1,8,1:0:0:0:
256,192,239865,1,0,1:0:0:0:
256,192,240005,1,8,1:0:0:0:
327,201,240075,1,8,0:0:0:0:
288,200,240145,1,0,0:0:0:0:
256,192,240286,1,8,1:0:0:0:
256,192,240426,1,4,1:0:0:0:
256,192,240706,1,0,1:0:0:0:
256,192,240846,1,8,1:0:0:0:
256,192,240987,1,8,1:0:0:0:
256,192,241127,1,0,1:0:0:0:
294,228,241197,1,0,0:0:0:0:
256,192,241267,1,0,1:0:0:0:
256,192,241407,1,8,1:0:0:0:
256,192,241547,1,4,1:0:0:0:
256,192,241828,1,0,1:0:0:0:
290,209,241968,1,0,0:0:0:0:
256,192,242108,1,12,1:0:0:0:
256,192,242388,1,8,1:0:0:0:
295,209,242529,1,0,0:0:0:0:
341,203,242669,1,8,0:0:0:0:
256,192,242949,1,8,1:0:0:0:
256,192,243089,1,0,1:0:0:0:
256,192,243370,1,8,1:0:0:0:
256,192,243510,1,8,1:0:0:0:
256,192,243650,1,8,1:0:0:0:
256,192,243790,1,0,1:0:0:0:
256,192,244071,1,8,1:0:0:0:
256,192,244211,1,0,1:0:0:0:
256,192,244491,1,8,1:0:0:0:
321,222,244631,1,0,0:0:0:0:
256,192,244772,1,8,1:0:0:0:
256,192,244912,1,0,1:0:0:0:
256,192,245192,1,8,1:0:0:0:
256,192,245332,1,0,1:0:0:0:
256,192,245613,1,8,1:0:0:0:
256,192,245753,1,8,1:0:0:0:
300,233,245893,1,0,0:0:0:0:
317,208,246033,1,12,0:0:0:0:
256,192,246314,1,4,1:0:0:0:
256,192,246594,1,12,1:0:0:0:
256,192,246874,1,8,1:0:0:0:
314,232,247015,1,0,0:0:0:0:
351,204,247155,1,12,0:0:0:0:
285,218,247435,1,0,0:0:0:0:
256,192,247575,1,8,1:0:0:0:
256,192,247716,1,8,1:0:0:0:
256,192,247856,1,0,1:0:0:0:
297,236,247926,1,0,0:0:0:0:
256,192,247996,1,0,1:0:0:0:
256,192,248136,1,8,1:0:0:0:
256,192,248276,1,4,1:0:0:0:
256,192,248557,1,0,1:0:0:0:
256,192,248697,1,8,1:0:0:0:
256,192,248837,1,0,1:0:0:0:
256,192,248977,1,8,1:0:0:0:
292,199,249047,1,0,0:0:0:0:
256,192,249117,1,8,1:0:0:0:
271,205,249258,1,0,0:0:0:0:
355,200,249398,1,12,0:0:0:0:
256,192,249678,1,0,1:0:0:0:
256,192,249818,1,8,1:0:0:0:
256,192,249959,1,8,1:0:0:0:
256,192,250099,1,0,1:0:0:0:
256,192,250169,1,0,0:0:0:0:
256,192,250239,1,8,1:0:0:0:
261,194,250379,1,0,0:0:0:0:
361,208,250519,1,12,0:0:0:0:
256,192,250800,1,4,1:0:0:0:
256,192,251080,1,12,1:0:0:0:
275,191,251360,1,4,0:0:0:0:
335,191,251641,1,8,0:0:0:0:
335,191,251781,1,8,0:0:0:0:
335,191,251921,1,8,0:0:0:0:
256,192,252061,1,4,0:0:0:0:
256,192,252342,1,4,1:0:0:0:
256,192,252622,1,12,1:0:0:0:
256,192,252902,1,12,1:0:0:0:
