osu file format v14

[General]
AudioFilename: audio.ogg
AudioLeadIn: 0
PreviewTime: 197809
Countdown: 0
SampleSet: Normal
StackLeniency: 0.7
Mode: 1
LetterboxInBreaks: 0
WidescreenStoryboard: 1

[Editor]
Bookmarks: 58744
DistanceSpacing: 1.8
BeatDivisor: 4
GridSize: 32
TimelineZoom: 2

[Metadata]
Title:When My Devil Rises
TitleUnicode:When My Devil Rises
Artist:MAN WITH A MISSION
ArtistUnicode:MAN WITH A MISSION
Creator:SudoKu37
Version:HeLLFly's Muzukashii
Source:
Tags:tales of purefly devilman crybaby rock english japanese jrock j-rock MWAM ソニーミュージック sony music japan records DJ Santa Monica Jean-Ken Johnny Kamikaze Boy Spear Rib Tokyo Tanaka nassrall _HeLLFly_ HeLLFly
BeatmapID:4465073
BeatmapSetID:2124050

[Difficulty]
HPDrainRate:6
CircleSize:5
OverallDifficulty:5
ApproachRate:5
SliderMultiplier:1.4
SliderTickRate:1

[Events]
//Background and Video events
0,0,"Pleiadess.jpg",0,115
//Break Periods
//Storyboard Layer 0 (Background)
//Storyboard Layer 1 (Fail)
//Storyboard Layer 2 (Pass)
//Storyboard Layer 3 (Foreground)
//Storyboard Layer 4 (Overlay)
//Storyboard Sound Samples

[TimingPoints]
-555,280.373831775701,4,1,0,70,1,0
426,-105.263157894737,4,1,0,70,0,0
9398,-105.263157894737,4,1,0,80,0,0
18510,-105.263157894737,4,1,0,70,0,0
22856,-105.263157894737,4,1,0,80,0,0
27482,-105.263157894737,4,1,0,70,0,0
31828,-105.263157894737,4,1,0,80,0,0
36454,-105.263157894737,4,1,0,70,0,0
49772,-105.263157894737,4,1,0,90,0,1
67716,-105.263157894737,4,1,0,80,0,0
76828,-105.263157894737,4,1,0,70,0,0
81173,-105.263157894737,4,1,0,80,0,0
94772,-105.263157894737,4,1,0,70,0,0
108089,-105.263157894737,4,1,0,90,0,1
126033,-105.263157894737,4,1,0,90,0,0
130519,-105.263157894737,4,1,0,65,0,0
134024,-105.263157894737,4,1,0,60,0,0
135005,-105.263157894737,4,1,0,70,0,0
161921,-105.263157894737,4,1,0,85,0,1
180005,-105.263157894737,4,1,0,70,0,0
197809,-105.263157894737,4,1,0,90,0,1
233697,-105.263157894737,4,1,0,80,0,0
242949,-105.263157894737,4,1,0,70,0,0
247155,-105.263157894737,4,1,0,80,0,0

[HitObjects]
256,192,426,5,8,1:0:0:0:
256,192,706,1,0,1:0:0:0:
256,192,846,1,0,1:0:0:0:
256,192,1547,1,8,1:0:0:0:
256,192,1828,1,0,1:0:0:0:
256,192,1968,1,0,1:0:0:0:
256,192,2669,1,8,1:0:0:0:
256,192,2949,1,0,1:0:0:0:
256,192,3089,1,0,1:0:0:0:
256,192,3790,1,8,1:0:0:0:
256,192,4071,1,0,1:0:0:0:
256,192,4351,1,0,1:0:0:0:
256,192,4631,1,8,1:0:0:0:
256,192,4912,1,0,1:0:0:0:
256,192,5192,1,8,1:0:0:0:
256,192,5332,1,0,1:0:0:0:
256,192,5613,1,8,1:0:0:0:
256,192,5753,1,8,1:0:0:0:
256,192,5893,1,8,1:0:0:0:
256,192,6033,1,0,1:0:0:0:
256,192,6314,1,8,1:0:0:0:
256,192,6454,1,0,1:0:0:0:
256,192,6734,1,8,1:0:0:0:
256,192,6874,1,8,1:0:0:0:
256,192,7015,1,8,1:0:0:0:
256,192,7155,1,0,1:0:0:0:
256,192,7435,1,8,1:0:0:0:
256,192,7575,1,0,1:0:0:0:
256,192,7856,1,8,1:0:0:0:
256,192,7996,1,8,1:0:0:0:
256,192,8136,1,8,1:0:0:0:
256,192,8276,1,4,1:0:0:0:
256,192,8557,1,4,1:0:0:0:
256,192,8837,1,4,1:0:0:0:
256,192,9117,1,0,1:0:0:0:
256,192,9258,1,8,1:0:0:0:
256,192,9398,1,4,1:0:0:0:
256,192,9818,1,8,1:0:0:0:
256,192,9959,1,8,1:0:0:0:
256,192,10099,1,0,1:0:0:0:
256,192,10239,1,0,1:0:0:0:
256,192,10379,1,8,1:0:0:0:
256,192,10519,1,4,1:0:0:0:
256,192,10800,1,0,1:0:0:0:
256,192,10940,1,8,1:0:0:0:
256,192,11080,1,0,1:0:0:0:
256,192,11220,1,8,1:0:0:0:
256,192,11360,1,8,1:0:0:0:
256,192,11501,1,8,1:0:0:0:
256,192,11641,1,4,1:0:0:0:
256,192,11921,1,0,1:0:0:0:
256,192,12061,1,8,1:0:0:0:
256,192,12202,1,8,1:0:0:0:
256,192,12342,1,0,1:0:0:0:
256,192,12482,1,8,1:0:0:0:
256,192,12622,1,8,1:0:0:0:
256,192,12762,1,4,1:0:0:0:
256,192,13043,1,4,1:0:0:0:
256,192,13323,1,12,1:0:0:0:
256,192,13603,1,12,1:0:0:0:
256,192,13884,1,4,1:0:0:0:
256,192,14304,1,8,1:0:0:0:
256,192,14445,1,0,1:0:0:0:
256,192,14585,1,8,1:0:0:0:
256,192,14725,1,8,1:0:0:0:
256,192,14865,1,8,1:0:0:0:
256,192,15005,1,4,1:0:0:0:
256,192,15286,1,0,1:0:0:0:
256,192,15426,1,8,1:0:0:0:
256,192,15566,1,0,1:0:0:0:
256,192,15706,1,8,1:0:0:0:
256,192,15846,1,8,1:0:0:0:
256,192,15987,1,8,1:0:0:0:
256,192,16127,1,4,1:0:0:0:
256,192,16407,1,0,1:0:0:0:
256,192,16547,1,8,1:0:0:0:
256,192,16687,1,8,1:0:0:0:
256,192,16828,1,0,1:0:0:0:
256,192,16968,1,0,1:0:0:0:
256,192,17108,1,8,1:0:0:0:
256,192,17248,1,4,1:0:0:0:
256,192,17529,1,4,1:0:0:0:
256,192,17809,1,12,1:0:0:0:
256,192,18089,1,12,1:0:0:0:
256,192,18370,1,0,1:0:0:0:
256,192,18510,1,12,1:0:0:0:
256,192,18790,1,0,1:0:0:0:
256,192,19071,1,8,1:0:0:0:
256,192,19211,1,0,1:0:0:0:
256,192,19351,1,8,1:0:0:0:
256,192,19631,1,0,1:0:0:0:
256,192,19772,1,0,1:0:0:0:
256,192,19912,1,8,1:0:0:0:
256,192,20052,1,0,1:0:0:0:
256,192,20332,1,8,1:0:0:0:
256,192,20613,1,0,1:0:0:0:
256,192,20893,1,0,1:0:0:0:
256,192,21033,1,8,1:0:0:0:
256,192,21173,1,8,1:0:0:0:
256,192,21314,1,0,1:0:0:0:
256,192,21594,1,8,1:0:0:0:
256,192,21874,1,0,1:0:0:0:
256,192,22015,1,0,1:0:0:0:
256,192,22155,1,8,1:0:0:0:
256,192,22435,1,8,1:0:0:0:
256,192,22575,1,8,1:0:0:0:
256,192,22716,1,8,1:0:0:0:
256,192,22856,1,4,1:0:0:0:
256,192,23276,1,8,1:0:0:0:
256,192,23416,1,8,1:0:0:0:
256,192,23557,1,0,1:0:0:0:
256,192,23697,1,0,1:0:0:0:
256,192,23837,1,8,1:0:0:0:
256,192,23977,1,4,1:0:0:0:
256,192,24258,1,0,1:0:0:0:
256,192,24398,1,8,1:0:0:0:
256,192,24538,1,0,1:0:0:0:
256,192,24678,1,8,1:0:0:0:
256,192,24818,1,8,1:0:0:0:
256,192,24959,1,8,1:0:0:0:
256,192,25099,1,4,1:0:0:0:
256,192,25379,1,0,1:0:0:0:
256,192,25519,1,8,1:0:0:0:
256,192,25659,1,8,1:0:0:0:
256,192,25800,1,0,1:0:0:0:
256,192,25940,1,8,1:0:0:0:
256,192,26080,1,8,1:0:0:0:
256,192,26220,1,4,1:0:0:0:
256,192,26501,1,4,1:0:0:0:
256,192,26781,1,12,1:0:0:0:
256,192,27061,1,12,1:0:0:0:
256,192,27342,1,0,1:0:0:0:
256,192,27482,1,12,1:0:0:0:
256,192,27762,1,0,1:0:0:0:
256,192,27902,1,8,1:0:0:0:
256,192,28043,1,0,1:0:0:0:
256,192,28323,1,8,1:0:0:0:
256,192,28603,1,0,1:0:0:0:
256,192,28744,1,0,1:0:0:0:
256,192,28884,1,8,1:0:0:0:
256,192,29024,1,0,1:0:0:0:
256,192,29304,1,8,1:0:0:0:
256,192,29585,1,0,1:0:0:0:
256,192,29865,1,8,1:0:0:0:
256,192,30005,1,8,1:0:0:0:
256,192,30286,1,8,1:0:0:0:
256,192,30566,1,0,1:0:0:0:
256,192,30846,1,8,1:0:0:0:
256,192,30987,1,8,1:0:0:0:
256,192,31127,1,0,1:0:0:0:
256,192,31407,1,8,1:0:0:0:
256,192,31547,1,8,1:0:0:0:
256,192,31687,1,8,1:0:0:0:
256,192,31828,1,4,1:0:0:0:
256,192,32248,1,8,1:0:0:0:
256,192,32388,1,8,1:0:0:0:
256,192,32529,1,0,1:0:0:0:
256,192,32669,1,0,1:0:0:0:
256,192,32809,1,8,1:0:0:0:
256,192,32949,1,4,1:0:0:0:
256,192,33230,1,0,1:0:0:0:
256,192,33370,1,8,1:0:0:0:
256,192,33510,1,0,1:0:0:0:
256,192,33650,1,8,1:0:0:0:
256,192,33790,1,8,1:0:0:0:
256,192,33930,1,8,1:0:0:0:
256,192,34071,1,4,1:0:0:0:
256,192,34351,1,0,1:0:0:0:
256,192,34491,1,8,1:0:0:0:
256,192,34631,1,8,1:0:0:0:
256,192,34772,1,0,1:0:0:0:
256,192,34912,1,0,1:0:0:0:
256,192,35052,1,8,1:0:0:0:
256,192,35192,1,4,1:0:0:0:
256,192,35473,1,4,1:0:0:0:
256,192,35753,1,12,1:0:0:0:
256,192,36033,1,12,1:0:0:0:
256,192,36314,1,0,1:0:0:0:
256,192,36454,1,12,1:0:0:0:
256,192,36874,1,0,1:0:0:0:
256,192,37155,1,8,1:0:0:0:
256,192,37435,1,0,1:0:0:0:
256,192,37716,1,0,1:0:0:0:
256,192,37996,1,8,1:0:0:0:
256,192,38276,1,8,1:0:0:0:
256,192,38416,1,0,1:0:0:0:
256,192,38697,1,0,1:0:0:0:
256,192,38977,1,8,1:0:0:0:
256,192,39117,1,0,1:0:0:0:
256,192,39398,1,8,1:0:0:0:
256,192,39678,1,0,1:0:0:0:
256,192,39959,1,8,1:0:0:0:
256,192,40099,1,0,1:0:0:0:
256,192,40379,1,0,1:0:0:0:
256,192,40659,1,8,1:0:0:0:
256,192,40800,1,8,1:0:0:0:
256,192,40940,1,0,1:0:0:0:
256,192,41220,1,8,1:0:0:0:
256,192,41501,1,0,1:0:0:0:
256,192,41641,1,0,1:0:0:0:
256,192,41781,1,8,1:0:0:0:
256,192,42061,1,0,1:0:0:0:
256,192,42342,1,8,1:0:0:0:
256,192,42482,1,0,1:0:0:0:
256,192,42762,1,0,1:0:0:0:
256,192,42902,1,8,1:0:0:0:
256,192,43183,1,0,1:0:0:0:
256,192,43463,1,8,1:0:0:0:
256,192,43744,1,0,1:0:0:0:
256,192,43884,1,8,1:0:0:0:
256,192,44024,1,8,1:0:0:0:
256,192,44304,1,0,1:0:0:0:
256,192,44585,1,8,1:0:0:0:
256,192,44865,1,0,1:0:0:0:
256,192,45005,1,8,1:0:0:0:
256,192,45145,1,0,1:0:0:0:
256,192,45426,1,12,1:0:0:0:
256,192,45846,1,0,1:0:0:0:
256,192,46127,1,8,1:0:0:0:
256,192,46407,1,0,1:0:0:0:
256,192,46687,1,8,1:0:0:0:
256,192,46828,1,0,1:0:0:0:
256,192,47108,1,8,1:0:0:0:
256,192,47248,1,0,1:0:0:0:
256,192,47388,1,8,1:0:0:0:
256,192,47669,1,0,1:0:0:0:
256,192,47809,1,0,1:0:0:0:
256,192,47949,1,8,1:0:0:0:
256,192,48230,1,0,1:0:0:0:
256,192,48510,1,8,1:0:0:0:
256,192,48790,1,0,1:0:0:0:
256,192,48930,1,0,1:0:0:0:
256,192,49071,1,8,1:0:0:0:
256,192,49141,1,8,1:0:0:0:
256,192,49211,1,8,1:0:0:0:
256,192,49351,1,8,1:0:0:0:
256,192,49491,1,0,1:0:0:0:
256,192,49772,1,12,1:0:0:0:
256,192,50192,1,8,1:0:0:0:
256,192,50332,1,0,1:0:0:0:
256,192,50473,1,8,1:0:0:0:
256,192,50613,1,0,1:0:0:0:
256,192,50683,1,0,1:0:0:0:
256,192,50753,1,0,1:0:0:0:
256,192,50893,1,0,1:0:0:0:
256,192,51033,1,8,1:0:0:0:
256,192,51314,1,0,1:0:0:0:
256,192,51454,1,8,1:0:0:0:
256,192,51524,1,8,1:0:0:0:
256,192,51594,1,8,1:0:0:0:
256,192,51734,1,0,1:0:0:0:
256,192,51874,1,8,1:0:0:0:
256,192,52015,1,4,1:0:0:0:
256,192,52295,1,0,1:0:0:0:
256,192,52435,1,8,1:0:0:0:
256,192,52575,1,0,1:0:0:0:
256,192,52645,1,0,1:0:0:0:
256,192,52716,1,0,1:0:0:0:
256,192,52856,1,0,1:0:0:0:
256,192,52996,1,8,1:0:0:0:
256,192,53136,1,8,1:0:0:0:
256,192,53276,1,0,1:0:0:0:
256,192,53557,1,8,1:0:0:0:
256,192,53837,1,0,1:0:0:0:
256,192,54117,1,8,1:0:0:0:
256,192,54398,1,4,1:0:0:0:
256,192,54538,1,8,1:0:0:0:
256,192,54678,1,8,1:0:0:0:
256,192,54748,1,8,1:0:0:0:
256,192,54818,1,8,1:0:0:0:
256,192,54959,1,0,1:0:0:0:
256,192,55099,1,8,1:0:0:0:
256,192,55239,1,0,1:0:0:0:
256,192,55519,1,8,1:0:0:0:
256,192,55659,1,0,1:0:0:0:
256,192,55730,1,0,1:0:0:0:
256,192,55800,1,0,1:0:0:0:
256,192,55940,1,0,1:0:0:0:
256,192,56080,1,8,1:0:0:0:
256,192,56220,1,8,1:0:0:0:
256,192,56360,1,0,1:0:0:0:
256,192,56641,1,8,1:0:0:0:
256,192,56781,1,8,1:0:0:0:
256,192,56921,1,0,1:0:0:0:
256,192,57061,1,8,1:0:0:0:
256,192,57131,1,8,1:0:0:0:
256,192,57202,1,8,1:0:0:0:
256,192,57342,1,0,1:0:0:0:
256,192,57482,1,8,1:0:0:0:
256,192,57762,1,8,1:0:0:0:
256,192,57902,1,8,1:0:0:0:
256,192,58043,1,0,1:0:0:0:
256,192,58113,1,0,1:0:0:0:
256,192,58183,1,0,1:0:0:0:
256,192,58323,1,8,1:0:0:0:
256,192,58463,1,0,1:0:0:0:
256,192,58744,1,12,1:0:0:0:
256,192,59164,1,8,1:0:0:0:
256,192,59304,1,0,1:0:0:0:
256,192,59445,1,8,1:0:0:0:
256,192,59585,1,8,1:0:0:0:
256,192,59655,1,8,1:0:0:0:
256,192,59725,1,8,1:0:0:0:
256,192,59865,1,0,1:0:0:0:
256,192,60005,1,8,1:0:0:0:
256,192,60286,1,8,1:0:0:0:
256,192,60426,1,0,1:0:0:0:
256,192,60496,1,0,1:0:0:0:
256,192,60566,1,0,1:0:0:0:
256,192,60706,1,0,1:0:0:0:
256,192,60846,1,8,1:0:0:0:
256,192,60987,1,4,1:0:0:0:
256,192,61267,1,0,1:0:0:0:
256,192,61407,1,8,1:0:0:0:
256,192,61547,1,8,1:0:0:0:
256,192,61617,1,8,1:0:0:0:
256,192,61687,1,8,1:0:0:0:
256,192,61828,1,0,1:0:0:0:
256,192,61968,1,8,1:0:0:0:
256,192,62108,1,8,1:0:0:0:
256,192,62248,1,0,1:0:0:0:
256,192,62529,1,8,1:0:0:0:
256,192,62809,1,0,1:0:0:0:
256,192,63089,1,8,1:0:0:0:
256,192,63370,1,4,1:0:0:0:
256,192,63510,1,8,1:0:0:0:
256,192,63650,1,0,1:0:0:0:
256,192,63720,1,0,1:0:0:0:
256,192,63790,1,0,1:0:0:0:
256,192,63930,1,8,1:0:0:0:
256,192,64071,1,8,1:0:0:0:
256,192,64211,1,0,1:0:0:0:
256,192,64491,1,0,1:0:0:0:
256,192,64631,1,8,1:0:0:0:
256,192,64702,1,8,1:0:0:0:
256,192,64772,1,8,1:0:0:0:
256,192,64912,1,0,1:0:0:0:
256,192,65052,1,8,1:0:0:0:
256,192,65192,1,8,1:0:0:0:
256,192,65332,1,0,1:0:0:0:
256,192,65613,1,8,1:0:0:0:
256,192,65753,1,0,1:0:0:0:
256,192,65893,1,8,1:0:0:0:
256,192,66033,1,0,1:0:0:0:
256,192,66103,1,0,1:0:0:0:
256,192,66173,1,0,1:0:0:0:
256,192,66314,1,0,1:0:0:0:
256,192,66454,1,8,1:0:0:0:
256,192,66734,1,8,1:0:0:0:
256,192,66874,1,8,1:0:0:0:
256,192,67015,1,0,1:0:0:0:
256,192,67085,1,0,1:0:0:0:
256,192,67155,1,0,1:0:0:0:
256,192,67295,1,8,1:0:0:0:
256,192,67435,1,8,1:0:0:0:
256,192,67575,1,8,1:0:0:0:
256,192,67716,1,4,1:0:0:0:
256,192,68136,1,8,1:0:0:0:
256,192,68276,1,8,1:0:0:0:
256,192,68416,1,0,1:0:0:0:
256,192,68557,1,0,1:0:0:0:
256,192,68697,1,8,1:0:0:0:
256,192,68837,1,4,1:0:0:0:
256,192,69117,1,0,1:0:0:0:
256,192,69258,1,8,1:0:0:0:
256,192,69398,1,0,1:0:0:0:
256,192,69538,1,8,1:0:0:0:
256,192,69678,1,8,1:0:0:0:
256,192,69818,1,8,1:0:0:0:
256,192,69959,1,4,1:0:0:0:
256,192,70239,1,0,1:0:0:0:
256,192,70379,1,8,1:0:0:0:
256,192,70519,1,8,1:0:0:0:
256,192,70659,1,0,1:0:0:0:
256,192,70800,1,8,1:0:0:0:
256,192,70940,1,8,1:0:0:0:
256,192,71080,1,4,1:0:0:0:
256,192,71360,1,4,1:0:0:0:
256,192,71641,1,12,1:0:0:0:
256,192,71921,1,12,1:0:0:0:
256,192,72202,1,4,1:0:0:0:
256,192,72622,1,8,1:0:0:0:
256,192,72762,1,0,1:0:0:0:
256,192,72902,1,8,1:0:0:0:
256,192,73043,1,8,1:0:0:0:
256,192,73183,1,8,1:0:0:0:
256,192,73323,1,4,1:0:0:0:
256,192,73603,1,0,1:0:0:0:
256,192,73744,1,8,1:0:0:0:
256,192,73884,1,0,1:0:0:0:
256,192,74024,1,8,1:0:0:0:
256,192,74164,1,8,1:0:0:0:
256,192,74304,1,8,1:0:0:0:
256,192,74445,1,4,1:0:0:0:
256,192,74725,1,0,1:0:0:0:
256,192,74865,1,8,1:0:0:0:
256,192,75005,1,8,1:0:0:0:
256,192,75145,1,0,1:0:0:0:
256,192,75286,1,0,1:0:0:0:
256,192,75426,1,8,1:0:0:0:
256,192,75566,1,4,1:0:0:0:
256,192,75846,1,4,1:0:0:0:
256,192,76127,1,12,1:0:0:0:
256,192,76407,1,8,1:0:0:0:
256,192,76547,1,0,1:0:0:0:
256,192,76687,1,0,1:0:0:0:
256,192,76828,1,12,1:0:0:0:
256,192,77108,1,0,0:0:0:0:
256,192,77388,1,8,0:0:0:0:
256,192,77529,1,8,0:0:0:0:
256,192,77669,1,0,0:0:0:0:
256,192,77949,1,8,0:0:0:0:
256,192,78089,1,0,0:0:0:0:
256,192,78230,1,0,0:0:0:0:
256,192,78370,1,8,0:0:0:0:
256,192,78650,1,0,0:0:0:0:
256,192,78790,1,8,0:0:0:0:
256,192,79071,1,0,0:0:0:0:
256,192,79211,1,8,0:0:0:0:
256,192,79351,1,8,0:0:0:0:
256,192,79631,1,0,0:0:0:0:
256,192,79912,1,8,0:0:0:0:
256,192,80192,1,8,0:0:0:0:
256,192,80332,1,0,0:0:0:0:
256,192,80473,1,8,0:0:0:0:
256,192,80753,1,8,1:0:0:0:
256,192,80893,1,8,1:0:0:0:
256,192,81033,1,8,1:0:0:0:
256,192,81173,1,4,1:0:0:0:
256,192,81594,1,8,1:0:0:0:
256,192,81734,1,8,1:0:0:0:
256,192,81874,1,0,1:0:0:0:
256,192,82015,1,0,1:0:0:0:
256,192,82155,1,8,1:0:0:0:
256,192,82295,1,4,1:0:0:0:
256,192,82575,1,0,1:0:0:0:
256,192,82716,1,8,1:0:0:0:
256,192,82856,1,0,1:0:0:0:
256,192,82996,1,8,1:0:0:0:
256,192,83136,1,8,1:0:0:0:
256,192,83276,1,8,1:0:0:0:
256,192,83416,1,4,1:0:0:0:
256,192,83697,1,0,1:0:0:0:
256,192,83837,1,8,1:0:0:0:
256,192,83977,1,8,1:0:0:0:
256,192,84117,1,0,1:0:0:0:
256,192,84258,1,8,1:0:0:0:
256,192,84398,1,8,1:0:0:0:
256,192,84538,1,4,1:0:0:0:
256,192,84818,1,4,1:0:0:0:
256,192,85099,1,12,1:0:0:0:
256,192,85379,1,12,1:0:0:0:
256,192,85659,1,0,1:0:0:0:
256,192,85800,1,12,1:0:0:0:
256,192,86080,1,8,1:0:0:0:
256,192,86220,1,0,1:0:0:0:
256,192,86360,1,8,1:0:0:0:
256,192,86501,1,0,1:0:0:0:
256,192,86641,1,8,1:0:0:0:
256,192,86921,1,0,1:0:0:0:
256,192,87061,1,0,1:0:0:0:
256,192,87202,1,8,1:0:0:0:
256,192,87342,1,0,1:0:0:0:
256,192,87622,1,0,1:0:0:0:
256,192,87762,1,8,1:0:0:0:
256,192,87902,1,8,1:0:0:0:
256,192,88043,1,8,1:0:0:0:
256,192,88183,1,0,1:0:0:0:
256,192,88463,1,0,1:0:0:0:
256,192,88603,1,8,1:0:0:0:
256,192,88884,1,8,1:0:0:0:
256,192,88954,1,8,1:0:0:0:
256,192,89024,1,8,1:0:0:0:
256,192,89164,1,0,1:0:0:0:
256,192,89304,1,0,1:0:0:0:
256,192,89445,1,8,1:0:0:0:
256,192,89725,1,8,1:0:0:0:
256,192,89865,1,8,1:0:0:0:
256,192,90005,1,8,1:0:0:0:
256,192,90145,1,4,1:0:0:0:
256,192,90566,1,8,1:0:0:0:
256,192,90706,1,8,1:0:0:0:
256,192,90846,1,0,1:0:0:0:
256,192,90987,1,0,1:0:0:0:
256,192,91127,1,8,1:0:0:0:
256,192,91267,1,4,1:0:0:0:
256,192,91547,1,0,1:0:0:0:
256,192,91687,1,8,1:0:0:0:
256,192,91828,1,0,1:0:0:0:
256,192,91968,1,8,1:0:0:0:
256,192,92108,1,8,1:0:0:0:
256,192,92248,1,8,1:0:0:0:
256,192,92388,1,4,1:0:0:0:
256,192,92669,1,0,1:0:0:0:
256,192,92809,1,8,1:0:0:0:
256,192,92949,1,8,1:0:0:0:
256,192,93089,1,0,1:0:0:0:
256,192,93230,1,8,1:0:0:0:
256,192,93370,1,8,1:0:0:0:
256,192,93510,1,4,1:0:0:0:
256,192,93790,1,4,1:0:0:0:
256,192,94071,1,12,1:0:0:0:
256,192,94351,1,8,1:0:0:0:
256,192,94491,1,0,1:0:0:0:
256,192,94631,1,0,1:0:0:0:
256,192,94772,1,12,1:0:0:0:
256,192,95192,1,0,1:0:0:0:
256,192,95473,1,8,1:0:0:0:
256,192,95753,1,0,1:0:0:0:
256,192,96033,1,0,1:0:0:0:
256,192,96314,1,8,1:0:0:0:
256,192,96594,1,8,1:0:0:0:
256,192,96734,1,0,1:0:0:0:
256,192,97015,1,0,1:0:0:0:
256,192,97295,1,8,1:0:0:0:
256,192,97435,1,0,1:0:0:0:
256,192,97716,1,8,1:0:0:0:
256,192,97996,1,0,1:0:0:0:
256,192,98276,1,8,1:0:0:0:
256,192,98416,1,0,1:0:0:0:
256,192,98697,1,0,1:0:0:0:
256,192,98837,1,0,1:0:0:0:
256,192,98977,1,8,1:0:0:0:
256,192,99258,1,0,1:0:0:0:
256,192,99538,1,8,1:0:0:0:
256,192,99678,1,8,0:0:0:0:
256,192,99818,1,0,1:0:0:0:
256,192,100099,1,8,1:0:0:0:
256,192,100379,1,0,1:0:0:0:
256,192,100659,1,8,1:0:0:0:
256,192,100800,1,0,1:0:0:0:
256,192,101080,1,0,1:0:0:0:
256,192,101220,1,8,1:0:0:0:
256,192,101501,1,0,1:0:0:0:
256,192,101781,1,8,1:0:0:0:
256,192,102061,1,0,1:0:0:0:
256,192,102202,1,8,1:0:0:0:
256,192,102342,1,8,1:0:0:0:
256,192,102622,1,0,1:0:0:0:
256,192,102902,1,8,1:0:0:0:
256,192,103183,1,0,1:0:0:0:
256,192,103323,1,8,1:0:0:0:
256,192,103463,1,0,1:0:0:0:
256,192,103744,1,12,1:0:0:0:
256,192,104164,1,0,1:0:0:0:
256,192,104445,1,8,1:0:0:0:
256,192,104725,1,0,1:0:0:0:
256,192,105005,1,0,1:0:0:0:
256,192,105145,1,8,1:0:0:0:
256,192,105426,1,8,1:0:0:0:
256,192,105566,1,0,1:0:0:0:
256,192,105706,1,8,1:0:0:0:
256,192,105987,1,0,1:0:0:0:
256,192,106127,1,0,1:0:0:0:
256,192,106267,1,8,1:0:0:0:
256,192,106547,1,0,1:0:0:0:
256,192,106828,1,8,1:0:0:0:
256,192,107108,1,0,1:0:0:0:
256,192,107248,1,0,1:0:0:0:
256,192,107388,1,8,1:0:0:0:
256,192,107459,1,8,1:0:0:0:
256,192,107529,1,8,1:0:0:0:
256,192,107669,1,8,1:0:0:0:
256,192,107809,1,0,1:0:0:0:
256,192,108089,1,12,1:0:0:0:
256,192,108510,1,8,1:0:0:0:
256,192,108650,1,0,1:0:0:0:
256,192,108790,1,8,1:0:0:0:
256,192,108930,1,0,1:0:0:0:
256,192,109001,1,0,1:0:0:0:
256,192,109071,1,0,1:0:0:0:
256,192,109211,1,0,1:0:0:0:
256,192,109351,1,8,1:0:0:0:
256,192,109631,1,0,1:0:0:0:
256,192,109772,1,8,1:0:0:0:
256,192,109842,1,8,1:0:0:0:
256,192,109912,1,8,1:0:0:0:
256,192,110052,1,0,1:0:0:0:
256,192,110192,1,8,1:0:0:0:
256,192,110332,1,4,1:0:0:0:
256,192,110613,1,0,1:0:0:0:
256,192,110753,1,8,1:0:0:0:
256,192,110893,1,0,1:0:0:0:
256,192,110963,1,0,1:0:0:0:
256,192,111033,1,0,1:0:0:0:
256,192,111173,1,0,1:0:0:0:
256,192,111314,1,8,1:0:0:0:
256,192,111454,1,8,1:0:0:0:
256,192,111594,1,0,1:0:0:0:
256,192,111874,1,8,1:0:0:0:
256,192,112155,1,0,1:0:0:0:
256,192,112435,1,8,1:0:0:0:
256,192,112716,1,4,1:0:0:0:
256,192,112856,1,8,1:0:0:0:
256,192,112996,1,8,1:0:0:0:
256,192,113066,1,8,1:0:0:0:
256,192,113136,1,8,1:0:0:0:
256,192,113276,1,0,1:0:0:0:
256,192,113416,1,8,1:0:0:0:
256,192,113557,1,0,1:0:0:0:
256,192,113837,1,8,1:0:0:0:
256,192,113977,1,0,1:0:0:0:
256,192,114047,1,0,1:0:0:0:
256,192,114117,1,0,1:0:0:0:
256,192,114258,1,0,1:0:0:0:
256,192,114398,1,8,1:0:0:0:
256,192,114538,1,8,1:0:0:0:
256,192,114678,1,0,1:0:0:0:
256,192,114959,1,8,1:0:0:0:
256,192,115099,1,8,1:0:0:0:
256,192,115239,1,0,1:0:0:0:
256,192,115379,1,8,1:0:0:0:
256,192,115449,1,8,1:0:0:0:
256,192,115519,1,8,1:0:0:0:
256,192,115659,1,0,1:0:0:0:
256,192,115800,1,8,1:0:0:0:
256,192,116080,1,8,1:0:0:0:
256,192,116220,1,8,1:0:0:0:
256,192,116360,1,0,1:0:0:0:
256,192,116430,1,0,1:0:0:0:
256,192,116501,1,0,1:0:0:0:
256,192,116641,1,8,1:0:0:0:
256,192,116781,1,0,1:0:0:0:
256,192,117061,1,12,1:0:0:0:
256,192,117482,1,8,1:0:0:0:
256,192,117622,1,0,1:0:0:0:
256,192,117762,1,8,1:0:0:0:
256,192,117902,1,8,1:0:0:0:
256,192,117973,1,8,1:0:0:0:
256,192,118043,1,8,1:0:0:0:
256,192,118183,1,0,1:0:0:0:
256,192,118323,1,8,1:0:0:0:
256,192,118603,1,8,1:0:0:0:
256,192,118744,1,0,1:0:0:0:
256,192,118814,1,0,1:0:0:0:
256,192,118884,1,0,1:0:0:0:
256,192,119024,1,0,1:0:0:0:
256,192,119164,1,8,1:0:0:0:
256,192,119304,1,4,1:0:0:0:
256,192,119585,1,0,1:0:0:0:
256,192,119725,1,8,1:0:0:0:
256,192,119865,1,8,1:0:0:0:
256,192,119935,1,8,1:0:0:0:
256,192,120005,1,8,1:0:0:0:
256,192,120145,1,0,1:0:0:0:
256,192,120286,1,8,1:0:0:0:
256,192,120426,1,8,1:0:0:0:
256,192,120566,1,0,1:0:0:0:
256,192,120846,1,8,1:0:0:0:
256,192,121127,1,0,1:0:0:0:
256,192,121407,1,8,1:0:0:0:
256,192,121687,1,4,1:0:0:0:
256,192,121828,1,8,1:0:0:0:
256,192,121968,1,0,1:0:0:0:
256,192,122038,1,0,1:0:0:0:
256,192,122108,1,0,1:0:0:0:
256,192,122248,1,8,1:0:0:0:
256,192,122388,1,8,1:0:0:0:
256,192,122529,1,0,1:0:0:0:
256,192,122809,1,0,1:0:0:0:
256,192,122949,1,8,1:0:0:0:
256,192,123019,1,8,1:0:0:0:
256,192,123089,1,8,1:0:0:0:
256,192,123230,1,0,1:0:0:0:
256,192,123370,1,8,1:0:0:0:
256,192,123510,1,8,1:0:0:0:
256,192,123650,1,0,1:0:0:0:
256,192,123930,1,8,1:0:0:0:
256,192,124071,1,0,1:0:0:0:
256,192,124211,1,8,1:0:0:0:
256,192,124351,1,0,1:0:0:0:
256,192,124421,1,0,1:0:0:0:
256,192,124491,1,0,1:0:0:0:
256,192,124631,1,0,1:0:0:0:
256,192,124772,1,8,1:0:0:0:
256,192,125052,1,8,1:0:0:0:
256,192,125192,1,0,1:0:0:0:
256,192,125262,1,0,0:0:0:0:
256,192,125332,1,0,1:0:0:0:
256,192,125473,1,0,0:0:0:0:
256,192,125613,1,8,1:0:0:0:
256,192,125753,1,8,1:0:0:0:
256,192,125893,1,8,1:0:0:0:
256,192,126033,1,4,1:0:0:0:
256,192,130519,1,0,1:0:0:0:
256,192,130800,1,0,1:0:0:0:
256,192,131080,1,0,1:0:0:0:
256,192,131220,1,0,1:0:0:0:
256,192,134024,1,8,1:0:0:0:
256,192,134164,1,0,1:0:0:0:
256,192,134304,1,8,1:0:0:0:
256,192,134445,1,8,1:0:0:0:
256,192,134585,1,0,1:0:0:0:
256,192,134865,1,8,1:0:0:0:
256,192,135005,1,4,1:0:0:0:
256,192,135286,1,0,1:0:0:0:
256,192,135566,1,0,1:0:0:0:
256,192,135706,1,8,1:0:0:0:
256,192,135987,1,8,1:0:0:0:
256,192,136127,1,0,1:0:0:0:
256,192,136407,1,0,1:0:0:0:
256,192,136687,1,0,1:0:0:0:
256,192,136828,1,8,1:0:0:0:
256,192,137248,1,0,1:0:0:0:
256,192,137529,1,0,1:0:0:0:
256,192,137809,1,0,1:0:0:0:
256,192,137949,1,8,1:0:0:0:
256,192,138370,1,0,1:0:0:0:
256,192,138510,1,8,1:0:0:0:
256,192,138790,1,0,1:0:0:0:
256,192,139071,1,8,1:0:0:0:
256,192,139211,1,0,1:0:0:0:
256,192,139351,1,0,1:0:0:0:
256,192,139491,1,12,1:0:0:0:
256,192,139772,1,0,1:0:0:0:
256,192,140052,1,0,1:0:0:0:
256,192,140192,1,8,1:0:0:0:
256,192,140473,1,0,1:0:0:0:
256,192,140613,1,0,1:0:0:0:
256,192,140893,1,0,1:0:0:0:
256,192,141173,1,0,1:0:0:0:
256,192,141314,1,8,1:0:0:0:
256,192,141734,1,0,1:0:0:0:
256,192,142015,1,0,1:0:0:0:
256,192,142295,1,0,1:0:0:0:
256,192,142435,1,8,1:0:0:0:
256,192,142856,1,0,1:0:0:0:
256,192,142996,1,8,1:0:0:0:
256,192,143276,1,0,1:0:0:0:
256,192,143557,1,8,1:0:0:0:
256,192,143697,1,8,1:0:0:0:
256,192,143837,1,0,1:0:0:0:
256,192,143977,1,12,1:0:0:0:
256,192,144258,1,0,1:0:0:0:
256,192,144538,1,0,1:0:0:0:
256,192,144678,1,8,1:0:0:0:
256,192,144959,1,0,1:0:0:0:
256,192,145099,1,0,1:0:0:0:
256,192,145379,1,0,1:0:0:0:
256,192,145659,1,0,1:0:0:0:
256,192,145800,1,8,1:0:0:0:
256,192,146220,1,0,1:0:0:0:
256,192,146501,1,0,1:0:0:0:
256,192,146781,1,0,1:0:0:0:
256,192,146921,1,8,1:0:0:0:
256,192,147342,1,8,1:0:0:0:
256,192,147482,1,0,1:0:0:0:
256,192,147762,1,0,1:0:0:0:
256,192,148043,1,8,1:0:0:0:
256,192,148183,1,0,1:0:0:0:
256,192,148323,1,0,1:0:0:0:
256,192,148463,1,8,1:0:0:0:
256,192,148744,1,0,1:0:0:0:
256,192,149024,1,0,1:0:0:0:
256,192,149164,1,8,1:0:0:0:
256,192,149445,1,0,1:0:0:0:
256,192,149585,1,0,1:0:0:0:
256,192,149865,1,0,1:0:0:0:
256,192,150145,1,0,1:0:0:0:
256,192,150286,1,8,1:0:0:0:
256,192,150706,1,0,1:0:0:0:
256,192,150987,1,0,1:0:0:0:
256,192,151267,1,0,1:0:0:0:
256,192,151407,1,8,1:0:0:0:
256,192,151828,1,0,1:0:0:0:
256,192,151968,1,0,1:0:0:0:
256,192,152248,1,8,1:0:0:0:
256,192,152529,1,0,1:0:0:0:
256,192,152669,1,0,1:0:0:0:
256,192,152809,1,8,1:0:0:0:
256,192,152949,1,4,1:0:0:0:
256,192,153230,1,0,1:0:0:0:
256,192,153510,1,0,1:0:0:0:
256,192,153650,1,8,1:0:0:0:
256,192,153930,1,8,1:0:0:0:
256,192,154071,1,0,1:0:0:0:
256,192,154351,1,0,1:0:0:0:
256,192,154631,1,0,1:0:0:0:
256,192,154772,1,8,1:0:0:0:
256,192,155192,1,0,1:0:0:0:
256,192,155473,1,0,1:0:0:0:
256,192,155753,1,0,1:0:0:0:
256,192,155893,1,8,1:0:0:0:
256,192,156314,1,0,1:0:0:0:
256,192,156454,1,8,1:0:0:0:
256,192,156734,1,0,1:0:0:0:
256,192,157015,1,8,1:0:0:0:
256,192,157155,1,8,1:0:0:0:
256,192,157295,1,0,1:0:0:0:
256,192,157435,1,12,1:0:0:0:
256,192,157716,1,0,1:0:0:0:
256,192,157996,1,0,1:0:0:0:
256,192,158136,1,8,1:0:0:0:
256,192,158416,1,0,1:0:0:0:
256,192,158557,1,0,1:0:0:0:
256,192,158837,1,0,1:0:0:0:
256,192,159117,1,0,1:0:0:0:
256,192,159258,1,8,1:0:0:0:
256,192,159538,1,8,1:0:0:0:
256,192,159678,1,0,1:0:0:0:
256,192,159959,1,8,1:0:0:0:
256,192,160099,1,8,1:0:0:0:
256,192,160239,1,0,1:0:0:0:
256,192,160379,1,8,1:0:0:0:
256,192,160519,1,0,1:0:0:0:
256,192,160659,1,8,1:0:0:0:
256,192,160730,1,8,1:0:0:0:
256,192,160800,1,8,1:0:0:0:
256,192,160940,1,0,1:0:0:0:
256,192,161080,1,8,1:0:0:0:
256,192,161220,1,0,1:0:0:0:
256,192,161501,1,8,1:0:0:0:
256,192,161571,1,8,1:0:0:0:
256,192,161641,1,8,1:0:0:0:
256,192,161781,1,0,1:0:0:0:
256,192,161921,1,12,1:0:0:0:
256,192,162342,1,8,1:0:0:0:
256,192,162482,1,8,1:0:0:0:
256,192,162622,1,0,1:0:0:0:
256,192,162692,1,0,1:0:0:0:
256,192,162762,1,0,1:0:0:0:
256,192,162902,1,8,1:0:0:0:
256,192,163043,1,8,1:0:0:0:
256,192,163183,1,0,1:0:0:0:
256,192,163463,1,8,1:0:0:0:
256,192,163603,1,8,1:0:0:0:
256,192,163673,1,8,1:0:0:0:
256,192,163744,1,8,1:0:0:0:
256,192,163884,1,0,1:0:0:0:
256,192,164024,1,8,1:0:0:0:
256,192,164164,1,4,1:0:0:0:
256,192,164445,1,8,1:0:0:0:
256,192,164585,1,0,1:0:0:0:
256,192,164655,1,0,1:0:0:0:
256,192,164725,1,0,1:0:0:0:
256,192,164865,1,8,1:0:0:0:
256,192,165005,1,8,1:0:0:0:
256,192,165145,1,0,1:0:0:0:
256,192,165426,1,8,1:0:0:0:
256,192,165566,1,0,1:0:0:0:
256,192,165706,1,0,1:0:0:0:
256,192,165846,1,8,1:0:0:0:
256,192,165916,1,8,1:0:0:0:
256,192,165987,1,8,1:0:0:0:
256,192,166127,1,0,1:0:0:0:
256,192,166267,1,8,1:0:0:0:
256,192,166407,1,4,1:0:0:0:
256,192,166828,1,0,1:0:0:0:
256,192,166898,1,0,1:0:0:0:
256,192,166968,1,0,1:0:0:0:
256,192,167108,1,8,1:0:0:0:
256,192,167248,1,0,1:0:0:0:
256,192,167388,1,8,1:0:0:0:
256,192,167529,1,8,1:0:0:0:
256,192,167669,1,0,1:0:0:0:
256,192,167949,1,8,1:0:0:0:
256,192,168089,1,8,1:0:0:0:
256,192,168159,1,8,1:0:0:0:
256,192,168230,1,8,1:0:0:0:
256,192,168370,1,0,1:0:0:0:
256,192,168510,1,8,1:0:0:0:
256,192,168650,1,4,1:0:0:0:
256,192,168930,1,0,1:0:0:0:
256,192,169071,1,8,1:0:0:0:
256,192,169211,1,8,1:0:0:0:
256,192,169281,1,8,1:0:0:0:
256,192,169351,1,8,1:0:0:0:
256,192,169491,1,0,1:0:0:0:
256,192,169631,1,8,1:0:0:0:
256,192,169772,1,8,1:0:0:0:
256,192,169912,1,0,1:0:0:0:
256,192,170192,1,8,1:0:0:0:
256,192,170473,1,0,1:0:0:0:
256,192,170543,1,0,1:0:0:0:
256,192,170613,1,0,1:0:0:0:
256,192,170753,1,8,1:0:0:0:
256,192,170893,1,4,1:0:0:0:
256,192,171314,1,8,1:0:0:0:
256,192,171454,1,0,1:0:0:0:
256,192,171594,1,8,1:0:0:0:
256,192,171734,1,0,1:0:0:0:
256,192,171804,1,0,1:0:0:0:
256,192,171874,1,0,1:0:0:0:
256,192,172015,1,0,1:0:0:0:
256,192,172155,1,8,1:0:0:0:
256,192,172435,1,0,1:0:0:0:
256,192,172575,1,8,1:0:0:0:
256,192,172645,1,8,1:0:0:0:
256,192,172716,1,8,1:0:0:0:
256,192,172856,1,0,1:0:0:0:
256,192,172996,1,8,1:0:0:0:
256,192,173136,1,4,1:0:0:0:
256,192,173416,1,0,1:0:0:0:
256,192,173487,1,0,1:0:0:0:
256,192,173557,1,0,1:0:0:0:
256,192,173697,1,0,1:0:0:0:
256,192,173837,1,8,1:0:0:0:
256,192,173977,1,0,1:0:0:0:
256,192,174117,1,8,1:0:0:0:
256,192,174258,1,8,1:0:0:0:
256,192,174398,1,0,1:0:0:0:
256,192,174678,1,0,1:0:0:0:
256,192,174818,1,8,1:0:0:0:
256,192,174888,1,8,1:0:0:0:
256,192,174959,1,8,1:0:0:0:
256,192,175099,1,0,1:0:0:0:
256,192,175239,1,8,1:0:0:0:
256,192,175379,1,4,1:0:0:0:
256,192,175800,1,0,1:0:0:0:
256,192,175940,1,8,1:0:0:0:
256,192,176080,1,8,1:0:0:0:
256,192,176220,1,0,1:0:0:0:
256,192,176290,1,0,1:0:0:0:
256,192,176360,1,0,1:0:0:0:
256,192,176501,1,8,1:0:0:0:
256,192,176641,1,0,1:0:0:0:
256,192,176921,1,8,1:0:0:0:
256,192,177061,1,8,1:0:0:0:
256,192,177131,1,8,1:0:0:0:
256,192,177202,1,8,1:0:0:0:
256,192,177342,1,0,1:0:0:0:
256,192,177482,1,8,1:0:0:0:
256,192,177622,1,4,1:0:0:0:
256,192,177902,1,8,1:0:0:0:
256,192,178043,1,8,1:0:0:0:
256,192,178183,1,0,1:0:0:0:
256,192,178253,1,0,1:0:0:0:
256,192,178323,1,0,1:0:0:0:
256,192,178463,1,8,1:0:0:0:
256,192,178603,1,8,1:0:0:0:
256,192,178744,1,8,1:0:0:0:
256,192,178884,1,8,1:0:0:0:
256,192,179024,1,8,1:0:0:0:
256,192,179164,1,0,1:0:0:0:
256,192,179445,1,0,1:0:0:0:
256,192,179725,1,0,1:0:0:0:
256,192,180005,1,12,1:0:0:0:
256,192,180426,1,0,1:0:0:0:
256,192,180706,1,8,1:0:0:0:
256,192,180987,1,0,1:0:0:0:
256,192,181267,1,0,1:0:0:0:
256,192,181547,1,8,1:0:0:0:
256,192,181828,1,8,1:0:0:0:
256,192,181968,1,0,1:0:0:0:
256,192,182248,1,0,1:0:0:0:
256,192,182529,1,8,1:0:0:0:
256,192,182669,1,0,1:0:0:0:
256,192,182949,1,8,1:0:0:0:
256,192,183230,1,0,1:0:0:0:
256,192,183510,1,8,1:0:0:0:
256,192,183650,1,0,1:0:0:0:
256,192,183930,1,0,1:0:0:0:
256,192,184211,1,8,1:0:0:0:
256,192,184351,1,0,1:0:0:0:
256,192,184491,1,8,1:0:0:0:
256,192,184772,1,8,1:0:0:0:
256,192,184912,1,8,1:0:0:0:
256,192,185052,1,0,1:0:0:0:
256,192,185332,1,8,1:0:0:0:
256,192,185613,1,0,1:0:0:0:
256,192,185893,1,8,1:0:0:0:
256,192,186033,1,0,1:0:0:0:
256,192,186314,1,0,1:0:0:0:
256,192,186454,1,8,1:0:0:0:
256,192,186734,1,0,1:0:0:0:
256,192,187015,1,8,1:0:0:0:
256,192,187295,1,0,1:0:0:0:
256,192,187435,1,8,1:0:0:0:
256,192,187575,1,8,1:0:0:0:
256,192,187856,1,0,1:0:0:0:
256,192,188136,1,8,1:0:0:0:
256,192,188416,1,0,1:0:0:0:
256,192,188557,1,8,1:0:0:0:
256,192,188697,1,0,1:0:0:0:
256,192,188977,1,12,1:0:0:0:
256,192,189398,1,0,1:0:0:0:
256,192,189678,1,8,1:0:0:0:
256,192,189959,1,0,1:0:0:0:
256,192,190239,1,8,1:0:0:0:
256,192,190379,1,0,1:0:0:0:
256,192,190659,1,8,1:0:0:0:
256,192,190800,1,0,1:0:0:0:
256,192,190940,1,8,1:0:0:0:
256,192,191220,1,0,1:0:0:0:
256,192,191360,1,0,1:0:0:0:
256,192,191501,1,8,1:0:0:0:
256,192,191781,1,0,1:0:0:0:
256,192,192061,1,8,1:0:0:0:
256,192,192342,1,0,1:0:0:0:
256,192,192482,1,0,1:0:0:0:
256,192,192622,1,8,1:0:0:0:
256,192,192692,1,8,1:0:0:0:
256,192,192762,1,8,1:0:0:0:
256,192,192902,1,8,1:0:0:0:
256,192,193043,1,0,1:0:0:0:
256,192,193183,1,8,1:0:0:0:
256,192,193323,1,0,1:0:0:0:
256,192,193463,1,8,1:0:0:0:
256,192,197388,1,4,1:0:0:0:
256,192,197529,1,4,1:0:0:0:
256,192,197809,1,12,1:0:0:0:
256,192,198230,1,8,1:0:0:0:
256,192,198370,1,0,1:0:0:0:
256,192,198510,1,8,1:0:0:0:
256,192,198650,1,0,1:0:0:0:
256,192,198720,1,0,1:0:0:0:
256,192,198790,1,0,1:0:0:0:
256,192,198930,1,0,1:0:0:0:
256,192,199071,1,8,1:0:0:0:
256,192,199351,1,0,1:0:0:0:
256,192,199491,1,8,1:0:0:0:
256,192,199561,1,8,1:0:0:0:
256,192,199631,1,8,1:0:0:0:
256,192,199772,1,0,1:0:0:0:
256,192,199912,1,8,1:0:0:0:
256,192,200052,1,4,1:0:0:0:
256,192,200332,1,0,1:0:0:0:
256,192,200473,1,8,1:0:0:0:
256,192,200613,1,0,1:0:0:0:
256,192,200683,1,0,1:0:0:0:
256,192,200753,1,0,1:0:0:0:
256,192,200893,1,0,1:0:0:0:
256,192,201033,1,8,1:0:0:0:
256,192,201173,1,8,1:0:0:0:
256,192,201314,1,0,1:0:0:0:
256,192,201594,1,8,1:0:0:0:
256,192,201874,1,0,1:0:0:0:
256,192,202155,1,8,1:0:0:0:
256,192,202435,1,4,1:0:0:0:
256,192,202575,1,8,1:0:0:0:
256,192,202716,1,8,1:0:0:0:
256,192,202786,1,8,1:0:0:0:
256,192,202856,1,8,1:0:0:0:
256,192,202996,1,0,1:0:0:0:
256,192,203136,1,8,1:0:0:0:
256,192,203276,1,0,1:0:0:0:
256,192,203557,1,8,1:0:0:0:
256,192,203697,1,0,1:0:0:0:
256,192,203767,1,0,1:0:0:0:
256,192,203837,1,0,1:0:0:0:
256,192,203977,1,0,1:0:0:0:
256,192,204117,1,8,1:0:0:0:
256,192,204258,1,8,1:0:0:0:
256,192,204398,1,0,1:0:0:0:
256,192,204678,1,8,1:0:0:0:
256,192,204818,1,8,1:0:0:0:
256,192,204959,1,0,1:0:0:0:
256,192,205099,1,8,1:0:0:0:
256,192,205169,1,8,1:0:0:0:
256,192,205239,1,8,1:0:0:0:
256,192,205379,1,0,1:0:0:0:
256,192,205519,1,8,1:0:0:0:
256,192,205800,1,8,1:0:0:0:
256,192,205940,1,8,1:0:0:0:
256,192,206080,1,0,1:0:0:0:
256,192,206150,1,0,1:0:0:0:
256,192,206220,1,0,1:0:0:0:
256,192,206360,1,8,1:0:0:0:
256,192,206501,1,0,1:0:0:0:
256,192,206781,1,12,1:0:0:0:
256,192,207202,1,8,1:0:0:0:
256,192,207342,1,0,1:0:0:0:
256,192,207482,1,8,1:0:0:0:
256,192,207622,1,8,1:0:0:0:
256,192,207692,1,8,1:0:0:0:
256,192,207762,1,8,1:0:0:0:
256,192,207902,1,0,1:0:0:0:
256,192,208043,1,8,1:0:0:0:
256,192,208323,1,8,1:0:0:0:
256,192,208463,1,0,1:0:0:0:
256,192,208533,1,0,1:0:0:0:
256,192,208603,1,0,1:0:0:0:
256,192,208744,1,0,1:0:0:0:
256,192,208884,1,8,1:0:0:0:
256,192,209024,1,4,1:0:0:0:
256,192,209304,1,0,1:0:0:0:
256,192,209445,1,8,1:0:0:0:
256,192,209585,1,8,1:0:0:0:
256,192,209655,1,8,1:0:0:0:
256,192,209725,1,8,1:0:0:0:
256,192,209865,1,0,1:0:0:0:
256,192,210005,1,8,1:0:0:0:
256,192,210145,1,8,1:0:0:0:
256,192,210286,1,0,1:0:0:0:
256,192,210566,1,8,1:0:0:0:
256,192,210846,1,0,1:0:0:0:
256,192,211127,1,8,1:0:0:0:
256,192,211407,1,4,1:0:0:0:
256,192,211547,1,8,1:0:0:0:
256,192,211687,1,0,1:0:0:0:
256,192,211758,1,0,1:0:0:0:
256,192,211828,1,0,1:0:0:0:
256,192,211968,1,8,1:0:0:0:
256,192,212108,1,8,1:0:0:0:
256,192,212248,1,0,1:0:0:0:
256,192,212529,1,0,1:0:0:0:
256,192,212669,1,8,1:0:0:0:
256,192,212739,1,8,1:0:0:0:
256,192,212809,1,8,1:0:0:0:
256,192,212949,1,0,1:0:0:0:
256,192,213089,1,8,1:0:0:0:
256,192,213230,1,8,1:0:0:0:
256,192,213370,1,0,1:0:0:0:
256,192,213650,1,8,1:0:0:0:
256,192,213790,1,0,1:0:0:0:
256,192,213930,1,8,1:0:0:0:
256,192,214071,1,0,1:0:0:0:
256,192,214141,1,0,1:0:0:0:
256,192,214211,1,0,1:0:0:0:
256,192,214351,1,0,1:0:0:0:
256,192,214491,1,8,1:0:0:0:
256,192,214772,1,8,1:0:0:0:
256,192,214912,1,8,1:0:0:0:
256,192,215052,1,0,1:0:0:0:
256,192,215122,1,0,1:0:0:0:
256,192,215192,1,0,1:0:0:0:
256,192,215332,1,8,1:0:0:0:
256,192,215473,1,8,1:0:0:0:
256,192,215613,1,8,1:0:0:0:
256,192,215753,1,4,1:0:0:0:
256,192,216173,1,8,1:0:0:0:
256,192,216314,1,0,1:0:0:0:
256,192,216454,1,8,1:0:0:0:
256,192,216594,1,0,1:0:0:0:
256,192,216664,1,0,1:0:0:0:
256,192,216734,1,0,1:0:0:0:
256,192,216874,1,0,1:0:0:0:
256,192,217015,1,8,1:0:0:0:
256,192,217295,1,0,1:0:0:0:
256,192,217435,1,8,1:0:0:0:
256,192,217505,1,8,1:0:0:0:
256,192,217575,1,8,1:0:0:0:
256,192,217716,1,0,1:0:0:0:
256,192,217856,1,8,1:0:0:0:
256,192,217996,1,4,1:0:0:0:
256,192,218276,1,0,1:0:0:0:
256,192,218416,1,8,1:0:0:0:
256,192,218557,1,0,1:0:0:0:
256,192,218627,1,0,1:0:0:0:
256,192,218697,1,0,1:0:0:0:
256,192,218837,1,0,1:0:0:0:
256,192,218977,1,8,1:0:0:0:
256,192,219117,1,8,1:0:0:0:
256,192,219258,1,0,1:0:0:0:
256,192,219538,1,8,1:0:0:0:
256,192,219818,1,0,1:0:0:0:
256,192,220099,1,8,1:0:0:0:
256,192,220379,1,4,1:0:0:0:
256,192,220519,1,8,1:0:0:0:
256,192,220659,1,8,1:0:0:0:
256,192,220730,1,8,1:0:0:0:
256,192,220800,1,8,1:0:0:0:
256,192,220940,1,0,1:0:0:0:
256,192,221080,1,8,1:0:0:0:
256,192,221220,1,0,1:0:0:0:
256,192,221501,1,8,1:0:0:0:
256,192,221641,1,0,1:0:0:0:
256,192,221711,1,0,1:0:0:0:
256,192,221781,1,0,1:0:0:0:
256,192,221921,1,0,1:0:0:0:
256,192,222061,1,8,1:0:0:0:
256,192,222202,1,8,1:0:0:0:
256,192,222342,1,0,1:0:0:0:
256,192,222622,1,8,1:0:0:0:
256,192,222762,1,8,1:0:0:0:
256,192,222902,1,0,1:0:0:0:
256,192,223043,1,8,1:0:0:0:
256,192,223113,1,8,1:0:0:0:
256,192,223183,1,8,1:0:0:0:
256,192,223323,1,0,1:0:0:0:
256,192,223463,1,8,1:0:0:0:
256,192,223744,1,8,1:0:0:0:
256,192,223884,1,8,1:0:0:0:
256,192,224024,1,0,1:0:0:0:
256,192,224094,1,0,1:0:0:0:
256,192,224164,1,0,1:0:0:0:
256,192,224304,1,8,1:0:0:0:
256,192,224445,1,8,1:0:0:0:
256,192,224585,1,0,0:0:0:0:
256,192,224725,1,12,1:0:0:0:
256,192,225145,1,8,1:0:0:0:
256,192,225286,1,0,1:0:0:0:
256,192,225426,1,8,1:0:0:0:
256,192,225566,1,8,1:0:0:0:
256,192,225636,1,8,1:0:0:0:
256,192,225706,1,8,1:0:0:0:
256,192,225846,1,0,1:0:0:0:
256,192,225987,1,8,1:0:0:0:
256,192,226267,1,8,1:0:0:0:
256,192,226407,1,0,1:0:0:0:
256,192,226477,1,0,1:0:0:0:
256,192,226547,1,0,1:0:0:0:
256,192,226687,1,0,1:0:0:0:
256,192,226828,1,8,1:0:0:0:
256,192,226968,1,8,1:0:0:0:
256,192,227108,1,0,1:0:0:0:
256,192,227388,1,8,1:0:0:0:
256,192,227529,1,8,1:0:0:0:
256,192,227599,1,8,1:0:0:0:
256,192,227669,1,8,1:0:0:0:
256,192,227809,1,0,1:0:0:0:
256,192,227949,1,8,1:0:0:0:
256,192,228089,1,8,1:0:0:0:
256,192,228230,1,0,1:0:0:0:
256,192,228370,1,0,1:0:0:0:
256,192,228510,1,8,1:0:0:0:
256,192,228790,1,0,1:0:0:0:
256,192,229071,1,8,1:0:0:0:
256,192,229351,1,4,1:0:0:0:
256,192,229491,1,8,1:0:0:0:
256,192,229631,1,0,1:0:0:0:
256,192,229702,1,0,1:0:0:0:
256,192,229772,1,0,1:0:0:0:
256,192,229912,1,8,1:0:0:0:
256,192,230052,1,8,1:0:0:0:
256,192,230192,1,0,1:0:0:0:
256,192,230473,1,0,1:0:0:0:
256,192,230613,1,8,1:0:0:0:
256,192,230683,1,8,1:0:0:0:
256,192,230753,1,8,1:0:0:0:
256,192,230893,1,0,1:0:0:0:
256,192,231033,1,8,1:0:0:0:
256,192,231173,1,8,1:0:0:0:
256,192,231314,1,0,1:0:0:0:
256,192,231594,1,12,1:0:0:0:
256,192,231734,1,0,1:0:0:0:
256,192,231874,1,8,1:0:0:0:
256,192,232015,1,0,1:0:0:0:
256,192,232085,1,0,1:0:0:0:
256,192,232155,1,0,1:0:0:0:
256,192,232295,1,8,1:0:0:0:
256,192,232365,1,8,1:0:0:0:
256,192,232435,1,8,1:0:0:0:
256,192,232575,1,0,1:0:0:0:
256,192,232716,1,8,1:0:0:0:
256,192,232996,1,0,1:0:0:0:
256,192,233066,1,0,1:0:0:0:
256,192,233136,1,0,1:0:0:0:
256,192,233276,1,8,1:0:0:0:
256,192,233416,1,0,1:0:0:0:
256,192,233557,1,0,1:0:0:0:
256,192,233697,1,12,1:0:0:0:
256,192,234117,1,8,1:0:0:0:
256,192,234258,1,8,1:0:0:0:
256,192,234398,1,0,1:0:0:0:
256,192,234538,1,0,1:0:0:0:
256,192,234678,1,8,1:0:0:0:
256,192,234818,1,4,1:0:0:0:
256,192,235099,1,0,1:0:0:0:
256,192,235239,1,8,1:0:0:0:
256,192,235379,1,0,1:0:0:0:
256,192,235519,1,8,1:0:0:0:
256,192,235659,1,8,1:0:0:0:
256,192,235800,1,8,1:0:0:0:
256,192,235940,1,4,1:0:0:0:
256,192,236220,1,0,1:0:0:0:
256,192,236360,1,8,1:0:0:0:
256,192,236501,1,8,1:0:0:0:
256,192,236641,1,0,1:0:0:0:
256,192,236781,1,8,1:0:0:0:
256,192,236921,1,8,1:0:0:0:
256,192,237061,1,4,1:0:0:0:
256,192,237342,1,4,1:0:0:0:
256,192,237622,1,12,1:0:0:0:
256,192,237902,1,12,1:0:0:0:
256,192,238183,1,4,1:0:0:0:
256,192,238603,1,8,1:0:0:0:
256,192,238744,1,0,1:0:0:0:
256,192,238884,1,8,1:0:0:0:
256,192,239024,1,8,1:0:0:0:
256,192,239164,1,8,1:0:0:0:
256,192,239304,1,4,1:0:0:0:
256,192,239585,1,0,1:0:0:0:
256,192,239725,1,8,1:0:0:0:
256,192,239865,1,0,1:0:0:0:
256,192,240005,1,8,1:0:0:0:
256,192,240145,1,8,1:0:0:0:
256,192,240286,1,8,1:0:0:0:
256,192,240426,1,4,1:0:0:0:
256,192,240706,1,0,1:0:0:0:
256,192,240846,1,8,1:0:0:0:
256,192,240987,1,8,1:0:0:0:
256,192,241127,1,0,1:0:0:0:
256,192,241267,1,0,1:0:0:0:
256,192,241407,1,8,1:0:0:0:
256,192,241547,1,4,1:0:0:0:
256,192,241828,1,4,1:0:0:0:
256,192,242108,1,12,1:0:0:0:
256,192,242388,1,12,1:0:0:0:
256,192,242669,1,0,1:0:0:0:
256,192,242949,1,8,1:0:0:0:
256,192,243089,1,0,1:0:0:0:
256,192,243370,1,8,1:0:0:0:
256,192,243510,1,8,1:0:0:0:
256,192,243650,1,8,1:0:0:0:
256,192,243790,1,0,1:0:0:0:
256,192,244071,1,8,1:0:0:0:
256,192,244211,1,0,1:0:0:0:
256,192,244491,1,8,1:0:0:0:
256,192,244631,1,8,1:0:0:0:
256,192,244772,1,8,1:0:0:0:
256,192,244912,1,0,1:0:0:0:
256,192,245192,1,8,1:0:0:0:
256,192,245332,1,0,1:0:0:0:
256,192,245613,1,8,1:0:0:0:
256,192,245753,1,8,1:0:0:0:
256,192,245893,1,8,1:0:0:0:
256,192,246033,1,4,1:0:0:0:
256,192,246314,1,4,1:0:0:0:
256,192,246594,1,12,1:0:0:0:
256,192,246874,1,12,1:0:0:0:
256,192,247155,1,4,1:0:0:0:
256,192,247575,1,8,1:0:0:0:
256,192,247716,1,8,1:0:0:0:
256,192,247856,1,0,1:0:0:0:
256,192,247996,1,0,1:0:0:0:
256,192,248136,1,8,1:0:0:0:
256,192,248276,1,4,1:0:0:0:
256,192,248557,1,0,1:0:0:0:
256,192,248697,1,8,1:0:0:0:
256,192,248837,1,0,1:0:0:0:
256,192,248977,1,8,1:0:0:0:
256,192,249117,1,8,1:0:0:0:
256,192,249258,1,8,1:0:0:0:
256,192,249398,1,4,1:0:0:0:
256,192,249678,1,0,1:0:0:0:
256,192,249818,1,8,1:0:0:0:
256,192,249959,1,8,1:0:0:0:
256,192,250099,1,0,1:0:0:0:
256,192,250239,1,8,1:0:0:0:
256,192,250379,1,8,1:0:0:0:
256,192,250519,1,4,1:0:0:0:
256,192,250800,1,4,1:0:0:0:
256,192,251080,1,12,1:0:0:0:
256,192,251360,1,12,1:0:0:0:
256,192,251641,1,8,1:0:0:0:
256,192,251781,1,8,0:0:0:0:
256,192,251921,1,8,1:0:0:0:
256,192,252061,1,4,1:0:0:0:
256,192,252342,1,4,1:0:0:0:
256,192,252622,1,12,1:0:0:0:
256,192,252902,1,12,1:0:0:0:
