osu file format v14

[General]
AudioFilename: audio.mp3
AudioLeadIn: 0
PreviewTime: 28045
Countdown: 1
SampleSet: Soft
StackLeniency: 0.7
Mode: 0
LetterboxInBreaks: 0
WidescreenStoryboard: 1

[Editor]
Bookmarks: 38150,72555
DistanceSpacing: 1.1
BeatDivisor: 4
GridSize: 32
TimelineZoom: 1

[Metadata]
Title:Seven Deadly Sins
TitleUnicode:Seven Deadly Sins
Artist:MAN WITH A MISSION
ArtistUnicode:MAN WITH A MISSION
Creator:Nao Tomori
Version:Normal
Source:七つの大罪
Tags:nanatsu no taizai the opening two
BeatmapID:1867552
BeatmapSetID:875083

[Difficulty]
HPDrainRate:3
CircleSize:3.5
OverallDifficulty:3.5
ApproachRate:5
SliderMultiplier:1.1
SliderTickRate:1

[Events]
//Background and Video events
0,0,"pig.png",0,0
//Break Periods
//Storyboard Layer 0 (Background)
//Storyboard Layer 1 (Fail)
//Storyboard Layer 2 (Pass)
//Storyboard Layer 3 (Foreground)
//Storyboard Sound Samples

[TimingPoints]
8360,419.58041958042,3,2,1,46,1,0
8360,-100,3,2,1,46,0,0
18429,-100,3,2,1,66,0,0
28499,-100,3,2,1,66,0,0
52415,-100,3,2,1,56,0,0
72555,-100,3,2,1,66,0,0
77590,-100,3,2,1,56,0,0
82625,-100,3,2,1,76,0,0

[Colours]
Combo1 : 250,145,114
Combo2 : 242,190,166

[HitObjects]
104,177,8359,6,0,P|139:182|148:335,1,220,2|2,3:2|3:2,0:0:0:0:
34,328,9618,2,0,B|152:303|126:363|252:349,1,220,2|0,3:2|3:2,0:0:0:0:
356,293,10877,2,0,P|375:238|358:170,2,110,2|0|0,3:2|3:2|3:2,0:0:0:0:
463,347,12136,2,0,P|490:292|466:123,1,220,2|2,3:2|3:2,0:0:0:0:
380,63,13394,6,0,B|259:50|294:127|158:93,1,220,2|0,3:2|3:2,0:0:0:0:
72,22,14653,2,0,P|108:82|60:225,1,220,2|0,3:2|3:2,0:0:0:0:
172,279,15912,2,0,P|228:270|400:243,1,220,2|0,3:2|3:2,0:0:0:0:
499,294,17171,5,2,3:2:0:0:
499,294,18429,6,0,L|519:184,1,110,6|0,3:2|3:2,0:0:0:0:
448,86,19269,1,0,3:2:0:0:
355,163,19688,1,2,3:2:0:0:
254,95,20108,2,0,P|189:84|139:94,1,110,0|2,3:2|3:2,0:0:0:0:
37,145,20947,2,0,P|27:207|1:366,1,220,2|0,3:2|3:2,0:0:0:0:
116,323,22206,2,0,P|126:261|152:102,1,220,2|2,3:2|3:2,0:0:0:0:
246,31,23464,5,2,3:2:0:0:
319,127,23884,2,0,P|387:151|433:139,1,110,0|2,3:0|3:2,0:0:0:0:
464,187,24513,1,0,0:0:0:0:
465,247,24723,2,0,P|410:241|361:263,1,110,2|0,3:2|3:0,0:0:0:0:
282,354,25562,1,2,3:2:0:0:
181,287,25982,2,0,P|144:206|173:131,2,165,2|2|2,3:2|0:2|3:2,0:0:0:0:
181,287,28080,1,0,3:2:0:0:
277,359,28499,6,0,P|356:364|441:241,1,220,2|0,3:2|3:2,0:0:0:0:
418,207,29548,1,0,0:2:0:0:
418,207,29758,2,0,P|408:129|412:85,1,110,2|0,3:2|3:2,0:0:0:0:
321,15,30597,1,2,3:2:0:0:
230,95,31017,2,0,P|176:88|117:73,2,110,2|0|0,3:2|3:0|3:2,0:0:0:0:
257,148,32066,1,0,0:0:0:0:
284,203,32276,2,0,P|302:270|191:366,1,220,2|2,3:2|3:2,0:0:0:0:
95,314,33534,5,2,3:2:0:0:
40,205,33954,1,0,3:0:0:0:
97,98,34373,1,2,3:2:0:0:
155,203,34793,2,0,P|192:202|277:201,1,110,2|2,3:2|3:2,0:0:0:0:
310,240,35422,1,2,0:0:0:0:
310,240,35632,2,0,P|321:282|300:364,1,110,0|0,3:0|3:0,0:0:0:0:
191,375,36471,5,2,3:2:0:0:
191,375,36681,1,0,0:0:0:0:
191,375,36891,1,0,3:2:0:0:
101,293,37311,2,0,L|95:183,1,110,2|0,3:2|3:3,0:3:0:0:
208,140,38150,2,0,L|202:249,1,110,0|0,3:2|3:2,0:0:0:0:
256,192,38989,12,4,40667,0:3:0:0:
120,119,42346,6,0,P|92:188|103:234,1,110,2|0,3:2|3:2,0:0:0:0:
181,308,43185,1,10,0:2:0:0:
282,243,43604,1,2,3:2:0:0:
399,273,44024,2,0,L|408:179,2,82.5,0|8|0,3:2|0:2|3:2,0:0:0:0:
424,327,44863,6,0,P|384:371|323:373,1,110,2|0,3:2|3:2,0:0:0:0:
278,357,45492,1,0,0:0:0:0:
278,357,45702,1,10,0:2:0:0:
156,357,46122,1,2,3:2:0:0:
49,294,46541,2,0,L|27:202,2,82.5,0|10|0,3:2|2:2|3:2,0:0:0:0:
103,267,47380,6,0,P|121:207|115:146,1,110,2|0,3:2|3:2,0:0:0:0:
77,115,48010,1,0,0:0:0:0:
77,115,48220,1,10,2:2:0:0:
128,5,48639,1,2,3:2:0:0:
224,85,49059,2,0,P|252:77|320:43,2,82.5,0|8|0,3:2|0:2|3:2,0:0:0:0:
198,139,49898,6,0,P|190:191|212:258,1,110,2|2,3:2|3:2,0:0:0:0:
308,307,50737,1,10,0:2:0:0:
308,307,50947,1,0,0:2:0:0:
308,307,51157,6,0,P|360:285|420:287,1,110,2|0,3:2|3:2,0:0:0:0:
482,185,51996,2,0,L|490:110,1,55,8|8,0:2|0:2,0:0:0:0:
493,69,52415,6,0,P|443:106|184:55,1,330,6|0,3:2|3:2,0:0:0:0:
102,146,54094,1,2,3:2:0:0:
196,221,54513,2,0,P|201:312|198:351,1,110,0|0,3:2|3:2,0:0:0:0:
83,366,55353,5,2,3:2:0:0:
83,366,55772,2,0,P|42:297|113:188,1,220,8|0,0:0|3:2,0:0:0:0:
222,232,57031,1,0,3:2:0:0:
313,152,57450,1,0,3:2:0:0:
428,187,57870,6,0,P|449:123|445:72,2,110,2|8|0,3:2|0:0|3:2,0:0:0:0:
483,294,59129,2,0,P|427:321|277:283,1,220,2|0,3:2|3:2,0:0:0:0:
213,184,60387,1,2,3:2:0:0:
121,263,60807,2,0,P|60:268|1:264,1,110,8|2,0:0|3:2,0:0:0:0:
83,362,61646,2,0,P|144:357|203:361,1,110,0|8,3:2|2:2,0:0:0:0:
250,376,62276,1,8,0:2:0:0:
250,376,62485,6,0,P|277:317|234:55,1,330,6|0,3:2|3:2,0:0:0:0:
156,152,64164,1,2,3:2:0:0:
190,268,64583,2,0,P|241:240|299:235,1,110,2|0,3:2|3:2,0:0:0:0:
394,299,65422,5,8,0:0:0:0:
499,239,65842,1,10,0:2:0:0:
411,154,66262,2,0,L|404:36,2,110,2|2|0,3:2|3:2|3:2,0:0:0:0:
318,232,67520,1,0,3:2:0:0:
217,164,67940,6,0,P|135:151|39:239,1,220,2|0,3:2|3:2,0:0:0:0:
143,298,69199,1,2,3:2:0:0:
256,256,69618,2,0,P|316:254|377:246,1,110,0|0,3:2|3:2,0:0:0:0:
455,166,70457,5,2,3:2:0:0:
358,92,70877,1,8,0:0:0:0:
253,152,71297,2,0,P|208:166|125:144,1,110,2|2,3:2|3:2,0:0:0:0:
46,88,72136,1,8,3:2:0:0:
46,88,72346,1,8,3:2:0:0:
46,88,72555,6,0,P|91:120|115:183,1,110,6|2,3:2|3:2,0:0:0:0:
38,249,73394,2,0,L|24:321,1,55,10|0,0:0|0:0,0:0:0:0:
48,353,73814,1,2,3:0:0:0:
176,283,74234,1,2,3:2:0:0:
176,283,74443,1,2,0:2:0:0:
176,283,74653,1,2,3:2:0:0:
320,345,75073,6,0,P|385:325|418:279,1,110,2|2,3:0|3:0,0:0:0:0:
463,197,75912,2,0,P|452:162|437:133,1,55,10|0,0:0|0:0,0:0:0:0:
396,117,76332,1,0,3:0:0:0:
286,114,76751,1,2,3:2:0:0:
286,114,76961,1,2,0:2:0:0:
286,114,77171,1,2,3:2:0:0:
367,29,77590,6,0,L|468:22,2,82.5,2|2|0,3:2|3:2|3:2,0:0:0:0:
341,65,78429,1,2,3:2:0:0:
242,148,78849,2,0,L|141:141,2,82.5,2|2|2,3:2|3:2|3:2,0:0:0:0:
268,184,79688,1,10,0:2:0:0:
366,266,80108,6,0,P|430:282|425:97,1,330,0|0,3:2|3:0,0:0:0:0:
425,97,82206,1,8,0:2:0:0:
355,151,82625,6,0,P|304:161|242:158,1,110,6|0,3:2|3:2,0:0:0:0:
129,96,83464,1,8,2:2:0:0:
34,187,83884,1,2,3:2:0:0:
111,294,84304,1,0,3:2:0:0:
111,294,84513,1,0,3:2:0:0:
111,294,84723,2,0,L|177:288,1,55,8|0,2:0|3:2,0:0:0:0:
223,321,85143,6,0,P|286:344|396:242,1,220,2|8,3:2|3:2,0:0:0:0:
314,151,86401,2,0,P|298:90|303:29,1,110,2|2,3:2|3:2,0:0:0:0:
431,58,87241,1,2,3:2:0:0:
338,152,87660,6,0,L|252:169,2,82.5,2|2|2,3:2|0:2|0:2,0:0:0:0:
390,192,88499,1,10,0:2:0:0:
306,294,88919,2,0,L|218:280,2,82.5,2|10|2,3:2|0:2|3:2,0:0:0:0:
343,348,89758,1,2,3:2:0:0:
468,305,90178,6,0,B|502:230|502:230|438:147,1,165,2|2,3:2|0:2,0:0:0:0:
418,129,91017,1,10,0:2:0:0:
418,129,91227,1,2,3:2:0:0:
418,129,91436,5,2,3:2:0:0:
291,184,91856,1,0,3:2:0:0:
291,184,92066,1,8,0:2:0:0:
291,184,92276,2,0,L|220:179,1,55,8|4,0:2|0:3,0:0:0:0:
184,221,92695,6,0,P|141:251|-9:197,1,220,6|8,3:2|0:2,0:0:0:0:
87,109,93954,2,0,P|176:111|212:106,1,110,2|0,3:2|3:2,0:0:0:0:
312,45,94793,1,0,3:0:0:0:
312,45,95003,1,0,3:2:0:0:
312,45,95213,6,0,P|340:84|390:128,1,110,2|0,3:2|3:2,0:0:0:0:
502,188,96052,1,8,0:2:0:0:
407,280,96471,2,0,P|344:305|300:315,1,110,2|0,3:2|0:0,0:0:0:0:
192,306,97311,1,2,3:2:0:0:
129,207,97730,6,0,P|67:212|31:217,2,82.5,2|2|2,3:2|0:2|0:2,0:0:0:0:
174,159,98569,1,10,0:2:0:0:
289,95,98989,2,0,P|351:100|387:105,2,82.5,2|10|2,3:2|0:2|3:2,0:0:0:0:
244,47,99828,1,0,3:2:0:0:
119,90,100248,1,6,0:2:0:0:
206,188,100667,2,0,B|236:223|243:266|243:266|194:298|186:342,1,165,8|4,0:2|0:3,0:0:0:0:
240,367,101506,6,0,P|297:360|355:358,1,110,6|0,3:2|3:2,0:0:0:0:
471,306,102346,1,0,3:2:0:0:
376,214,102765,1,0,3:2:0:0:
256,192,103185,12,4,104863,0:3:0:0:
