osu file format v14

[General]
AudioFilename: audio.mp3
AudioLeadIn: 0
PreviewTime: 28045
Countdown: 1
SampleSet: Soft
StackLeniency: 0.7
Mode: 0
LetterboxInBreaks: 0
WidescreenStoryboard: 0

[Editor]
Bookmarks: 72555
DistanceSpacing: 1.1
BeatDivisor: 4
GridSize: 32
TimelineZoom: 2

[Metadata]
Title:Seven Deadly Sins
TitleUnicode:Seven Deadly Sins
Artist:MAN WITH A MISSION
ArtistUnicode:MAN WITH A MISSION
Creator:Nao Tomori
Version:Insane
Source:七つの大罪
Tags:nanatsu no taizai the opening two
BeatmapID:1828823
BeatmapSetID:875083

[Difficulty]
HPDrainRate:6
CircleSize:4.2
OverallDifficulty:7.5
ApproachRate:8.5
SliderMultiplier:1.2
SliderTickRate:1

[Events]
//Background and Video events
0,0,"pig.png",0,0
//Break Periods
//Storyboard Layer 0 (Background)
//Storyboard Layer 1 (Fail)
//Storyboard Layer 2 (Pass)
//Storyboard Layer 3 (Foreground)
//Storyboard Sound Samples

[TimingPoints]
8360,419.58041958042,3,2,1,46,1,0
8360,-83.3333333333333,3,2,1,46,0,0
18429,-74.0740740740741,3,2,1,66,0,0
28499,-68.9655172413793,3,2,1,66,0,0
52415,-76.9230769230769,3,2,1,56,0,0
72555,-76.9230769230769,3,2,1,66,0,0
77590,-71.4285714285714,3,2,1,56,0,0
82625,-62.5,3,2,1,76,0,0

[Colours]
Combo1 : 250,145,114
Combo2 : 242,190,166

[HitObjects]
147,245,3326,6,0,P|126:202|139:142,2,90,2|0|0,0:2|0:2|0:2,0:2:0:0:
231,277,4165,2,0,L|302:264,1,60,2|0,0:2|0:2,0:2:0:0:
374,234,4584,2,0,P|395:191|382:131,2,90,2|0|0,0:2|0:2|0:2,0:2:0:0:
290,266,5423,2,0,L|219:253,1,60,2|0,0:2|0:2,0:2:0:0:
181,172,5843,6,0,P|150:201|134:255,2,90,2|0|0,0:2|0:2|0:2,0:2:0:0:
275,166,6682,2,0,P|326:150|356:139,1,60,2|0,0:2|0:2,0:2:0:0:
398,73,7102,2,0,P|421:30|477:16,2,90,2|0|0,0:2|0:2|0:2,0:2:0:0:
474,194,7941,2,0,P|477:147|466:112,1,60,2|0,0:2|0:2,0:2:0:0:
382,293,8360,6,0,P|432:285|537:272,2,143.999995605469,2|0|0,3:2|3:2|3:2,0:2:0:0:
301,351,9408,1,0,0:2:0:0:
210,304,9618,2,0,P|197:260|228:159,2,143.999995605469,2|0|0,3:2|3:2|3:2,0:2:0:0:
25,378,10877,2,0,P|50:311|37:242,1,143.999995605469,2|0,3:2|3:2,0:2:0:0:
109,158,11506,1,0,0:2:0:0:
27,94,11716,2,0,P|10:34|4:12,1,71.9999978027344,0|0,3:2|0:2,0:2:0:0:
131,59,12136,2,0,P|187:68|265:24,2,143.999995605469,2|0|2,3:2|3:2|0:2,0:2:0:0:
352,215,13394,6,0,P|356:96|357:56,2,143.999995605469,2|0|0,3:2|3:2|3:2,0:2:0:0:
154,224,14653,2,0,B|146:175|165:141,1,71.9999978027344,2|0,3:2|0:2,0:2:0:0:
249,193,15073,2,0,P|253:312|254:352,1,143.999995605469,0|0,3:2|3:2,0:2:0:0:
350,378,15702,1,0,0:2:0:0:
444,323,15912,2,0,P|465:279|434:182,2,143.999995605469,2|0|0,3:2|3:2|3:2,0:2:0:0:
83,238,17171,6,0,B|254:202|190:303|366:258,1,287.999991210938,2|0,3:2|0:2,0:2:0:0:
390,249,18429,6,0,P|409:190|364:84,1,162.000000617981,6|0,3:2|3:2,0:2:0:0:
285,40,19059,1,0,0:2:0:0:
195,111,19269,2,0,P|146:115|105:118,1,81.0000003089905,0|0,3:2|0:2,0:2:0:0:
269,208,19688,2,0,B|343:181|361:246|445:207,1,162.000000617981,2|0,3:2|3:2,0:2:0:0:
492,115,20318,1,0,0:2:0:0:
384,45,20527,2,0,P|390:105|396:142,1,81.0000003089905,2|0,3:2|0:2,0:2:0:0:
443,330,20947,6,0,P|411:289|300:292,2,162.000000617981,2|0|0,3:2|3:2|3:2,0:2:0:0:
210,312,22206,2,0,P|194:240|167:144,1,162.000000617981,2|0,3:2|3:2,0:2:0:0:
99,86,22835,1,0,0:2:0:0:
12,38,23045,1,2,3:2:0:0:
216,70,23464,6,0,P|270:69|333:27,2,121.500000463486,2|2|0,3:2|0:2|0:2,0:2:0:0:
376,124,24304,2,0,P|421:142|451:166,1,81.0000003089905,2|0,3:2|0:2,0:2:0:0:
240,271,24723,2,0,P|245:215|292:142,2,121.500000463486,2|2|0,3:2|0:2|0:2,0:2:0:0:
164,160,25562,2,0,P|145:110|123:81,1,81.0000003089905,2|0,3:2|0:2,0:2:0:0:
117,260,25982,5,2,3:2:0:0:
266,192,26297,1,2,0:2:0:0:
411,280,26611,1,2,0:2:0:0:
266,342,26821,1,0,3:2:0:0:
267,321,27031,1,0,0:2:0:0:
182,357,27241,2,0,P|142:352|7:339,2,162.000000617981,2|0|0,3:2|3:2|3:2,0:2:0:0:
404,243,28499,6,0,P|412:191|419:129,1,87.0000026550294,2|0,3:2|0:2,0:2:0:0:
347,73,28919,2,0,P|327:27|311:-11,1,87.0000026550294,0|0,3:2|0:2,0:2:0:0:
235,84,29339,2,0,P|189:64|130:42,1,87.0000026550294,0|0,3:2|0:2,0:2:0:0:
58,185,29758,6,0,P|111:162|152:145,1,87.0000026550294,2|0,3:2|0:2,0:2:0:0:
194,239,30178,2,0,P|263:231|301:228,1,87.0000026550294,0|0,3:2|0:2,0:2:0:0:
61,314,30597,2,0,P|103:323|146:335,1,87.0000026550294,2|0,3:2|0:2,0:2:0:0:
277,347,31017,6,0,P|337:304|410:257,2,130.500003982544,2|2|0,3:2|2:2|2:2,2:2:0:0:
212,258,31856,2,0,P|222:197|231:151,1,87.0000026550294,0|0,3:2|0:2,0:2:0:0:
100,284,32276,2,0,P|70:232|3:137,2,174.000005310059,2|0|2,3:2|3:2|3:2,0:2:0:0:
259,101,33534,6,0,P|258:52|252:1,1,87.0000026550294,2|0,3:2|0:2,0:2:0:0:
113,21,33849,2,0,P|114:69|120:121,1,87.0000026550294,2|0,0:2|0:2,0:2:0:0:
191,156,34164,1,0,0:2:0:0:
344,69,34373,2,0,P|409:66|445:65,1,87.0000026550294,2|0,3:2|0:2,0:2:0:0:
496,204,34793,6,0,P|509:246|497:298,1,87.0000026550294,2|0,3:2|0:2,0:2:0:0:
359,300,35108,2,0,P|346:258|358:206,1,87.0000026550294,2|0,0:2|0:2,0:2:0:0:
429,255,35422,1,0,0:2:0:0:
288,352,35632,1,2,3:2:0:0:
288,352,35842,2,0,P|209:342|101:328,1,174.000005310059,2|0,0:2|0:2,0:2:0:0:
5,210,36471,5,2,3:2:0:0:
194,208,36681,1,0,0:2:0:0:
53,125,36891,1,0,3:2:0:0:
93,213,37101,1,2,0:2:0:0:
154,124,37311,6,0,P|126:58|27:31,3,174.000005310059,2|0|0|0,3:2|3:2|3:2|3:2,0:2:0:0:
288,151,38989,5,0,3:2:0:0:
294,141,39093,1,0,3:2:0:0:
302,132,39198,1,0,3:2:0:0:
311,125,39303,1,0,3:2:0:0:
320,118,39408,1,0,3:2:0:0:
330,113,39513,1,0,3:2:0:0:
341,109,39618,1,0,3:2:0:0:
352,105,39723,1,0,3:2:0:0:
364,104,39828,1,0,3:2:0:0:
375,104,39933,1,0,3:2:0:0:
387,105,40037,1,0,3:2:0:0:
398,107,40142,1,0,3:2:0:0:
409,111,40247,1,0,3:2:0:0:
420,115,40352,1,0,3:2:0:0:
430,122,40457,1,0,3:2:0:0:
439,129,40562,1,0,3:2:0:0:
458,166,40667,5,4,0:3:0:0:
455,167,42346,5,2,3:2:0:0:
284,274,42660,1,2,0:2:0:0:
284,274,42765,1,0,3:2:0:0:
351,173,42975,1,2,0:2:0:0:
404,322,43185,2,0,P|462:321|506:319,1,87.0000026550294,10|0,0:2|0:2,0:2:0:0:
289,364,43604,2,0,P|217:357|115:363,1,174.000005310059,2|0,3:2|3:2,0:2:0:0:
35,227,44339,1,8,0:2:0:0:
139,174,44548,1,8,0:2:0:0:
139,174,44653,1,0,3:2:0:0:
242,258,44863,5,2,3:2:0:0:
413,178,45178,1,2,0:2:0:0:
413,178,45283,1,0,3:2:0:0:
313,124,45492,1,2,0:2:0:0:
373,279,45702,2,0,P|435:273|481:263,1,87.0000026550294,10|0,0:2|0:2,0:2:0:0:
256,229,46122,2,0,B|143:236|196:274|93:286,1,174.000005310059,2|0,3:2|3:2,0:2:0:0:
11,128,46856,1,2,0:2:0:0:
99,191,47066,1,8,0:2:0:0:
99,191,47171,1,0,3:2:0:0:
292,93,47380,5,2,3:2:0:0:
110,81,47695,1,2,0:2:0:0:
110,81,47800,1,0,3:2:0:0:
193,147,48010,1,2,0:2:0:0:
281,90,48220,2,0,P|276:47|273:4,1,87.0000026550294,10|0,2:2|0:2,0:2:0:0:
371,136,48639,2,0,P|311:184|208:163,1,174.000005310059,2|0,3:2|3:2,0:2:0:0:
394,45,49373,1,8,0:2:0:0:
469,134,49583,1,8,0:2:0:0:
469,134,49688,1,0,3:2:0:0:
404,241,49898,6,0,P|305:228|258:223,1,130.500003982544,2|0,3:2|0:2,0:2:0:0:
240,233,50318,2,0,P|216:272|215:318,1,87.0000026550294,2|0,3:2|0:2,0:2:0:0:
402,138,50737,2,0,L|384:42,1,87.0000026550294,10|0,0:2|0:2,0:2:0:0:
400,275,51157,5,2,3:2:0:0:
502,222,51471,1,2,0:2:0:0:
502,222,51576,1,0,3:2:0:0:
392,144,51786,1,2,0:2:0:0:
469,344,51996,1,8,0:2:0:0:
501,122,52206,1,8,0:2:0:0:
501,122,52311,1,8,0:2:0:0:
501,122,52415,6,0,P|503:59|503:29,2,77.9999964294435,6|2|0,3:2|0:2|3:2,0:2:0:0:
348,210,53045,1,0,0:2:0:0:
367,183,53150,2,0,P|417:175|465:232,1,116.999994644165,2|0,0:2|0:2,0:2:0:0:
316,294,53674,2,0,P|242:287|208:287,1,77.9999964294435,0|0,3:2|0:2,0:2:0:0:
57,351,54094,1,2,3:2:0:0:
93,256,54304,1,2,0:2:0:0:
49,156,54513,2,0,P|44:95|43:62,1,77.9999964294435,0|0,3:2|0:2,0:2:0:0:
178,13,54933,6,0,P|173:65|169:98,2,77.9999964294435,0|2|2,3:2|0:2|3:2,0:2:0:0:
319,110,55562,1,0,0:2:0:0:
353,92,55667,2,0,P|363:145|373:220,1,116.999994644165,2|0,0:2|0:2,0:2:0:0:
250,370,56192,1,2,3:2:0:0:
360,232,56401,1,2,0:2:0:0:
225,352,56611,2,0,P|162:342|119:336,1,77.9999964294435,0|0,3:2|0:2,0:2:0:0:
346,261,57031,2,0,P|409:251|452:245,1,77.9999964294435,0|0,3:2|0:2,0:2:0:0:
306,102,57450,6,0,P|285:156|276:192,2,77.9999964294435,0|2|2,3:2|0:2|3:2,0:2:0:0:
112,74,58080,1,0,0:2:0:0:
131,52,58185,2,0,P|157:102|177:168,1,116.999994644165,2|0,0:2|0:2,0:2:0:0:
128,264,58709,1,0,3:2:0:0:
318,326,58919,1,2,0:2:0:0:
244,235,59129,1,2,3:2:0:0:
308,356,59339,1,0,0:2:0:0:
376,232,59548,2,0,P|379:163|382:128,1,77.9999964294435,2|0,3:2|0:2,0:2:0:0:
241,59,59968,6,0,P|253:125|257:158,2,77.9999964294435,0|2|2,3:2|0:2|3:2,0:2:0:0:
180,214,60597,1,0,0:2:0:0:
202,239,60702,2,0,P|251:254|329:227,1,116.999994644165,2|0,0:2|0:2,0:2:0:0:
421,95,61227,1,2,3:2:0:0:
322,113,61436,1,2,0:2:0:0:
417,224,61646,2,0,P|432:299|434:319,1,77.9999964294435,0|0,3:2|0:2,0:2:0:0:
329,374,62066,1,8,2:2:0:0:
208,314,62276,1,8,0:2:0:0:
208,314,62380,1,8,0:2:0:0:
208,314,62485,6,0,B|125:291|144:348|50:336,1,155.999992858887,6|0,3:2|3:2,0:2:0:0:
4,173,63115,1,0,0:2:0:0:
30,157,63220,2,0,P|72:199|66:281,1,116.999994644165,2|0,3:2|3:2,2:2:0:0:
2,334,63744,1,0,3:2:0:0:
160,265,63954,5,2,0:2:0:0:
273,355,64164,1,2,3:2:0:0:
383,256,64373,1,8,0:2:0:0:
362,233,64478,2,0,L|356:178,1,38.9999982147218,8|2,0:2|0:2,0:2:0:0:
422,109,64688,1,8,0:2:0:0:
399,89,64793,2,0,P|392:48|383:11,1,77.9999964294435,0|0,3:2|3:2,0:2:0:0:
200,77,65213,5,0,0:2:0:0:
200,109,65318,2,0,P|252:125|321:78,1,116.999994644165,2|0,0:2|3:2,0:2:0:0:
108,73,65842,2,0,P|105:129|104:165,1,77.9999964294435,10|0,0:2|0:2,0:2:0:0:
228,314,66262,5,2,3:2:0:0:
331,218,66471,1,0,0:2:0:0:
143,252,66681,2,0,P|69:253|41:255,1,77.9999964294435,2|0,3:2|0:2,0:2:0:0:
35,276,66996,2,0,P|20:323|19:335,1,38.9999982147218,8|0,0:2|0:2,0:2:0:0:
148,366,67206,1,8,0:2:0:0:
179,349,67311,2,0,P|249:341|280:339,1,77.9999964294435,0|0,3:2|3:2,0:2:0:0:
359,206,67730,5,2,0:2:0:0:
416,355,67940,1,2,3:2:0:0:
245,248,68150,1,0,0:2:0:0:
259,215,68255,2,0,P|270:150|253:68,1,116.999994644165,2|0,0:2|3:2,0:2:0:0:
173,22,68779,1,0,3:2:0:0:
25,143,68989,5,2,0:2:0:0:
156,142,69199,1,2,0:2:0:0:
29,27,69408,1,0,3:2:0:0:
7,57,69513,2,0,P|3:96|3:110,1,38.9999982147218,0|0,3:2|0:2,0:2:0:0:
75,182,69723,1,8,0:2:0:0:
87,213,69828,2,0,P|95:268|96:321,1,77.9999964294435,0|0,3:2|3:2,0:2:0:0:
0,242,70248,5,2,0:2:0:0:
175,183,70457,1,2,3:2:0:0:
305,263,70667,1,0,0:2:0:0:
332,276,70772,2,0,P|405:278|471:249,1,116.999994644165,2|0,0:2|3:2,0:2:0:0:
295,158,71297,5,2,3:2:0:0:
321,367,71506,1,0,0:2:0:0:
462,186,71716,1,2,3:2:0:0:
222,267,71926,1,8,0:2:0:0:
184,266,72031,1,8,0:2:0:0:
148,252,72136,1,8,3:2:0:0:
143,223,72240,1,8,3:3:0:0:
148,201,72345,1,8,3:3:0:0:
161,191,72450,1,8,3:3:0:0:
174,187,72555,6,0,L|182:142,3,38.9999982147218,6|0|0|0,3:2|0:2|0:2|0:2,0:2:0:0:
263,131,72975,2,0,L|255:86,3,38.9999982147218,2|0|0|0,3:2|0:2|0:2|0:2,0:2:0:0:
331,173,73394,5,10,0:2:0:0:
356,187,73498,1,0,0:2:0:0:
385,191,73603,1,2,0:2:0:0:
413,183,73708,1,0,0:2:0:0:
438,167,73814,1,2,3:2:0:0:
469,185,73918,1,0,0:2:0:0:
491,214,74023,1,0,0:2:0:0:
500,250,74128,1,0,0:2:0:0:
496,286,74234,5,2,3:2:0:0:
476,287,74338,1,0,0:2:0:0:
457,290,74443,1,2,0:2:0:0:
438,295,74548,1,0,0:2:0:0:
422,306,74653,1,2,3:2:0:0:
407,318,74758,1,0,0:2:0:0:
389,325,74863,1,0,0:2:0:0:
370,329,74968,1,0,0:2:0:0:
350,330,75073,5,2,3:2:0:0:
326,296,75177,1,0,0:2:0:0:
282,276,75282,1,0,0:2:0:0:
234,272,75387,1,0,0:2:0:0:
188,287,75492,1,2,3:2:0:0:
156,250,75596,1,0,0:2:0:0:
142,204,75701,1,0,0:2:0:0:
149,156,75806,1,0,0:2:0:0:
174,115,75911,5,10,0:2:0:0:
168,77,76016,1,0,0:2:0:0:
141,49,76121,1,2,0:2:0:0:
104,41,76226,1,0,0:2:0:0:
68,55,76331,1,2,3:2:0:0:
87,89,76436,1,0,0:2:0:0:
117,113,76541,1,0,0:2:0:0:
155,123,76646,1,0,0:2:0:0:
193,118,76751,5,2,3:2:0:0:
201,113,76855,1,0,0:2:0:0:
210,108,76960,1,2,0:2:0:0:
219,105,77065,1,0,0:2:0:0:
228,102,77170,1,2,3:2:0:0:
238,99,77275,1,0,0:2:0:0:
247,98,77380,1,0,0:2:0:0:
257,97,77485,1,0,0:2:0:0:
289,113,77590,6,0,P|310:163|296:208,1,83.9999974365235,2|0,3:2|0:2,0:2:0:0:
249,244,77905,2,8,P|245:298|273:336,1,83.9999974365235,2|0,3:2|0:2,0:2:0:0:
329,353,78220,1,0,3:2:0:0:
407,237,78429,1,2,0:2:0:0:
505,344,78639,1,10,0:2:0:0:
376,234,78849,6,0,P|331:231|292:227,1,83.9999974365235,2|0,3:2|0:2,0:2:0:0:
214,267,79164,2,0,P|172:271|131:274,1,83.9999974365235,2|0,3:2|0:2,0:2:0:0:
56,240,79478,1,2,3:2:0:0:
128,130,79688,1,10,0:2:0:0:
13,31,79898,1,10,0:2:0:0:
37,13,80108,1,0,3:2:0:0:
256,192,80213,12,8,82206,0:2:0:0:
122,100,82625,6,0,P|70:156|102:237,1,144,6|0,3:2|0:2,0:2:0:0:
148,267,83045,2,0,P|213:254|241:237,1,96,0|0,3:2|0:2,0:2:0:0:
354,279,83464,2,0,P|395:227|405:196,1,96,8|0,2:2|2:2,2:2:0:0:
270,72,83884,6,0,P|313:11|412:22,1,144,2|0,3:2|0:2,0:2:0:0:
215,128,84304,2,0,P|159:138|106:120,1,96,0|0,2:2|2:2,2:2:0:0:
74,71,84618,1,8,0:2:0:0:
221,218,84828,1,8,0:2:0:0:
221,218,84933,1,0,3:2:0:0:
95,367,85143,6,0,P|104:299|113:207,1,144,2|0,3:2|0:2,0:2:0:0:
51,168,85562,2,0,P|25:115|-16:75,1,96,0|0,3:2|0:2,0:2:0:0:
194,186,85982,2,0,P|224:149|244:105,1,96,8|0,3:2|2:2,2:2:0:0:
51,168,86401,6,0,P|67:256|78:345,1,144,2|0,3:2|0:2,0:2:0:0:
153,322,86821,2,0,P|167:259|178:215,1,96,2|0,3:2|0:2,0:2:0:0:
241,181,87136,1,8,0:2:0:0:
241,181,87241,1,2,3:2:0:0:
241,181,87346,2,0,P|302:158|345:144,1,96,8|0,0:2|0:2,0:2:0:0:
423,174,87660,6,0,P|459:229|416:313,1,144,2|2,3:2|0:2,0:2:0:0:
365,338,88080,2,0,P|306:324|232:315,1,96,0|2,3:2|0:2,0:2:0:0:
65,358,88499,1,10,0:2:0:0:
173,380,88709,1,0,0:2:0:0:
30,123,88919,5,2,3:2:0:0:
30,123,89024,1,8,0:2:0:0:
141,233,89234,1,10,0:2:0:0:
141,233,89339,1,2,3:2:0:0:
196,68,89548,1,2,3:2:0:0:
196,68,89653,2,0,L|256:66,1,48,8|2,0:2|0:2,0:2:0:0:
312,140,89863,1,8,0:2:0:0:
312,140,89968,1,2,3:2:0:0:
451,38,90178,6,0,P|410:121|446:183,1,144,2|2,3:2|0:2,0:2:0:0:
496,211,90597,2,0,P|510:272|489:328,1,96,0|2,3:2|0:2,0:2:0:0:
368,360,91017,2,8,P|301:342|249:330,1,96,10|2,0:2|3:2,0:2:0:0:
40,324,91436,6,0,P|68:282|73:213,1,96,2|0,3:2|0:2,0:2:0:0:
30,176,91751,2,0,L|25:94,1,48,2|0,0:2|3:2,0:2:0:0:
141,26,92066,1,8,0:2:0:0:
175,17,92170,1,8,0:2:0:0:
210,27,92275,1,8,0:2:0:0:
236,51,92380,1,8,0:2:0:0:
247,85,92485,1,4,0:3:0:0:
230,103,92589,1,4,0:3:0:0:
217,127,92695,6,0,P|196:175|211:267,1,144,6|0,3:2|0:2,0:2:0:0:
166,329,93115,2,0,P|110:318|45:327,1,96,0|0,3:2|0:2,0:2:0:0:
103,194,93534,2,0,P|53:221|9:270,1,96,8|0,0:2|0:2,0:2:0:0:
144,102,93954,6,0,P|97:73|45:-12,1,144,2|0,3:2|0:2,0:2:0:0:
211,49,94373,2,0,P|258:24|332:19,1,96,0|0,3:2|0:2,0:2:0:0:
369,58,94688,1,8,0:2:0:0:
499,4,94898,1,10,0:2:0:0:
499,4,95003,1,0,3:2:0:0:
443,143,95213,6,0,B|392:232|473:241|415:334,1,192,2|0,3:2|3:2,0:2:0:0:
240,370,95842,1,0,0:2:0:0:
349,267,96052,1,8,0:2:0:0:
330,356,96262,1,0,0:2:0:0:
178,299,96471,6,0,P|120:284|66:300,1,96,2|0,3:2|0:2,0:2:0:0:
21,327,96786,2,0,P|-7:256|8:146,1,144,2|0,0:2|0:2,0:2:0:0:
53,97,97206,1,8,0:2:0:0:
67,81,97311,1,2,3:2:0:0:
81,66,97415,2,0,P|146:85|192:67,1,96,8|0,0:2|0:2,0:2:0:0:
268,22,97730,6,0,P|335:31|360:117,1,144,2|2,3:2|0:2,0:2:0:0:
302,146,98150,2,0,P|295:217|286:270,1,96,0|2,3:2|0:2,0:2:0:0:
459,305,98569,2,0,P|453:257|449:210,1,96,10|0,0:2|0:2,0:2:0:0:
252,349,98989,5,2,3:2:0:0:
252,349,99094,1,8,0:2:0:0:
368,245,99304,1,10,0:2:0:0:
368,245,99408,1,0,3:2:0:0:
184,167,99618,1,2,3:2:0:0:
156,195,99723,2,0,L|99:195,1,48,8|0,0:2|3:2,0:2:0:0:
232,261,99933,1,8,0:2:0:0:
232,261,100038,1,0,3:2:0:0:
281,54,100248,5,6,0:2:0:0:
90,123,100457,1,8,0:2:0:0:
66,122,100561,1,8,0:2:0:0:
42,121,100666,1,8,0:2:0:0:
170,238,100877,1,8,0:3:0:0:
193,237,100981,1,8,0:3:0:0:
217,236,101086,1,4,0:3:0:0:
249,258,101191,1,4,0:3:0:0:
260,292,101296,1,4,0:3:0:0:
251,327,101401,1,4,0:3:0:0:
226,352,101506,5,6,3:2:0:0:
46,52,101926,1,0,3:2:0:0:
408,36,102346,1,0,3:2:0:0:
139,214,102765,1,0,3:2:0:0:
243,112,103185,5,0,3:2:0:0:
254,113,103289,1,0,3:2:0:0:
265,118,103394,1,0,3:2:0:0:
274,126,103499,1,0,3:2:0:0:
280,136,103604,1,0,3:2:0:0:
282,148,103709,1,0,3:2:0:0:
281,160,103814,1,0,3:2:0:0:
276,171,103919,1,0,3:2:0:0:
268,179,104024,1,0,3:2:0:0:
258,185,104129,1,0,3:2:0:0:
246,188,104233,1,0,3:2:0:0:
235,187,104338,1,0,3:2:0:0:
224,182,104443,1,0,3:2:0:0:
215,174,104548,1,0,3:2:0:0:
209,163,104653,1,0,3:2:0:0:
206,152,104758,1,0,3:2:0:0:
231,125,104863,5,4,0:3:0:0:
