osu file format v14

[General]
AudioFilename: audio.mp3
AudioLeadIn: 0
PreviewTime: 28045
Countdown: 1
SampleSet: Soft
StackLeniency: 0.7
Mode: 0
LetterboxInBreaks: 0
WidescreenStoryboard: 1

[Editor]
Bookmarks: 72555
DistanceSpacing: 1.1
BeatDivisor: 4
GridSize: 32
TimelineZoom: 1

[Metadata]
Title:Seven Deadly Sins
TitleUnicode:Seven Deadly Sins
Artist:MAN WITH A MISSION
ArtistUnicode:MAN WITH A MISSION
Creator:Nao Tomori
Version:Hard
Source:七つの大罪
Tags:nanatsu no taizai the opening two
BeatmapID:1867551
BeatmapSetID:875083

[Difficulty]
HPDrainRate:5
CircleSize:3.9
OverallDifficulty:6
ApproachRate:7
SliderMultiplier:1.3
SliderTickRate:1

[Events]
//Background and Video events
0,0,"pig.png",0,0
//Break Periods
//Storyboard Layer 0 (Background)
//Storyboard Layer 1 (Fail)
//Storyboard Layer 2 (Pass)
//Storyboard Layer 3 (Foreground)
//Storyboard Sound Samples

[TimingPoints]
8360,419.58041958042,3,2,1,46,1,0
8360,-100,3,2,1,46,0,0
18429,-86.9565217391304,3,2,1,66,0,0
28499,-80,3,2,1,66,0,0
52415,-90.9090909090909,3,2,1,56,0,0
72555,-90.9090909090909,3,2,1,66,0,0
77590,-83.3333333333333,3,2,1,56,0,0
82625,-74.0740740740741,3,2,1,76,0,0

[Colours]
Combo1 : 250,145,114
Combo2 : 242,190,166

[HitObjects]
30,96,8359,6,0,P|16:152|25:222,1,130,2|2,3:2|3:2,0:0:0:0:
97,292,8989,1,0,0:0:0:0:
181,240,9199,2,0,P|221:232|270:233,1,65,0|0,3:2|0:2,0:0:0:0:
329,282,9618,2,0,P|388:301|473:274,1,130,2|0,3:2|3:2,0:0:0:0:
507,204,10248,1,0,0:0:0:0:
433,145,10457,2,0,L|419:62,1,65,0|0,3:2|0:0,0:0:0:0:
347,19,10877,6,0,P|330:75|295:158,2,130,2|0|0,3:2|3:2|3:2,0:0:0:0:
369,219,12136,2,0,P|321:237|231:208,2,130,2|0|2,3:2|3:2|0:2,0:0:0:0:
445,281,13185,1,0,0:0:0:0:
373,362,13394,6,0,L|230:351,1,130,2|0,3:2|3:2,0:0:0:0:
148,377,14024,1,0,0:0:0:0:
68,323,14234,2,0,P|58:271|54:249,1,65,0|0,3:2|0:0,0:0:0:0:
125,181,14653,2,0,P|132:140|94:60,1,130,2|0,3:2|3:2,0:0:0:0:
42,138,15283,1,0,0:0:0:0:
129,208,15492,2,0,L|206:202,1,65,0|0,3:2|0:2,0:0:0:0:
284,136,15912,6,0,P|326:115|412:137,2,130,2|0|0,3:2|3:2|3:2,0:0:0:0:
344,208,16961,1,0,0:0:0:0:
435,142,17171,2,0,P|394:174|434:362,1,260,2|0,3:2|0:2,0:0:0:0:
434,362,18429,6,0,P|391:340|278:336,1,149.500002851486,6|0,3:2|3:2,0:0:0:0:
197,371,19059,1,0,0:2:0:0:
115,326,19269,2,0,P|99:281|102:222,1,74.7500014257431,0|0,3:2|0:2,0:0:0:0:
168,170,19688,2,0,P|178:120|148:18,2,149.500002851486,2|0|2,3:2|3:2|3:2,0:0:0:0:
226,254,20737,1,0,0:2:0:0:
317,198,20947,6,0,P|375:181|471:217,1,149.500002851486,2|0,3:2|3:2,0:0:0:0:
489,299,21576,1,0,0:0:0:0:
430,376,21786,2,0,L|350:365,1,74.7500014257431,0|0,3:2|0:0,0:0:0:0:
276,303,22206,2,0,P|231:329|124:324,2,149.500002851486,2|0|2,3:2|3:2|3:2,0:0:0:0:
367,78,23464,6,0,P|342:19|279:2,1,112.125002138615,2|2,3:2|0:2,0:0:0:0:
265,4,23884,2,0,L|241:104,1,74.7500014257431,0|0,3:0|0:2,0:0:0:0:
213,196,24304,1,2,3:2:0:0:
213,196,24513,1,0,0:2:0:0:
135,289,24723,2,0,P|160:348|223:365,1,112.125002138615,2|2,3:2|0:2,0:0:0:0:
237,363,25143,2,0,L|261:263,1,74.7500014257431,0|0,3:0|0:2,0:0:0:0:
289,171,25563,1,2,3:2:0:0:
289,171,25772,1,0,0:2:0:0:
401,105,25982,6,0,P|446:141|432:241,1,149.500002851486,2|0,3:2|3:0,0:0:0:0:
338,255,26611,1,2,0:2:0:0:
249,323,26821,2,0,L|150:319,1,74.7500014257431,0|0,3:2|0:2,0:0:0:0:
83,367,27241,2,0,P|46:335|65:216,2,149.500002851486,2|0|0,3:2|3:2|3:2,0:0:0:0:
176,153,28499,6,0,P|180:94|176:58,1,81.25,2|0,3:2|0:2,0:0:0:0:
262,35,28919,2,0,P|260:75|265:116,1,81.25,0|0,3:2|0:2,0:0:0:0:
325,183,29339,2,0,P|372:192|406:187,1,81.25,0|0,3:2|0:2,0:0:0:0:
254,251,29758,2,0,P|208:235|83:261,1,162.5,2|0,3:2|3:2,0:0:0:0:
22,194,30387,1,0,0:2:0:0:
22,194,30597,2,0,P|21:139|28:101,1,81.25,2|0,3:2|0:2,0:0:0:0:
103,49,31017,6,0,B|178:35|167:108|261:91,1,162.5,2|0,3:2|3:0,0:0:0:0:
343,52,31646,1,0,2:2:0:0:
425,106,31856,2,0,P|439:162|436:202,1,81.25,0|0,3:2|0:2,0:0:0:0:
374,262,32276,2,0,L|185:249,2,162.5,2|0|2,3:2|3:2|3:2,0:0:0:0:
107,166,33534,6,0,P|76:211|84:291,1,121.875,2|2,3:2|0:2,0:0:0:0:
99,313,33954,2,0,L|188:316,1,81.25,0|0,3:0|0:2,0:0:0:0:
274,362,34373,1,2,3:2:0:0:
274,362,34583,1,0,0:2:0:0:
374,308,34793,2,0,P|391:259|357:173,1,121.875,2|2,3:2|0:2,0:0:0:0:
345,165,35213,2,0,P|333:109|343:79,1,81.25,0|0,3:0|0:2,0:0:0:0:
413,14,35632,1,2,3:2:0:0:
413,14,35842,1,2,0:2:0:0:
413,14,36052,5,0,3:0:0:0:
217,125,36471,1,2,3:2:0:0:
171,46,36681,1,0,0:2:0:0:
115,121,36891,2,0,P|110:187|104:217,1,81.25,0|2,3:2|0:2,0:0:0:0:
45,273,37311,5,2,3:2:0:0:
234,353,37730,5,0,3:2:0:0:
439,343,38150,5,0,3:2:0:0:
250,263,38569,5,0,3:2:0:0:
392,115,38989,5,0,3:2:0:0:
392,115,39094,1,0,3:2:0:0:
392,115,39199,1,0,3:2:0:0:
392,115,39304,1,0,3:2:0:0:
392,115,39408,2,0,L|398:168,3,40.625,0|0|0|0,3:2|3:2|3:2|3:2,0:0:0:0:
312,137,39828,5,0,3:2:0:0:
312,137,39933,1,0,3:2:0:0:
312,137,40037,1,0,3:2:0:0:
312,137,40142,1,0,3:2:0:0:
312,137,40248,2,0,L|307:96,3,40.625,0|0|0|0,3:2|3:2|3:2|3:2,0:0:0:0:
238,184,40667,5,4,0:3:0:0:
318,232,42346,6,0,P|259:217|185:250,1,121.875,2|2,3:2|0:2,0:0:0:0:
174,262,42765,2,0,P|138:289|94:296,1,81.25,0|2,3:2|0:2,0:0:0:0:
23,174,43185,2,0,P|62:183|93:208,1,81.25,10|0,0:2|0:2,0:0:0:0:
2,346,43604,2,0,P|-20:289|3:187,1,162.5,2|0,3:2|3:2,0:0:0:0:
86,108,44234,1,8,0:0:0:0:
86,108,44339,1,8,0:2:0:0:
86,108,44443,2,0,L|176:99,1,81.25,0|0,3:0|3:2,0:0:0:0:
259,150,44863,6,0,P|315:174|420:126,1,162.5,2|0,3:2|3:2,0:0:0:0:
332,77,45492,1,2,0:2:0:0:
247,148,45702,2,0,L|236:228,1,81.25,10|0,0:2|0:2,0:0:0:0:
299,313,46122,2,0,P|234:331|165:298,1,121.875,2|0,3:2|0:0,0:0:0:0:
152,299,46541,2,0,P|90:288|56:294,1,81.25,0|0,3:2|0:0,0:0:0:0:
52,321,46856,1,10,2:2:0:0:
52,321,46961,1,0,3:0:0:0:
52,321,47066,1,8,2:2:0:0:
52,321,47171,1,0,3:2:0:0:
6,227,47380,6,0,L|2:96,1,121.875,2|2,3:2|0:2,0:0:0:0:
14,63,47800,2,0,P|53:35|113:33,1,81.25,0|2,3:2|0:2,0:0:0:0:
155,101,48220,2,0,P|194:129|254:131,1,81.25,10|0,2:2|0:2,0:0:0:0:
321,96,48639,2,0,P|371:86|448:116,1,121.875,2|0,3:2|0:0,0:0:0:0:
452,145,49059,1,0,3:2:0:0:
383,237,49269,1,8,0:0:0:0:
383,237,49373,1,8,0:2:0:0:
383,237,49478,2,0,L|390:328,1,81.25,0|0,3:0|3:2,0:0:0:0:
299,377,49898,6,0,P|256:348|173:344,1,121.875,2|0,3:2|0:2,0:0:0:0:
152,356,50318,2,0,P|103:367|60:356,1,81.25,2|0,3:2|0:2,0:0:0:0:
9,280,50737,2,0,L|4:196,1,81.25,10|0,0:2|0:2,0:0:0:0:
85,119,51157,2,0,P|116:170|93:256,1,121.875,2|2,3:2|0:2,0:0:0:0:
93,256,51576,2,0,P|137:284|187:286,1,81.25,0|2,3:2|0:2,0:0:0:0:
264,244,51996,1,8,0:2:0:0:
347,312,52206,1,8,0:2:0:0:
347,312,52311,1,8,0:2:0:0:
347,312,52415,6,0,B|403:297|422:341|500:319,2,143.000004364014,6|0|8,3:2|3:2|0:0,0:0:0:0:
149,352,53674,2,0,P|93:363|7:325,2,143.000004364014,0|2|0,3:2|3:2|3:2,0:0:0:0:
98,118,54933,6,0,L|101:261,2,143.000004364014,0|2|8,3:2|3:2|0:0,0:0:0:0:
162,58,55982,1,0,0:2:0:0:
240,107,56192,2,0,P|280:117|380:68,2,143.000004364014,2|0|0,3:2|3:2|3:2,0:0:0:0:
353,259,57450,6,0,P|424:231|498:251,2,143.000004364014,0|2|8,3:2|3:2|0:0,0:0:0:0:
155,330,58709,2,0,B|103:316|61:358|-13:322,2,143.000004364014,0|2|2,3:2|3:2|3:2,0:0:0:0:
228,271,59758,1,0,0:2:0:0:
310,324,59968,6,0,P|351:342|446:310,2,143.000004364014,0|2|8,3:2|3:2|0:0,0:0:0:0:
143,212,61227,2,0,P|102:194|7:226,2,143.000004364014,2|0|8,3:2|3:2|2:2,0:0:0:0:
221,165,62276,1,8,0:2:0:0:
221,165,62380,1,8,0:2:0:0:
221,165,62485,6,0,P|235:95|219:17,1,143.000004364014,6|0,3:2|3:2,0:0:0:0:
144,89,63115,1,0,0:2:0:0:
144,89,63325,2,0,P|202:104|305:112,1,143.000004364014,8|0,0:0|3:2,0:0:0:0:
370,67,63954,1,2,0:2:0:0:
445,134,64164,2,0,L|459:212,1,71.5000021820069,2|8,3:2|0:2,0:0:0:0:
444,240,64478,1,8,0:2:0:0:
444,240,64583,2,0,P|394:262|345:262,1,71.5000021820069,2|0,3:2|3:2,0:0:0:0:
346,360,65003,6,0,P|301:341|192:339,1,143.000004364014,0|8,3:2|0:0,0:0:0:0:
102,374,65632,1,0,3:2:0:0:
30,298,65842,2,0,P|14:228|15:216,1,71.5000021820069,10|0,0:2|0:2,0:0:0:0:
73,144,66262,1,2,3:2:0:0:
73,144,66471,1,0,0:2:0:0:
166,199,66681,2,0,P|214:202|257:188,1,71.5000021820069,2|0,3:2|0:2,0:0:0:0:
258,184,66996,1,8,0:2:0:0:
258,184,67101,2,0,L|352:183,1,71.5000021820069,0|0,3:2|3:2,0:0:0:0:
407,100,67520,6,0,P|457:93|508:182,1,143.000004364014,0|2,3:2|3:2,0:0:0:0:
457,238,68150,1,0,0:2:0:0:
359,188,68360,2,0,P|299:186|273:184,1,71.5000021820069,8|0,0:0|3:2,0:0:0:0:
199,237,68779,2,0,P|178:298|211:372,1,143.000004364014,0|2,3:2|3:2,0:0:0:0:
297,341,69408,1,0,3:2:0:0:
297,341,69513,1,8,2:2:0:0:
297,341,69618,2,0,P|357:330|395:335,1,71.5000021820069,0|0,0:2|3:2,0:0:0:0:
468,361,70038,6,0,P|489:316|469:216,1,143.000004364014,0|2,3:2|3:2,0:0:0:0:
414,164,70667,1,0,0:2:0:0:
493,91,70877,2,0,P|503:60|492:3,1,71.5000021820069,8|0,0:0|3:2,0:0:0:0:
388,8,71297,2,0,P|374:52|379:100,1,71.5000021820069,2|0,3:2|0:2,0:0:0:0:
301,153,71716,1,2,3:2:0:0:
301,153,71926,2,0,P|241:102|233:100,1,71.5000021820069,8|8,0:2|3:2,0:0:0:0:
141,104,72346,1,8,3:2:0:0:
141,104,72450,1,8,3:2:0:0:
141,104,72555,6,0,L|126:256,1,143.000004364014,6|2,3:2|3:2,0:0:0:0:
192,334,73185,1,0,3:2:0:0:
192,334,73290,1,0,3:2:0:0:
192,334,73394,1,10,0:2:0:0:
288,274,73604,1,2,0:2:0:0:
374,346,73814,2,0,L|472:329,1,71.5000021820069,2|0,3:2|0:2,0:0:0:0:
505,240,74234,1,2,3:2:0:0:
508,213,74338,1,0,0:2:0:0:
501,188,74443,1,2,0:2:0:0:
483,168,74548,1,0,0:2:0:0:
459,157,74653,2,0,L|375:168,1,71.5000021820069,2|0,3:2|0:2,0:0:0:0:
309,95,75073,6,0,P|258:129|167:121,1,143.000004364014,2|2,3:2|3:2,0:0:0:0:
124,38,75702,1,0,3:2:0:0:
124,38,75807,1,0,3:2:0:0:
124,38,75912,2,0,P|77:70|46:79,1,71.5000021820069,10|2,0:2|0:2,0:0:0:0:
54,171,76332,2,0,P|86:185|114:207,1,71.5000021820069,2|0,3:2|0:2,0:0:0:0:
180,307,76751,1,2,3:2:0:0:
206,318,76855,1,0,0:2:0:0:
234,320,76960,1,2,0:2:0:0:
261,313,77065,1,0,0:2:0:0:
285,299,77171,2,0,L|334:309,3,35.7500010910034,2|0|0|0,3:2|0:2|0:2|0:2,0:0:0:0:
390,263,77590,6,0,L|404:140,2,116.999996429443,2|2|0,3:2|3:2|3:2,0:0:0:0:
483,246,78429,2,0,L|491:165,1,77.999997619629,2|10,3:2|0:2,0:0:0:0:
398,52,78849,2,0,P|349:70|312:152,2,116.999996429443,2|2|2,3:2|3:2|3:2,0:0:0:0:
222,87,79688,2,0,P|205:18|191:-6,1,77.999997619629,10|10,0:2|0:2,0:0:0:0:
120,69,80108,5,0,3:2:0:0:
256,192,80213,12,8,82206,0:2:0:0:
61,225,82625,6,0,P|117:213|193:256,1,131.62500050211,6|0,3:2|0:2,0:0:0:0:
200,280,83045,2,0,P|248:291|300:286,1,87.7500003347397,0|0,3:2|0:2,0:0:0:0:
404,242,83464,2,0,L|408:152,1,87.7500003347397,8|0,2:2|2:2,0:0:0:0:
335,61,83884,6,0,P|280:92|210:90,1,131.62500050211,2|0,3:2|0:2,0:0:0:0:
179,63,84304,2,0,P|137:44|86:42,1,87.7500003347397,0|0,3:2|2:2,0:0:0:0:
64,53,84618,1,8,0:2:0:0:
64,53,84723,2,0,P|48:97|50:149,1,87.7500003347397,0|0,3:0|3:2,0:0:0:0:
121,219,85143,6,0,L|128:368,1,131.62500050211,2|0,3:2|0:2,0:0:0:0:
157,369,85562,1,0,3:2:0:0:
226,305,85772,1,0,0:2:0:0:
302,361,85982,2,0,L|393:339,1,87.7500003347397,8|0,3:2|3:2,0:0:0:0:
457,263,86401,6,0,P|467:209|423:140,1,131.62500050211,2|0,3:2|0:2,0:0:0:0:
395,124,86821,2,0,P|392:65|419:33,1,87.7500003347397,2|0,3:2|0:2,0:0:0:0:
435,30,87136,1,8,0:2:0:0:
435,30,87241,1,2,3:2:0:0:
263,200,87660,6,0,L|119:173,1,131.62500050211,2|2,3:2|0:2,0:0:0:0:
99,189,88080,2,0,P|76:229|84:289,1,87.7500003347397,0|2,3:2|0:2,0:0:0:0:
291,189,88499,2,0,P|290:145|268:108,1,87.7500003347397,10|0,0:2|0:2,0:0:0:0:
134,41,88919,5,2,3:2:0:0:
2,187,89234,1,10,0:2:0:0:
184,231,89548,1,2,3:2:0:0:
184,231,89653,1,8,0:2:0:0:
184,231,89758,2,0,P|154:184|123:144,1,87.7500003347397,2|2,3:2|3:2,0:0:0:0:
211,65,90178,6,0,P|264:90|372:81,2,131.62500050211,2|2|2,3:2|0:2|0:2,0:0:0:0:
281,198,91017,1,10,0:2:0:0:
281,198,91227,1,2,3:2:0:0:
361,123,91436,6,0,P|439:130|471:241,1,175.500000669479,2|0,3:2|3:2,0:0:0:0:
418,318,92066,1,8,0:2:0:0:
418,318,92171,1,8,0:2:0:0:
418,318,92276,2,0,P|365:324|331:336,1,87.7500003347397,8|4,0:2|0:3,0:0:0:0:
245,271,92695,6,0,P|179:305|96:286,1,131.62500050211,6|0,3:2|0:2,0:0:0:0:
94,283,93115,2,0,P|88:239|86:176,1,87.7500003347397,0|0,3:2|0:2,0:0:0:0:
196,84,93534,2,0,P|193:128|187:172,1,87.7500003347397,8|0,0:2|0:2,0:0:0:0:
267,275,93954,6,0,P|347:297|424:267,1,131.62500050211,2|0,3:2|0:2,0:0:0:0:
422,266,94373,2,0,P|446:211|452:176,1,87.7500003347397,0|0,3:2|0:2,0:0:0:0:
442,154,94688,1,8,0:2:0:0:
442,154,94793,2,0,P|433:94|433:60,1,87.7500003347397,0|0,3:0|3:2,0:0:0:0:
349,15,95213,6,0,P|327:108|292:166,1,131.62500050211,2|0,3:2|0:0,0:0:0:0:
287,166,95632,2,0,P|267:213|261:264,1,87.7500003347397,0|0,3:2|0:2,0:0:0:0:
325,332,96052,1,8,0:2:0:0:
423,296,96262,1,0,3:2:0:0:
318,361,96471,6,0,P|265:351|179:333,1,131.62500050211,2|2,3:2|0:2,0:0:0:0:
155,353,96891,2,0,P|94:363|54:353,1,87.7500003347397,0|0,3:0|0:2,0:0:0:0:
39,337,97206,1,8,0:2:0:0:
39,337,97311,2,0,L|29:236,1,87.7500003347397,2|0,3:2|0:0,0:0:0:0:
116,168,97730,5,2,3:2:0:0:
279,259,98045,1,2,0:2:0:0:
450,178,98360,1,2,0:2:0:0:
376,111,98569,2,0,P|358:161|358:206,1,87.7500003347397,10|0,0:2|0:2,0:0:0:0:
417,293,98989,5,2,3:2:0:0:
312,366,99199,1,0,3:0:0:0:
312,366,99304,1,10,0:2:0:0:
312,366,99408,2,0,L|213:341,1,87.7500003347397,0|2,3:2|3:2,0:0:0:0:
187,358,99723,1,8,0:2:0:0:
187,358,99828,2,0,L|90:357,1,87.7500003347397,0|0,3:2|3:2,0:0:0:0:
18,302,100248,5,6,0:2:0:0:
92,236,100457,1,8,0:2:0:0:
92,236,100562,1,8,0:2:0:0:
92,236,100667,2,0,P|107:191|98:124,1,87.7500003347397,8|8,0:2|0:3,0:0:0:0:
56,69,101087,1,4,0:3:0:0:
56,69,101192,1,4,0:3:0:0:
56,69,101297,1,4,0:3:0:0:
56,69,101401,1,4,0:3:0:0:
56,69,101506,6,0,P|97:110|222:105,3,175.500000669479,6|0|0|0,3:2|3:2|3:2|3:2,0:0:0:0:
408,33,103185,1,0,3:2:0:0:
408,33,103290,1,0,3:2:0:0:
408,33,103394,1,0,3:2:0:0:
408,33,103499,1,0,3:2:0:0:
408,33,103604,2,0,L|404:79,3,43.8750001673698,0|0|0|0,3:2|3:2|3:2|3:2,0:0:0:0:
319,114,104024,5,0,3:2:0:0:
319,114,104129,1,0,3:2:0:0:
319,114,104234,1,0,3:2:0:0:
319,114,104339,1,0,3:2:0:0:
319,114,104444,2,0,L|315:157,3,43.8750001673698,0|0|0|0,3:2|3:2|3:2|3:2,0:0:0:0:
383,213,104863,5,4,0:3:0:0:
