osu file format v14

[General]
AudioFilename: audio.mp3
AudioLeadIn: 0
PreviewTime: 6743
Countdown: 0
SampleSet: Soft
StackLeniency: 0.7
Mode: 2
LetterboxInBreaks: 0
WidescreenStoryboard: 1

[Editor]
DistanceSpacing: 1
BeatDivisor: 4
GridSize: 4
TimelineZoom: 1.7

[Metadata]
Title:Raise your flag (TV Size)
TitleUnicode:Raise your flag (TV Size)
Artist:MAN WITH A MISSION
ArtistUnicode:MAN WITH A MISSION
Creator:4rcheR-
Version:Salad
Source:機動戦士ガンダム 鉄血のオルフェンズ
Tags:archer rew0825 anime japanese male vocals vocal MWAM Mobile Suit Gundam: Iron-Blooded Orphans Kidou Senshi Gandamu Tekketsu no Orufenzu opening op 1 op1 jrock j-rock rock Kamikaze Boy Jean-Ken Johnny g-tekketsu
BeatmapID:3603216
BeatmapSetID:1760358

[Difficulty]
HPDrainRate:3
CircleSize:2.5
OverallDifficulty:7
ApproachRate:7
SliderMultiplier:1.8
SliderTickRate:1

[Events]
//Background and Video events
0,0,"bg.jpg",0,0
Video,840,"Raise your flag.mp4"
//Break Periods
//Storyboard Layer 0 (Background)
//Storyboard Layer 1 (Fail)
//Storyboard Layer 2 (Pass)
//Storyboard Layer 3 (Foreground)
//Storyboard Layer 4 (Overlay)
//Storyboard Sound Samples

[TimingPoints]
1054,413.793103448276,4,2,22,50,1,0
4364,-100,4,2,22,55,0,0
6847,-100,4,2,22,60,0,0
7157,-100,4,2,22,5,0,0
7260,-100,4,2,22,60,0,0
7674,-100,4,2,22,70,0,1
7778,-100,4,2,22,70,0,0
12691,-100,4,2,22,5,0,0
12950,-100,4,2,22,70,0,0
13002,-100,4,2,22,5,0,0
13260,-100,4,2,22,70,0,0
14295,-100,4,2,22,80,0,1
24226,-100,4,2,22,60,0,0
37466,-100,4,2,22,70,0,0
50707,-100,4,2,22,75,0,0
53501,-100,4,2,22,5,0,0
53604,-100,4,2,22,75,0,0
54019,-100,4,2,22,80,0,1
84638,-100,4,2,22,85,0,1
85467,-100,4,2,22,80,0,0
86501,-100,4,2,22,70,0,0
87328,-100,4,2,22,60,0,0
88156,-100,4,2,22,50,0,0
88983,-100,4,2,22,40,0,0

[Colours]
Combo1 : 0,168,84
Combo2 : 0,217,0
Combo3 : 157,79,79
Combo4 : 177,177,177

[HitObjects]
344,192,1054,5,6,1:3:0:0:
168,148,1467,1,2,0:0:0:0:
348,140,1881,2,0,L|480:80,2,135,2|2|2,0:0|0:0|0:0,0:0:0:0:
256,144,2709,5,2,1:2:0:0:
428,200,3122,1,2,0:0:0:0:
256,260,3536,2,0,L|104:320,2,135,2|2|2,0:0|0:0|0:0,0:0:0:0:
348,248,4364,6,0,P|400:200|320:124,1,180,2|2,1:2|0:0,0:0:0:0:
168,104,5191,2,0,L|32:60,2,135,2|2|2,0:0|0:0|0:0,0:0:0:0:
260,108,6019,6,0,P|320:168|252:224,1,180,2|2,1:2|0:0,0:0:0:0:
88,216,6847,2,0,P|40:164|104:92,1,180,2|2,0:0|0:0,0:0:0:0:
424,108,7674,6,0,P|444:224|248:308,1,360,6|0,1:2|0:0,0:0:0:0:
164,280,8709,2,0,L|72:260,2,90,2|2|2,0:0|0:0|0:0,0:0:0:0:
344,292,9329,6,0,L|496:240,2,135,6|2|2,1:2|0:0|0:0,0:0:0:0:
164,276,10364,2,0,L|36:248,2,90,2|2|2,0:0|0:0|0:0,0:0:0:0:
344,288,10985,6,0,P|368:236|336:160,1,135,6|2,1:2|0:0,0:0:0:0:
208,152,11605,1,2,0:0:0:0:
388,160,12019,2,0,L|476:120,2,90,2|2|2,0:0|0:0|0:0,0:0:0:0:
208,164,12640,5,2,1:2:0:0:
80,120,12950,1,2,1:2:0:0:
208,76,13260,1,2,1:2:0:0:
300,76,13467,2,0,L|448:36,2,135,2|2|10,0:0|0:0|0:0,0:0:0:0:
112,60,14295,6,0,P|28:108|120:208,1,270,6|8,1:2|0:0,0:0:0:0:
316,200,15329,2,0,P|368:188|440:80,1,180,10|10,0:0|0:0,0:0:0:0:
248,88,15950,6,0,L|88:32,2,135,6|2|10,1:2|1:2|0:0,0:0:0:0:
448,108,16985,2,0,L|448:216,1,90,10|2,0:0|1:2,0:0:0:0:
348,200,17398,1,10,0:0:0:0:
160,204,17605,6,0,L|28:264,2,135,6|2|10,1:2|1:2|0:0,0:0:0:0:
360,204,18640,2,0,L|444:156,2,90,10|2|10,0:0|1:2|0:0,0:0:0:0:
172,200,19260,6,0,L|24:144,2,135,6|2|10,1:2|1:2|0:0,0:0:0:0:
360,192,20088,2,0,L|500:140,2,135,6|10|10,1:2|0:0|1:3,0:0:0:0:
172,188,20916,6,0,P|132:244|184:300,1,135,6|10,1:2|0:0,0:0:0:0:
312,292,21536,1,10,0:0:0:0:
412,296,21743,2,0,L|416:184,1,90,0|10,1:0|0:0,0:0:0:0:
316,208,22157,2,0,L|216:200,1,90,8|8,1:3|0:3,0:0:0:0:
416,208,22571,6,0,P|452:144|396:88,1,135,14|10,0:0|0:0,0:0:0:0:
276,80,23191,1,10,0:0:0:0:
180,96,23398,2,0,L|176:200,1,90,8|8,1:2|0:3,0:0:0:0:
276,180,23812,2,0,L|388:192,1,90,8|0,1:3|1:0,0:0:0:0:
184,180,24226,5,6,1:2:0:0:
92,180,24433,2,0,P|56:228|112:320,1,180,10|10,3:2|3:2,0:0:0:0:
200,316,25054,2,0,L|300:268,1,90,0|10,1:0|3:2,0:0:0:0:
192,280,25467,2,0,L|80:240,1,90,0|10,1:0|3:2,0:0:0:0:
196,248,25881,6,0,P|276:236|332:164,2,135,2|2|10,1:2|0:0|3:2,0:0:0:0:
376,252,26916,2,0,L|488:208,2,90,10|2|10,3:2|1:2|3:2,0:0:0:0:
196,248,27536,5,6,1:2:0:0:
108,252,27743,2,0,P|60:204|132:136,1,180,10|10,3:2|3:2,0:0:0:0:
212,132,28364,2,0,L|212:224,1,90,0|10,1:0|3:2,0:0:0:0:
120,220,28778,2,0,L|12:220,1,90,0|10,1:0|3:2,0:0:0:0:
120,144,29191,6,0,L|272:200,2,135,2|2|10,1:2|0:0|3:2,0:0:0:0:
212,144,30019,1,0,1:0:0:0:
392,140,30433,2,0,L|392:48,1,90,8|8,0:0|0:0,0:0:0:0:
212,48,30847,5,6,1:2:0:0:
124,52,31054,2,0,P|72:88|144:156,1,180,10|10,0:0|0:0,0:0:0:0:
224,164,31674,2,0,L|120:164,1,90,2|10,1:2|0:0,0:0:0:0:
42,159,32088,2,0,L|40:52,1,90,2|10,1:2|0:0,0:0:0:0:
132,68,32502,6,0,L|284:104,2,135,2|2|10,1:2|0:0|0:0,0:0:0:0:
312,64,33536,2,0,L|436:20,2,90,10|10|10,0:0|0:0|0:0,0:0:0:0:
132,68,34157,5,6,1:2:0:0:
44,64,34364,2,0,P|16:112|64:224,1,180,10|10,0:0|0:0,0:0:0:0:
148,224,34985,2,0,L|248:268,1,90,2|10,1:2|0:0,0:0:0:0:
140,268,35398,2,0,L|128:160,1,90,2|10,1:2|0:0,0:0:0:0:
312,180,35812,6,0,L|464:168,2,135,6|14|10,1:2|0:0|0:3,0:0:0:0:
224,184,36640,2,0,L|224:60,1,90,8|8,1:3|1:3,0:0:0:0:
316,96,37054,2,0,L|420:88,1,90,8|8,0:0|0:0,0:0:0:0:
224,80,37467,5,6,1:2:0:0:
136,84,37674,2,0,L|132:200,1,90,10|2,0:0|1:2,0:0:0:0:
224,188,38088,1,10,0:0:0:0:
312,196,38295,1,2,1:2:0:0:
224,208,38502,2,0,P|184:292|248:336,1,180,8|8,0:0|0:0,0:0:0:0:
332,328,39122,5,2,1:2:0:0:
424,328,39329,2,0,P|488:272|428:200,1,180,10|10,0:0|0:0,0:0:0:0:
356,196,39950,2,0,L|352:92,1,90,2|10,1:2|0:0,0:0:0:0:
444,108,40364,1,2,1:2:0:0:
120,248,40778,5,6,1:2:0:0:
28,248,40985,2,0,L|28:140,1,90,10|2,0:0|1:2,0:0:0:0:
120,164,41398,1,10,0:0:0:0:
208,172,41605,1,2,1:2:0:0:
120,180,41812,2,0,P|64:136|136:68,1,180,10|8,0:2|0:0,0:0:0:0:
212,64,42433,6,0,L|24:28,1,180,2|2,1:2|1:2,0:0:0:0:
216,40,43260,2,0,L|216:144,1,90,2|10,1:2|1:2,0:0:0:0:
124,132,43674,2,0,L|24:136,1,90,2|10,1:2|1:2,0:0:0:0:
216,132,44088,5,6,1:2:0:0:
304,140,44295,2,0,L|304:252,1,90,10|2,0:0|1:2,0:0:0:0:
216,228,44709,1,10,0:0:0:0:
124,228,44916,1,2,1:2:0:0:
216,228,45122,2,0,P|296:224|340:128,1,180,14|8,0:0|0:0,0:0:0:0:
160,136,45743,5,6,1:2:0:0:
72,144,45950,2,0,L|72:252,1,90,10|2,0:0|1:2,0:0:0:0:
164,228,46364,1,10,0:0:0:0:
252,228,46571,2,0,L|152:228,1,90,2|10,1:2|0:0,0:0:0:0:
72,228,46985,1,2,1:2:0:0:
396,232,47398,5,6,1:2:0:0:
488,232,47605,2,0,P|488:164|384:116,1,180,10|10,0:0|0:0,0:0:0:0:
308,100,48226,1,2,1:2:0:0:
220,100,48433,2,0,L|408:56,1,180,10|8,0:0|0:0,0:0:0:0:
216,72,49054,6,0,L|68:112,2,135,6|4|2,1:2|1:2|1:2,0:0:0:0:
308,76,49881,2,0,L|308:168,1,90,2|2,1:2|1:2,0:0:0:0:
220,180,50295,2,0,L|112:200,1,90,10|10,0:0|0:0,0:0:0:0:
312,192,50709,6,0,L|456:160,2,135,6|2|2,1:2|0:0|0:0,0:0:0:0:
212,200,51536,2,0,L|52:232,2,135,10|0|10,0:0|1:0|0:0,0:0:0:0:
392,200,52364,6,0,P|420:144|384:72,1,135,10|10,0:0|0:0,0:0:0:0:
260,80,52985,1,10,0:0:0:0:
172,84,53191,2,0,P|80:104|32:212,1,180,2|2,0:0|0:0,0:0:0:0:
376,180,54019,6,0,P|460:240|352:360,1,270,6|10,1:2|0:0,0:0:0:0:
192,340,55054,1,10,0:0:0:0:
284,308,55260,1,2,1:2:0:0:
376,272,55467,1,10,0:0:0:0:
188,264,55674,6,0,L|20:204,2,135,6|2|10,1:2|1:2|0:0,0:0:0:0:
384,240,56709,2,0,L|484:192,2,90,10|2|10,0:0|1:2|0:0,0:0:0:0:
196,236,57329,6,0,P|164:176|220:100,1,135,6|2,1:2|1:2,0:0:0:0:
336,108,57950,1,10,0:0:0:0:
140,100,58364,2,0,L|12:68,2,90,10|2|10,0:0|1:2|0:0,0:0:0:0:
336,108,58985,6,0,P|372:156|324:232,1,135,6|2,1:2|1:2,0:0:0:0:
200,220,59605,1,10,0:0:0:0:
300,216,59812,2,0,L|436:132,2,135,2|10|10,1:2|0:3|0:0,0:0:0:0:
112,224,60640,6,0,P|28:176|132:84,1,270,6|10,1:2|0:0,0:0:0:0:
316,100,61674,2,0,L|100:44,1,180,10|10,0:0|0:0,0:0:0:0:
332,56,62295,6,0,L|476:92,2,135,6|2|10,1:2|1:2|0:0,0:0:0:0:
136,48,63329,2,0,L|20:92,2,90,10|2|10,0:0|1:2|0:0,0:0:0:0:
324,44,63950,6,0,P|360:96|312:156,1,135,6|2,1:2|1:2,0:0:0:0:
180,152,64571,1,10,0:0:0:0:
380,152,64985,2,0,L|476:116,2,90,10|2|10,0:0|1:2|0:0,0:0:0:0:
192,176,65605,6,0,L|28:232,2,135,6|2|10,1:2|1:2|0:0,0:0:0:0:
380,192,66433,2,0,P|412:148|348:80,1,135,6|10,1:2|0:0,0:0:0:0:
256,76,67054,1,10,1:3:0:0:
68,80,67260,6,0,P|32:116|88:196,1,135,6|10,1:2|0:0,0:0:0:0:
180,188,67881,1,10,0:0:0:0:
368,192,68088,1,6,1:2:0:0:
468,192,68295,2,0,L|468:92,1,90,2|2,0:0|1:2,0:0:0:0:
368,104,68709,1,10,0:0:0:0:
180,104,68916,6,0,L|36:160,2,135,6|10|10,1:2|0:0|0:0,0:0:0:0:
280,104,69743,1,2,1:2:0:0:
280,104,69950,2,0,L|76:104,1,180,2|10,0:0|0:0,0:0:0:0:
292,256,70571,6,0,L|440:208,2,135,6|10|10,1:2|0:0|0:0,0:0:0:0:
192,248,71398,1,2,1:2:0:0:
92,244,71605,2,0,L|92:144,1,90,2|2,0:0|1:2,0:0:0:0:
192,140,72019,1,10,0:0:0:0:
380,148,72226,6,0,P|412:180|372:252,1,135,6|10,1:2|0:0,0:0:0:0:
252,240,72847,1,10,0:0:0:0:
64,248,73054,2,0,P|44:188|80:96,1,135,10|8,1:2|1:3,0:0:0:0:
184,120,73674,1,8,0:0:0:0:
372,108,73881,6,0,P|460:152|364:256,1,270,6|10,1:2|0:0,0:0:0:0:
180,252,74916,2,0,L|80:212,2,90,10|2|10,0:0|1:2|0:0,0:0:0:0:
368,260,75536,6,0,P|404:200|356:132,1,135,6|2,1:2|1:2,0:0:0:0:
232,144,76157,1,10,0:0:0:0:
36,164,76571,2,0,L|28:64,1,90,10|2,0:0|1:2,0:0:0:0:
128,80,76985,1,10,0:0:0:0:
316,80,77191,6,0,L|468:36,2,135,6|2|10,1:2|1:2|0:0,0:0:0:0:
120,120,78226,1,10,0:0:0:0:
216,92,78433,1,2,1:2:0:0:
308,64,78640,1,10,0:0:0:0:
120,60,78847,6,0,P|84:100|144:172,1,135,6|2,1:2|1:2,0:0:0:0:
236,176,79467,1,10,0:0:0:0:
424,184,79674,2,0,P|452:140|416:60,1,135,6|10,1:2|0:0,0:0:0:0:
304,80,80295,1,10,1:3:0:0:
116,80,80502,6,0,P|40:100|0:160,2,135,6|10|10,1:2|0:0|0:0,0:0:0:0:
216,80,81329,2,0,L|216:180,1,90,0|10,1:0|0:0,0:0:0:0:
116,168,81743,2,0,L|24:200,1,90,8|8,1:3|0:3,0:0:0:0:
220,204,82157,6,0,P|288:196|364:124,2,135,14|10|10,0:0|0:0|0:0,0:0:0:0:
120,212,82985,2,0,L|108:88,1,90,8|8,1:2|0:3,0:0:0:0:
212,124,83398,2,0,L|308:100,1,90,8|0,1:3|1:0,0:0:0:0:
108,104,83812,6,0,P|72:152|120:208,1,135,6|6,1:2|1:2,0:0:0:0:
240,212,84433,1,6,1:2:0:0:
428,204,84640,2,0,P|460:240|396:328,1,135,10|10,1:3|1:3,0:0:0:0:
308,328,85260,1,10,1:3:0:0:
108,328,85467,5,6,1:2:0:0:
256,192,85881,12,0,88985,0:0:0:0:
