osu file format v14

[General]
AudioFilename: audio.mp3
AudioLeadIn: 0
PreviewTime: 6743
Countdown: 0
SampleSet: Soft
StackLeniency: 0.7
Mode: 2
LetterboxInBreaks: 0
WidescreenStoryboard: 1

[Editor]
DistanceSpacing: 0.9
BeatDivisor: 4
GridSize: 16
TimelineZoom: 1.5

[Metadata]
Title:Raise your flag (TV Size)
TitleUnicode:Raise your flag (TV Size)
Artist:MAN WITH A MISSION
ArtistUnicode:MAN WITH A MISSION
Creator:4rcheR-
Version:Rew's Platter
Source:機動戦士ガンダム 鉄血のオルフェンズ
Tags:archer rew0825 anime japanese male vocals vocal MWAM Mobile Suit Gundam: Iron-Blooded Orphans Kidou Senshi Gandamu Tekketsu no Orufenzu opening op 1 op1 jrock j-rock rock Kamikaze Boy Jean-Ken Johnny g-tekketsu
BeatmapID:3606984
BeatmapSetID:1760358

[Difficulty]
HPDrainRate:4
CircleSize:3
OverallDifficulty:8
ApproachRate:8
SliderMultiplier:1.94
SliderTickRate:2

[Events]
//Background and Video events
0,0,"bg.jpg",0,0
Video,840,"Raise your flag.mp4"
//Break Periods
//Storyboard Layer 0 (Background)
//Storyboard Layer 1 (Fail)
//Storyboard Layer 2 (Pass)
//Storyboard Layer 3 (Foreground)
//Storyboard Layer 4 (Overlay)
//Storyboard Sound Samples

[TimingPoints]
1054,413.793103448276,4,2,22,50,1,0
4364,-100,4,2,22,55,0,0
6847,-100,4,2,22,60,0,0
7157,-100,4,2,22,5,0,0
7260,-100,4,2,22,60,0,0
7674,-100,4,2,22,70,0,1
7778,-100,4,2,22,70,0,0
12691,-100,4,2,22,5,0,0
12950,-100,4,2,22,70,0,0
13002,-100,4,2,22,5,0,0
13260,-100,4,2,22,70,0,0
14295,-100,4,2,22,80,0,1
24226,-100,4,2,22,60,0,0
37466,-100,4,2,22,70,0,0
50707,-100,4,2,22,75,0,0
53501,-100,4,2,22,5,0,0
53604,-100,4,2,22,75,0,0
54019,-100,4,2,22,80,0,1
84638,-100,4,2,22,85,0,1
85467,-100,4,2,22,80,0,0
86501,-100,4,2,22,70,0,0
87328,-100,4,2,22,60,0,0
88156,-100,4,2,22,50,0,0
88983,-100,4,2,22,40,0,0

[Colours]
Combo1 : 0,168,84
Combo2 : 0,217,0
Combo3 : 157,79,79
Combo4 : 177,177,177

[HitObjects]
212,316,1054,6,0,L|211:219,1,97,6|0,1:3|0:0,0:0:0:0:
308,219,1467,2,0,L|309:122,1,97,2|0,0:0|0:0,0:0:0:0:
211,122,1881,1,2,0:0:0:0:
308,122,2088,1,2,0:0:0:0:
356,125,2191,1,2,0:0:0:0:
380,167,2295,1,2,0:0:0:0:
356,209,2398,1,2,0:0:0:0:
308,219,2502,1,2,0:0:0:0:
133,219,2709,6,0,L|132:123,1,97,2|0,1:2|0:0,0:0:0:0:
229,122,3122,2,0,L|230:224,1,97,2|0,0:0|0:0,0:0:0:0:
327,218,3536,1,2,0:0:0:0:
229,218,3743,1,2,0:0:0:0:
180,218,3847,1,2,0:0:0:0:
149,247,3950,1,2,0:0:0:0:
139,293,4054,1,2,0:0:0:0:
159,339,4157,1,2,0:0:0:0:
333,339,4364,6,0,L|334:243,1,97,2|0,1:2|0:0,0:0:0:0:
236,242,4778,2,0,L|235:136,1,97,2|0,0:0|0:0,0:0:0:0:
332,145,5191,1,2,0:0:0:0:
234,145,5398,1,2,0:0:0:0:
211,102,5502,1,2,0:0:0:0:
234,64,5605,1,2,0:0:0:0:
276,52,5709,1,2,0:0:0:0:
325,54,5812,1,2,0:0:0:0:
218,44,6019,6,0,L|216:145,1,97,2|0,1:2|0:0,0:0:0:0:
314,146,6433,2,0,L|313:250,1,97,2|0,0:0|0:0,0:0:0:0:
137,242,6847,2,0,P|63:233|13:132,1,194,2|2,0:0|0:0,0:0:0:0:
498,133,7674,5,6,1:2:0:0:
366,133,7985,1,2,0:0:0:0:
235,133,8295,1,2,0:0:0:0:
429,133,8709,1,2,0:0:0:0:
431,230,8916,1,2,0:0:0:0:
334,230,9122,1,2,0:0:0:0:
48,230,9329,5,6,1:2:0:0:
179,230,9640,1,2,0:0:0:0:
309,230,9950,1,2,0:0:0:0:
129,232,10364,1,2,0:0:0:0:
31,232,10571,1,2,0:0:0:0:
129,232,10778,1,2,0:0:0:0:
402,232,10985,5,6,1:2:0:0:
270,232,11296,1,2,0:0:0:0:
139,232,11605,1,2,0:0:0:0:
320,232,12020,1,2,0:0:0:0:
418,232,12227,1,2,0:0:0:0:
320,232,12434,1,2,0:0:0:0:
137,232,12640,5,2,1:2:0:0:
283,232,12950,1,2,1:2:0:0:
137,232,13260,1,2,1:2:0:0:
234,232,13467,2,0,P|280:191|232:142,1,145.5,2|2,0:0|0:0,0:0:0:0:
115,142,13881,1,8,0:0:0:0:
72,142,13985,1,8,0:0:0:0:
115,142,14088,1,10,0:0:0:0:
387,142,14295,6,0,P|394:188|387:240,1,97,6|8,1:2|0:0,0:0:0:0:
340,239,14605,2,0,L|241:239,1,97,0|0,1:0|1:0,0:0:0:0:
292,239,14916,1,8,0:0:0:0:
389,239,15122,1,0,1:0:0:0:
205,239,15329,1,10,0:0:0:0:
204,191,15433,1,0,1:0:0:0:
302,191,15640,1,0,1:0:0:0:
351,191,15744,1,10,0:0:0:0:
80,191,15950,6,0,P|70:235|79:288,1,97,6|8,1:2|0:0,0:0:0:0:
128,287,16260,2,0,L|241:287,1,97,2|0,1:2|1:0,0:0:0:0:
343,287,16571,2,0,P|354:246|339:191,1,97,10|0,0:0|1:0,0:0:0:0:
156,194,16985,1,10,0:0:0:0:
108,194,17088,1,0,1:0:0:0:
60,194,17191,1,2,1:2:0:0:
62,96,17398,1,10,0:0:0:0:
334,96,17605,6,0,P|341:140|335:193,1,97,6|8,1:2|0:0,0:0:0:0:
286,192,17915,2,0,L|173:192,1,97,2|0,1:2|1:0,0:0:0:0:
71,192,18226,2,0,P|60:151|75:96,1,97,10|0,0:0|1:0,0:0:0:0:
258,100,18640,1,10,0:0:0:0:
355,100,18847,1,2,1:2:0:0:
404,100,18950,1,0,1:0:0:0:
355,100,19054,1,10,0:0:0:0:
84,100,19260,6,0,L|185:100,1,97,6|8,1:2|0:0,0:0:0:0:
131,100,19571,2,0,L|34:100,1,97,2|0,1:2|1:0,0:0:0:0:
82,100,19881,1,10,0:0:0:0:
354,100,20088,2,0,P|360:146|355:200,1,97,6|8,1:2|0:0,0:0:0:0:
306,196,20398,1,10,0:0:0:0:
188,196,20502,1,8,1:3:0:0:
150,196,20605,1,8,1:3:0:0:
188,196,20709,1,10,1:3:0:0:
461,196,20916,6,0,P|493:143|444:88,1,145.5,6|10,1:2|0:0,0:0:0:0:
395,87,21329,1,0,1:0:0:0:
210,87,21536,1,10,0:0:0:0:
307,87,21743,1,0,1:0:0:0:
210,87,21950,1,10,0:0:0:0:
384,87,22157,1,8,1:3:0:0:
385,134,22260,1,8,0:3:0:0:
386,182,22364,1,8,0:3:0:0:
114,176,22571,6,0,P|67:219|116:264,1,145.5,14|10,0:0|0:0,0:0:0:0:
163,264,22984,1,0,1:0:0:0:
327,264,23191,1,10,0:0:0:0:
229,264,23398,1,8,1:2:0:0:
181,256,23501,1,8,0:3:0:0:
164,210,23604,1,8,0:3:0:0:
187,167,23708,1,8,0:3:0:0:
239,166,23811,1,8,1:3:0:0:
337,166,24019,1,0,1:0:0:0:
65,166,24226,5,6,1:2:0:0:
61,262,24433,2,0,P|105:188|206:176,1,194,10|10,3:2|3:2,0:0:0:0:
302,175,25054,2,0,L|304:274,1,97,0|10,1:0|3:2,0:0:0:0:
207,272,25467,2,0,L|100:271,1,97,0|10,1:0|3:2,0:0:0:0:
295,271,25881,6,0,L|448:271,2,145.5,2|2|10,1:2|0:0|3:2,0:0:0:0:
197,271,26709,1,0,1:0:0:0:
295,271,26916,2,0,L|402:270,2,97,10|2|10,3:2|1:2|3:2,0:0:0:0:
23,271,27536,5,6,1:2:0:0:
120,271,27743,2,0,P|170:249|118:155,1,194,10|10,3:2|3:2,0:0:0:0:
19,155,28364,2,0,L|18:57,1,97,0|10,1:0|3:2,0:0:0:0:
115,58,28778,2,0,L|232:57,1,97,0|10,1:0|3:2,0:0:0:0:
396,57,29191,6,0,L|239:58,2,145.5,2|2|10,1:2|0:0|3:2,0:0:0:0:
394,154,30019,1,0,1:0:0:0:
296,154,30226,1,8,3:2:0:0:
111,154,30433,1,8,0:0:0:0:
83,114,30536,1,8,0:0:0:0:
114,76,30640,1,8,0:0:0:0:
396,62,30847,5,6,1:2:0:0:
474,154,31054,2,0,P|429:218|320:236,1,194,10|10,0:0|0:0,0:0:0:0:
223,236,31674,2,0,L|220:336,1,97,2|10,1:2|0:0,0:0:0:0:
317,332,32088,2,0,L|428:332,1,97,2|10,1:2|0:0,0:0:0:0:
228,332,32502,6,0,L|82:332,2,145.5,2|2|10,1:2|0:0|0:0,0:0:0:0:
325,332,33329,1,0,1:0:0:0:
227,332,33536,2,0,L|125:331,2,97,10|10|10,0:0|0:0|0:0,0:0:0:0:
500,332,34157,5,6,1:2:0:0:
402,332,34364,2,0,P|336:325|300:217,1,194,10|10,0:0|0:0,0:0:0:0:
397,216,34985,2,0,L|494:215,1,97,2|10,1:2|0:0,0:0:0:0:
397,216,35398,2,0,L|294:217,1,97,2|10,1:2|0:0,0:0:0:0:
26,216,35812,6,0,L|163:168,2,145.5,6|14|10,1:2|0:0|0:3,0:0:0:0:
29,118,36640,1,8,1:3:0:0:
126,118,36847,1,8,1:3:0:0:
310,118,37054,1,8,0:0:0:0:
358,118,37157,1,8,0:0:0:0:
406,118,37260,1,8,0:0:0:0:
134,118,37467,5,6,1:2:0:0:
231,118,37674,1,10,0:0:0:0:
298,47,37881,1,2,1:2:0:0:
231,118,38088,1,10,0:0:0:0:
134,118,38295,1,2,1:2:0:0:
318,118,38502,2,0,P|364:165|316:208,1,145.5,8|0,0:0|1:0,0:0:0:0:
267,208,38916,1,8,0:0:0:0:
170,208,39122,5,2,1:2:0:0:
354,208,39329,2,0,P|280:215|230:268,1,145.5,10|0,0:0|1:0,0:0:0:0:
280,263,39743,1,10,0:0:0:0:
377,263,39950,2,0,L|378:164,1,97,2|10,1:2|0:0,0:0:0:0:
202,166,40364,1,2,1:2:0:0:
153,166,40467,1,0,1:0:0:0:
109,166,40571,1,8,0:0:0:0:
382,166,40778,5,6,1:2:0:0:
284,166,40985,1,10,0:0:0:0:
216,95,41191,1,2,1:2:0:0:
284,166,41398,1,10,0:0:0:0:
381,166,41605,1,2,1:2:0:0:
196,166,41812,2,0,P|124:151|88:86,1,145.5,10|0,0:2|1:0,0:0:0:0:
137,92,42226,1,8,0:0:0:0:
321,92,42433,6,0,L|323:188,1,97,2|8,1:2|0:0,0:0:0:0:
225,188,42847,2,0,L|126:189,1,97,2|8,1:2|0:0,0:0:0:0:
312,188,43260,2,0,L|413:187,1,97,2|10,1:2|1:2,0:0:0:0:
311,187,43674,1,2,1:2:0:0:
359,187,43778,1,0,1:0:0:0:
407,187,43881,1,10,1:2:0:0:
135,187,44088,6,0,L|31:186,1,97,6|10,1:2|0:0,0:0:0:0:
135,186,44502,2,0,L|238:185,2,97,2|10|2,1:2|0:0|1:2,0:0:0:0:
319,186,45122,2,0,P|321:131|255:79,1,145.5,14|0,0:0|1:0,0:0:0:0:
205,78,45536,1,8,0:0:0:0:
478,78,45743,6,0,L|479:177,1,97,6|10,1:2|0:0,0:0:0:0:
381,174,46157,2,0,L|265:173,1,97,2|10,1:2|0:0,0:0:0:0:
186,173,46571,2,0,L|185:280,1,97,2|10,1:2|0:0,0:0:0:0:
370,269,46985,1,2,1:2:0:0:
418,268,47088,1,0,1:0:0:0:
466,268,47191,1,8,0:0:0:0:
194,268,47398,5,6,1:2:0:0:
96,268,47605,2,0,P|54:219|103:168,1,145.5,10|0,0:0|1:0,0:0:0:0:
148,168,48019,1,10,0:0:0:0:
245,168,48226,1,2,1:2:0:0:
429,168,48433,2,0,L|485:170,1,48.5,10|0,0:0|1:0,0:0:0:0:
380,169,48743,2,0,L|326:170,1,48.5,0|8,1:0|0:0,0:0:0:0:
58,169,49054,6,0,L|56:280,1,97,6|10,1:2|0:0,0:0:0:0:
105,265,49364,2,0,L|204:264,1,97,4|8,1:2|0:0,0:0:0:0:
250,264,49674,1,2,1:2:0:0:
434,264,49881,1,2,1:2:0:0:
337,264,50088,1,2,1:2:0:0:
152,264,50295,1,10,0:0:0:0:
103,264,50398,1,8,0:0:0:0:
152,264,50502,1,10,0:0:0:0:
424,264,50709,6,0,P|437:218|420:167,1,97,6|8,1:2|0:0,0:0:0:0:
374,172,51019,2,0,L|473:172,1,97,2|8,0:0|0:0,0:0:0:0:
423,172,51329,1,2,0:0:0:0:
248,172,51536,2,0,P|235:126|252:75,1,97,10|10,0:0|0:0,0:0:0:0:
297,80,51846,2,0,L|396:80,1,97,0|0,1:0|1:0,0:0:0:0:
346,80,52156,1,10,0:0:0:0:
161,80,52364,6,0,L|311:81,2,145.5,10|10|10,0:0|0:0|0:0,0:0:0:0:
346,80,53191,2,0,P|434:82|500:157,1,194,2|2,0:0|0:0,0:0:0:0:
11,152,54019,6,0,L|10:257,1,97,6|8,1:2|0:0,0:0:0:0:
58,248,54329,2,0,L|157:248,1,97,2|0,1:2|1:0,0:0:0:0:
203,248,54640,1,10,0:0:0:0:
105,248,54847,1,0,1:0:0:0:
289,248,55054,1,10,0:0:0:0:
318,209,55157,1,0,1:0:0:0:
287,171,55260,1,2,1:2:0:0:
189,171,55467,1,10,0:0:0:0:
462,171,55674,6,0,L|463:71,1,97,6|8,1:2|0:0,0:0:0:0:
413,74,55985,2,0,L|316:73,1,97,2|0,1:2|1:0,0:0:0:0:
199,73,56295,2,0,L|198:171,1,97,10|0,0:0|1:0,0:0:0:0:
382,169,56709,1,10,0:0:0:0:
479,169,56916,1,2,1:2:0:0:
499,219,57019,1,0,1:0:0:0:
476,268,57122,1,10,0:0:0:0:
204,268,57329,6,0,P|192:228|206:171,1,97,6|8,1:2|0:0,0:0:0:0:
257,175,57640,2,0,P|269:135|255:78,1,97,2|0,1:2|1:0,0:0:0:0:
135,82,57950,2,0,L|29:82,1,97,10|0,0:0|1:0,0:0:0:0:
223,82,58364,1,10,0:0:0:0:
249,129,58467,1,0,1:0:0:0:
221,174,58571,1,2,1:2:0:0:
124,174,58778,1,10,0:0:0:0:
397,174,58985,6,0,L|399:287,1,97,6|8,1:2|0:0,0:0:0:0:
349,270,59295,2,0,L|225:272,1,97,2|0,1:2|1:0,0:0:0:0:
252,271,59605,1,10,0:0:0:0:
436,271,59812,1,2,1:2:0:0:
468,234,59916,1,8,0:3:0:0:
433,200,60019,1,8,0:3:0:0:
258,200,60226,1,8,0:0:0:0:
306,200,60329,1,8,0:0:0:0:
354,200,60433,1,10,0:0:0:0:
82,200,60640,6,0,L|80:299,1,97,6|8,1:2|0:0,0:0:0:0:
128,296,60950,2,0,L|259:297,1,97,2|0,1:2|1:0,0:0:0:0:
176,296,61260,1,10,0:0:0:0:
79,296,61467,1,0,1:0:0:0:
263,296,61674,1,10,0:0:0:0:
214,296,61778,1,0,1:0:0:0:
116,296,61985,1,0,1:0:0:0:
67,296,62088,1,10,0:0:0:0:
339,275,62295,6,0,L|341:178,1,97,6|8,1:2|0:0,0:0:0:0:
292,178,62605,2,0,L|171:180,1,97,2|0,1:2|1:0,0:0:0:0:
313,179,62916,2,0,L|415:178,1,97,10|0,0:0|1:0,0:0:0:0:
224,179,63329,1,10,0:0:0:0:
272,179,63433,1,0,1:0:0:0:
320,179,63536,1,2,1:2:0:0:
322,105,63743,1,10,0:0:0:0:
50,106,63950,6,0,L|148:106,1,97,6|8,1:2|0:0,0:0:0:0:
195,106,64260,2,0,L|195:203,1,97,2|0,1:2|1:0,0:0:0:0:
76,202,64571,2,0,L|75:106,1,97,10|0,0:0|1:0,0:0:0:0:
262,105,64985,1,10,0:0:0:0:
358,105,65191,1,2,1:2:0:0:
386,144,65295,1,0,1:0:0:0:
358,105,65398,1,10,0:0:0:0:
85,105,65605,6,0,L|84:206,1,97,6|8,1:2|0:0,0:0:0:0:
133,201,65916,2,0,L|26:201,1,97,2|0,1:2|1:0,0:0:0:0:
84,201,66226,1,10,0:0:0:0:
356,201,66433,1,6,1:2:0:0:
453,201,66640,1,8,0:0:0:0:
459,153,66743,1,10,0:0:0:0:
438,110,66846,1,10,1:3:0:0:
397,85,66950,1,8,1:3:0:0:
349,87,67053,1,10,1:3:0:0:
77,87,67260,6,0,L|232:88,1,145.5,6|10,1:2|0:0,0:0:0:0:
173,87,67674,2,0,L|69:88,1,97,0|10,1:0|0:0,0:0:0:0:
349,87,68088,2,0,L|352:188,1,97,6|2,1:2|0:0,0:0:0:0:
254,183,68502,1,2,1:2:0:0:
351,183,68709,1,10,0:0:0:0:
79,183,68916,6,0,P|42:132|93:76,1,145.5,6|10,1:2|0:0,0:0:0:0:
136,76,69329,2,0,L|260:78,1,97,0|10,1:0|0:0,0:0:0:0:
418,77,69743,1,2,1:2:0:0:
320,77,69950,1,2,0:0:0:0:
327,173,70157,1,2,1:2:0:0:
425,173,70364,1,10,0:0:0:0:
153,173,70571,6,0,P|107:209|159:258,1,145.5,6|10,1:2|0:0,0:0:0:0:
205,258,70985,2,0,L|99:256,1,97,0|10,1:0|0:0,0:0:0:0:
292,256,71398,2,0,L|294:153,1,97,2|2,1:2|0:0,0:0:0:0:
196,159,71812,2,0,L|88:159,1,97,2|10,1:2|0:0,0:0:0:0:
372,159,72226,6,0,P|433:151|477:82,1,145.5,6|10,1:2|0:0,0:0:0:0:
427,84,72640,2,0,L|317:84,1,97,0|10,1:0|0:0,0:0:0:0:
144,84,73054,1,10,1:2:0:0:
117,124,73157,1,8,1:3:0:0:
146,162,73260,1,8,1:3:0:0:
320,162,73467,1,8,0:0:0:0:
368,162,73571,1,8,0:0:0:0:
416,162,73674,1,8,0:0:0:0:
144,162,73881,6,0,L|41:162,1,97,6|8,1:2|0:0,0:0:0:0:
95,162,74191,2,0,L|204:162,1,97,2|0,1:2|1:0,0:0:0:0:
241,162,74502,1,10,0:0:0:0:
243,64,74709,1,0,1:0:0:0:
58,64,74916,1,10,0:0:0:0:
154,64,75122,1,2,1:2:0:0:
105,64,75226,1,0,1:0:0:0:
58,64,75329,1,10,0:0:0:0:
330,64,75536,6,0,L|450:65,1,97,6|8,1:2|0:0,0:0:0:0:
377,64,75847,2,0,L|270:65,1,97,2|0,1:2|1:0,0:0:0:0:
377,64,76157,2,0,L|474:64,1,97,10|0,0:0|1:0,0:0:0:0:
289,64,76571,1,10,0:0:0:0:
263,104,76674,1,0,1:0:0:0:
293,142,76778,1,2,1:2:0:0:
390,142,76985,1,10,0:0:0:0:
119,142,77191,6,0,L|118:249,1,97,6|8,1:2|0:0,0:0:0:0:
167,238,77502,2,0,L|268:238,1,97,2|0,1:2|1:0,0:0:0:0:
146,238,77812,2,0,L|32:238,1,97,10|0,0:0|1:0,0:0:0:0:
234,238,78226,1,10,0:0:0:0:
261,198,78329,1,0,1:0:0:0:
233,157,78433,1,2,1:2:0:0:
135,157,78640,1,10,0:0:0:0:
407,157,78847,6,0,L|409:255,1,97,6|8,1:2|0:0,0:0:0:0:
355,253,79157,2,0,L|354:352,1,97,2|0,1:2|1:0,0:0:0:0:
408,349,79467,1,10,0:0:0:0:
135,349,79674,2,0,L|25:348,1,97,6|8,1:2|0:0,0:0:0:0:
87,348,79985,2,0,L|197:349,1,97,10|8,0:0|1:3,0:0:0:0:
135,348,80295,1,10,1:3:0:0:
408,349,80502,6,0,P|452:311|403:257,1,145.5,6|10,1:2|0:0,0:0:0:0:
354,257,80916,2,0,L|246:255,1,97,0|10,1:0|0:0,0:0:0:0:
72,255,81329,1,0,1:0:0:0:
169,255,81536,1,10,0:0:0:0:
72,255,81743,1,8,1:3:0:0:
71,206,81847,1,8,0:3:0:0:
70,157,81950,1,8,0:3:0:0:
343,157,82157,6,0,L|197:158,1,145.5,14|10,0:0|0:0,0:0:0:0:
246,157,82571,2,0,L|381:156,1,97,0|10,1:0|0:0,0:0:0:0:
157,156,82985,1,8,1:2:0:0:
108,159,83088,1,8,0:3:0:0:
68,187,83191,1,8,0:3:0:0:
53,233,83295,1,8,0:3:0:0:
69,278,83398,1,8,1:3:0:0:
166,278,83605,1,0,1:0:0:0:
439,278,83812,6,0,L|440:182,1,97,6|0,1:2|1:0,0:0:0:0:
322,181,84122,2,0,L|200:179,1,97,6|0,1:2|1:0,0:0:0:0:
274,179,84433,1,6,1:2:0:0:
458,179,84640,2,0,L|304:180,2,145.5,10|10|10,1:3|1:3|1:3,0:0:0:0:
186,179,85467,5,6,1:2:0:0:
256,192,85674,12,0,88985,0:0:0:0:
