osu file format v14

[General]
AudioFilename: audio.mp3
AudioLeadIn: 0
PreviewTime: 6743
Countdown: 0
SampleSet: Soft
StackLeniency: 0.7
Mode: 2
LetterboxInBreaks: 0
WidescreenStoryboard: 1

[Editor]
DistanceSpacing: 1.9
BeatDivisor: 4
GridSize: 4
TimelineZoom: 1.7

[Metadata]
Title:Raise your flag (TV Size)
TitleUnicode:Raise your flag (TV Size)
Artist:MAN WITH A MISSION
ArtistUnicode:MAN WITH A MISSION
Creator:4rcheR-
Version:Rain
Source:機動戦士ガンダム 鉄血のオルフェンズ
Tags:archer rew0825 anime japanese male vocals vocal MWAM Mobile Suit Gundam: Iron-Blooded Orphans Kidou Senshi Gandamu Tekketsu no Orufenzu opening op 1 op1 jrock j-rock rock Kamikaze Boy Jean-Ken Johnny g-tekketsu
BeatmapID:3604245
BeatmapSetID:1760358

[Difficulty]
HPDrainRate:5
CircleSize:3.5
OverallDifficulty:9
ApproachRate:9
SliderMultiplier:2.2
SliderTickRate:2

[Events]
//Background and Video events
0,0,"bg.jpg",0,0
Video,840,"Raise your flag.mp4"
//Break Periods
//Storyboard Layer 0 (Background)
//Storyboard Layer 1 (Fail)
//Storyboard Layer 2 (Pass)
//Storyboard Layer 3 (Foreground)
//Storyboard Layer 4 (Overlay)
//Storyboard Sound Samples

[TimingPoints]
1054,413.793103448276,4,2,22,50,1,0
4364,-100,4,2,22,55,0,0
6847,-100,4,2,22,60,0,0
7157,-100,4,2,22,5,0,0
7260,-100,4,2,22,60,0,0
7674,-100,4,2,22,70,0,1
7778,-100,4,2,22,70,0,0
14295,-100,4,2,22,80,0,1
24226,-100,4,2,22,60,0,0
37466,-100,4,2,22,70,0,0
50707,-100,4,2,22,75,0,0
53501,-100,4,2,22,5,0,0
53604,-100,4,2,22,75,0,0
54019,-100,4,2,22,80,0,1
84639,-100,4,2,22,85,0,1
85467,-100,4,2,22,80,0,0
86501,-100,4,2,22,70,0,0
87328,-100,4,2,22,60,0,0
88156,-100,4,2,22,50,0,0
88983,-100,4,2,22,40,0,0

[Colours]
Combo1 : 0,168,84
Combo2 : 0,217,0
Combo3 : 157,79,79
Combo4 : 177,177,177

[HitObjects]
252,312,1054,5,6,1:3:0:0:
304,280,1157,1,0,0:0:0:0:
252,252,1260,1,0,0:0:0:0:
372,252,1467,1,2,0:0:0:0:
424,216,1571,1,0,0:0:0:0:
372,188,1674,1,0,0:0:0:0:
196,188,1881,1,2,0:0:0:0:
136,188,1985,1,0,0:0:0:0:
196,188,2088,1,2,0:0:0:0:
256,188,2191,1,2,0:0:0:0:
360,188,2295,2,0,L|448:188,1,55,2|2,0:0|0:0,0:0:0:0:
415,188,2502,2,0,L|352:188,1,55,2|2,0:0|0:0,0:0:0:0:
256,312,2709,5,2,1:2:0:0:
204,280,2812,1,0,0:0:0:0:
256,252,2916,1,0,0:0:0:0:
136,252,3122,1,2,0:0:0:0:
84,216,3226,1,0,0:0:0:0:
136,188,3329,1,0,0:0:0:0:
312,188,3536,1,2,0:0:0:0:
372,188,3640,1,0,0:0:0:0:
312,188,3743,1,2,0:0:0:0:
252,188,3847,1,2,0:0:0:0:
148,188,3950,2,0,L|60:188,1,55,2|2,0:0|0:0,0:0:0:0:
93,188,4157,2,0,L|156:188,1,55,2|2,0:0|0:0,0:0:0:0:
336,188,4364,5,2,1:2:0:0:
384,152,4467,1,0,0:0:0:0:
332,120,4571,1,0,0:0:0:0:
212,124,4778,1,2,0:0:0:0:
164,160,4881,1,0,0:0:0:0:
212,196,4985,1,0,0:0:0:0:
388,192,5191,1,2,0:0:0:0:
448,192,5295,1,0,0:0:0:0:
388,192,5398,1,2,0:0:0:0:
328,192,5502,1,2,0:0:0:0:
224,188,5605,2,0,L|140:188,1,55,2|2,0:0|0:0,0:0:0:0:
164,188,5812,2,0,L|240:188,1,55,2|2,0:0|0:0,0:0:0:0:
324,188,6019,5,2,1:2:0:0:
380,164,6122,1,0,0:0:0:0:
324,140,6226,1,0,0:0:0:0:
204,136,6433,1,2,0:0:0:0:
148,112,6536,1,0,0:0:0:0:
204,88,6640,1,0,0:0:0:0:
380,136,6847,2,0,P|432:84|360:36,1,165,2|0,0:0|0:0,0:0:0:0:
276,40,7260,2,0,L|104:40,1,165,2|0,0:0|0:0,0:0:0:0:
316,120,7674,6,0,L|504:120,2,165,6|2|2,1:2|0:0|0:0,0:0:0:0:
72,124,8709,1,2,0:0:0:0:
192,124,8916,1,2,0:0:0:0:
312,128,9122,1,2,0:0:0:0:
28,128,9329,6,0,L|236:128,2,165,6|2|2,1:2|0:0|0:0,0:0:0:0:
272,132,10364,1,2,0:0:0:0:
152,132,10571,1,2,0:0:0:0:
32,132,10778,1,2,0:0:0:0:
316,124,10985,6,0,L|496:124,2,165,6|2|2,1:2|0:0|0:0,0:0:0:0:
76,132,12019,2,0,L|196:132,2,110,2|2|2,0:0|0:0|0:0,0:0:0:0:
364,128,12640,5,2,1:2:0:0:
168,104,12950,1,2,1:2:0:0:
364,76,13260,1,2,1:2:0:0:
188,76,13467,2,0,P|164:128|208:176,1,110,2|0,0:0|0:0,0:0:0:0:
252,172,13778,1,2,0:0:0:0:
432,172,13881,2,0,L|492:172,1,55,8|8,0:0|0:0,0:0:0:0:
428,172,14088,2,0,L|336:172,1,55,10|8,0:0|0:0,0:0:0:0:
156,172,14295,6,0,P|128:132|176:80,1,110,6|8,1:2|0:0,0:0:0:0:
260,76,14605,2,0,L|388:76,1,110,0|0,1:0|1:0,0:0:0:0:
264,84,14916,2,0,L|140:84,1,110,8|0,0:0|1:0,0:0:0:0:
432,84,15329,1,10,0:0:0:0:
488,116,15433,1,0,1:0:0:0:
492,180,15536,1,0,1:0:0:0:
436,216,15640,1,0,1:0:0:0:
248,216,15743,2,0,L|144:216,1,55,10|0,0:0|0:0,0:0:0:0:
404,204,15950,6,0,P|416:256|392:320,1,110,6|8,1:2|0:0,0:0:0:0:
296,316,16260,2,0,P|236:312|172:256,1,110,2|0,1:2|1:0,0:0:0:0:
300,252,16571,2,0,P|360:244|384:176,1,110,10|0,0:0|1:0,0:0:0:0:
108,188,16985,2,0,L|44:188,1,55,10|0,0:0|1:0,0:0:0:0:
112,188,17191,2,0,L|184:188,1,55,2|0,1:2|1:0,0:0:0:0:
404,188,17398,2,0,L|404:128,1,55,10|0,0:0|0:0,0:0:0:0:
192,188,17605,6,0,L|76:188,1,110,6|8,1:2|0:0,0:0:0:0:
188,184,17916,2,0,P|224:160|172:104,1,110,2|0,1:2|1:0,0:0:0:0:
100,96,18226,2,0,P|36:84|16:40,1,110,10|0,0:0|1:0,0:0:0:0:
292,212,18640,2,0,L|292:132,1,55,10|0,0:0|1:0,0:0:0:0:
224,156,18847,2,0,L|160:156,1,55,2|0,1:2|1:0,0:0:0:0:
356,156,19054,2,0,L|420:156,1,55,10|0,0:0|0:0,0:0:0:0:
200,176,19260,6,0,L|68:176,1,110,6|8,1:2|0:0,0:0:0:0:
196,176,19571,2,0,P|220:124|188:72,1,110,2|0,1:2|1:0,0:0:0:0:
92,80,19881,1,10,0:0:0:0:
400,160,20088,2,0,P|432:200|388:252,1,110,6|8,1:2|0:0,0:0:0:0:
212,248,20398,1,10,0:0:0:0:
144,252,20502,2,0,L|144:184,1,55,8|8,1:3|1:3,0:0:0:0:
248,200,20709,2,0,L|304:200,1,55,10|8,1:3|1:3,0:0:0:0:
92,196,20916,6,0,P|64:156|104:104,1,110,6|0,1:2|0:0,0:0:0:0:
280,108,21226,2,0,L|404:108,1,110,10|0,0:0|0:0,0:0:0:0:
200,116,21536,2,0,L|76:116,1,110,10|0,0:0|1:0,0:0:0:0:
276,112,21950,1,10,0:0:0:0:
408,112,22157,2,0,L|484:112,1,55,8|8,1:3|0:3,0:0:0:0:
464,52,22364,2,0,L|396:52,1,55,8|0,0:3|0:0,0:0:0:0:
204,52,22571,6,0,L|92:52,1,110,14|0,0:0|0:0,0:0:0:0:
284,60,22881,2,0,P|312:104|268:152,1,110,10|0,0:0|0:0,0:0:0:0:
96,60,23191,2,0,P|68:112|116:176,1,110,10|8,0:0|1:2,0:0:0:0:
152,160,23502,1,8,0:3:0:0:
216,160,23605,1,8,0:3:0:0:
152,160,23709,1,8,0:3:0:0:
340,152,23812,2,0,L|468:152,1,110,8|0,1:3|1:0,0:0:0:0:
384,152,24122,1,0,1:0:0:0:
180,160,24226,5,6,1:2:0:0:
60,168,24433,2,0,L|60:48,1,110,10|0,3:2|1:0,0:0:0:0:
184,68,24847,1,10,3:2:0:0:
360,72,25054,2,0,L|360:204,1,110,0|10,1:0|3:2,0:0:0:0:
240,184,25467,2,0,L|108:184,1,110,0|10,1:0|3:2,0:0:0:0:
304,156,25881,6,0,P|328:216|280:256,1,110,2|8,1:2|3:2,0:0:0:0:
244,256,26191,2,0,L|128:256,1,110,2|0,0:0|0:0,0:0:0:0:
240,256,26502,2,0,L|368:256,1,110,10|0,3:2|1:0,0:0:0:0:
288,256,26812,1,0,1:0:0:0:
184,260,26916,2,0,L|72:260,2,110,10|2|10,3:2|1:2|3:2,0:0:0:0:
484,316,27536,5,6,1:2:0:0:
364,316,27743,2,0,L|364:188,1,110,10|0,3:2|1:0,0:0:0:0:
484,200,28157,1,10,3:2:0:0:
308,204,28364,2,0,L|184:204,1,110,0|10,1:0|3:2,0:0:0:0:
320,208,28778,2,0,L|456:208,1,110,0|10,1:0|3:2,0:0:0:0:
252,216,29191,6,0,P|224:164|276:120,1,110,2|8,1:2|3:2,0:0:0:0:
312,124,29502,2,0,L|444:124,1,110,2|0,0:0|0:0,0:0:0:0:
316,120,29812,2,0,L|204:120,1,110,10|0,3:2|1:0,0:0:0:0:
144,120,30122,1,0,1:0:0:0:
316,120,30226,2,0,P|348:172|316:208,1,110,8|8,3:2|0:0,0:0:0:0:
264,208,30536,1,8,0:0:0:0:
84,204,30640,2,0,L|84:128,1,55,8|8,0:0|0:0,0:0:0:0:
288,152,30847,5,6,1:2:0:0:
408,156,31054,2,0,L|408:36,1,110,10|0,0:0|1:0,0:0:0:0:
288,44,31467,1,10,0:0:0:0:
112,52,31674,2,0,L|112:176,1,110,2|10,1:2|0:0,0:0:0:0:
232,168,32088,2,0,L|104:168,1,110,2|10,1:2|0:0,0:0:0:0:
300,216,32502,6,0,P|328:276|284:328,1,110,2|8,1:2|0:0,0:0:0:0:
252,316,32812,2,0,L|136:316,1,110,2|0,0:0|0:0,0:0:0:0:
248,316,33122,2,0,L|380:316,1,110,10|0,0:0|1:0,0:0:0:0:
296,316,33433,1,0,1:0:0:0:
192,320,33536,2,0,L|80:320,2,110,10|10|10,0:0|0:0|0:0,0:0:0:0:
252,320,34054,1,8,1:2:0:0:
456,316,34157,5,6,1:2:0:0:
348,316,34364,2,0,L|348:180,1,110,10|0,0:0|1:0,0:0:0:0:
456,196,34778,1,10,0:0:0:0:
280,200,34985,2,0,L|164:200,1,110,2|10,1:2|0:0,0:0:0:0:
292,200,35398,2,0,L|408:200,1,110,2|10,1:2|0:0,0:0:0:0:
104,212,35812,6,0,P|88:148|112:108,1,110,6|0,1:2|1:0,0:0:0:0:
312,108,36122,2,0,P|336:172|304:208,1,110,14|0,0:0|1:0,0:0:0:0:
208,108,36433,2,0,L|80:104,2,110,10|8|8,0:3|1:3|1:3,0:0:0:0:
384,108,37054,2,0,L|384:48,1,55,8|8,0:0|0:0,0:0:0:0:
208,108,37260,2,0,L|124:108,1,55,8|8,0:0|0:0,0:0:0:0:
360,328,37467,5,6,1:2:0:0:
480,320,37674,2,0,L|480:208,1,110,10|2,0:0|1:2,0:0:0:0:
420,216,37985,1,0,1:0:0:0:
360,216,38088,1,10,0:0:0:0:
184,220,38295,2,0,P|160:168|200:116,1,110,2|8,1:2|0:0,0:0:0:0:
304,124,38709,2,0,L|372:124,1,55,0|0,0:0|1:0,0:0:0:0:
184,124,38916,2,0,L|184:56,1,55,8|0,0:0|0:0,0:0:0:0:
372,120,39122,6,0,L|484:120,2,110,2|10|2,1:2|0:0|1:2,0:0:0:0:
312,120,39640,1,0,1:0:0:0:
372,120,39743,1,10,0:0:0:0:
196,124,39950,2,0,L|64:124,2,110,2|10|2,1:2|0:0|1:2,0:0:0:0:
256,124,40467,1,0,1:0:0:0:
432,124,40571,2,0,L|432:48,1,55,8|0,0:0|0:0,0:0:0:0:
228,68,40778,5,6,1:2:0:0:
108,72,40985,2,0,L|100:216,1,110,10|2,0:0|1:2,0:0:0:0:
164,192,41295,1,0,1:0:0:0:
224,192,41398,1,10,0:0:0:0:
400,192,41605,2,0,L|284:192,2,110,2|10|0,1:2|0:2|0:0,0:0:0:0:
400,196,42122,1,0,1:0:0:0:
219,192,42226,2,0,L|143:192,1,55,8|0,0:0|0:0,0:0:0:0:
352,192,42433,6,0,L|452:136,1,110,2|8,1:2|0:0,0:0:0:0:
272,192,42847,1,2,1:2:0:0:
212,192,42950,1,0,1:0:0:0:
152,192,43054,1,8,0:0:0:0:
428,184,43260,2,0,L|484:184,1,55,2|0,1:2|0:0,0:0:0:0:
424,184,43467,2,0,L|352:184,1,55,10|0,1:2|0:0,0:0:0:0:
192,188,43674,2,0,L|192:104,1,55,2|0,1:2|1:0,0:0:0:0:
368,136,43881,2,0,L|452:132,1,55,10|8,1:2|0:0,0:0:0:0:
220,132,44088,5,6,1:2:0:0:
100,132,44295,2,0,L|100:272,1,110,10|2,0:0|1:2,0:0:0:0:
160,244,44605,1,0,1:0:0:0:
220,244,44709,1,10,0:0:0:0:
396,244,44916,1,2,1:2:0:0:
120,244,45122,2,0,L|120:128,1,110,14|0,0:0|0:0,0:0:0:0:
180,128,45433,1,0,1:0:0:0:
356,124,45536,2,0,L|432:124,1,55,8|0,0:0|0:0,0:0:0:0:
208,120,45743,5,6,1:2:0:0:
88,120,45950,2,0,L|84:256,1,110,10|2,0:0|1:2,0:0:0:0:
144,228,46260,1,0,1:0:0:0:
204,232,46364,1,10,0:0:0:0:
380,224,46571,2,0,L|244:224,2,110,2|10|2,1:2|0:0|1:2,0:0:0:0:
320,224,47088,1,0,1:0:0:0:
144,224,47191,2,0,L|144:156,1,55,8|0,0:0|0:0,0:0:0:0:
348,224,47398,5,6,1:2:0:0:
468,228,47605,2,0,L|468:96,1,110,10|0,0:0|1:0,0:0:0:0:
408,120,47916,1,0,1:0:0:0:
348,120,48019,1,10,0:0:0:0:
172,120,48226,2,0,L|300:120,1,110,2|10,1:2|0:0,0:0:0:0:
348,120,48536,2,0,P|380:68|320:32,1,110,0|0,1:0|1:0,0:0:0:0:
176,36,48847,2,0,L|112:36,1,55,8|0,0:0|0:0,0:0:0:0:
324,40,49054,6,0,P|352:88|338:137,1,110,6|10,1:2|0:0,0:0:0:0:
132,140,49364,2,0,P|104:208|148:248,1,110,4|8,1:2|0:0,0:0:0:0:
296,240,49674,1,2,1:2:0:0:
448,212,49881,1,2,1:2:0:0:
296,240,50088,1,2,1:2:0:0:
176,240,50295,2,0,L|96:240,1,55,10|8,0:0|0:0,0:0:0:0:
300,156,50502,2,0,L|368:156,1,55,10|8,0:0|0:0,0:0:0:0:
152,148,50709,6,0,P|124:112|168:48,1,110,6|8,1:2|0:0,0:0:0:0:
324,60,51019,2,0,L|452:56,1,110,2|8,0:0|0:0,0:0:0:0:
260,32,51329,1,2,0:0:0:0:
84,164,51536,2,0,P|64:124|100:60,1,110,10|10,0:0|0:0,0:0:0:0:
268,68,51847,2,0,P|296:128|248:160,1,110,0|0,1:0|1:0,0:0:0:0:
96,168,52157,2,0,L|96:232,1,55,10|0,0:0|0:0,0:0:0:0:
300,180,52364,5,10,0:0:0:0:
492,128,52674,1,10,0:0:0:0:
300,180,52985,1,10,0:0:0:0:
180,184,53191,2,0,P|136:132|180:56,1,165,2|0,0:0|0:0,0:0:0:0:
240,56,53605,2,0,L|104:24,1,110,2|0,0:0|0:0,0:0:0:0:
444,76,54019,6,0,P|476:120|449:165,1,110,6|8,1:2|0:0,0:0:0:0:
348,172,54329,2,0,P|276:188|252:244,1,110,2|0,1:2|1:0,0:0:0:0:
364,220,54640,2,0,L|500:220,1,110,10|0,0:0|1:0,0:0:0:0:
196,224,55054,2,0,L|132:224,1,55,10|0,0:0|1:0,0:0:0:0:
208,224,55260,2,0,L|276:224,1,55,2|0,1:2|1:0,0:0:0:0:
452,224,55467,2,0,L|452:144,1,55,10|0,0:0|0:0,0:0:0:0:
240,168,55674,6,0,L|116:168,1,110,6|8,1:2|0:0,0:0:0:0:
236,168,55985,2,0,P|260:128|216:68,1,110,2|0,1:2|1:0,0:0:0:0:
128,76,56295,2,0,P|96:128|148:176,1,110,10|0,0:0|1:0,0:0:0:0:
388,152,56709,2,0,L|388:96,1,55,10|0,0:0|1:0,0:0:0:0:
324,100,56916,2,0,L|236:100,1,55,2|0,1:2|1:0,0:0:0:0:
464,100,57122,2,0,L|464:36,1,55,10|0,0:0|0:0,0:0:0:0:
256,64,57329,6,0,L|112:64,1,110,6|8,1:2|0:0,0:0:0:0:
252,64,57640,2,0,P|272:128|244:176,1,110,2|0,1:2|1:0,0:0:0:0:
148,168,57950,2,0,L|40:148,1,110,10|0,0:0|1:0,0:0:0:0:
316,168,58364,2,0,L|380:168,1,55,10|0,0:0|1:0,0:0:0:0:
304,164,58571,2,0,L|221:161,1,55,2|0,1:2|1:0,0:0:0:0:
444,152,58778,2,0,L|444:88,1,55,10|0,0:0|0:0,0:0:0:0:
232,100,58985,6,0,P|216:140|240:204,1,110,6|8,1:2|0:0,0:0:0:0:
344,208,59295,2,0,L|460:260,1,110,2|0,1:2|1:0,0:0:0:0:
340,264,59605,1,10,0:0:0:0:
208,60,59812,1,2,1:2:0:0:
144,60,59916,1,8,0:3:0:0:
208,60,60019,1,8,0:3:0:0:
272,60,60122,1,10,0:3:0:0:
80,56,60226,2,0,L|80:124,1,55,8|8,0:0|0:0,0:0:0:0:
272,112,60433,2,0,L|360:112,1,55,10|8,0:0|0:0,0:0:0:0:
120,112,60640,6,0,P|92:168|144:220,1,110,6|8,1:2|0:0,0:0:0:0:
216,212,60950,2,0,P|284:240|308:308,1,110,2|0,1:2|1:0,0:0:0:0:
196,276,61260,2,0,P|124:264|96:216,1,110,10|0,0:0|1:0,0:0:0:0:
380,212,61674,1,10,0:0:0:0:
440,188,61778,1,0,1:0:0:0:
440,120,61881,1,0,1:2:0:0:
376,100,61985,1,0,1:0:0:0:
188,96,62088,2,0,L|120:96,1,55,10|0,0:0|0:0,0:0:0:0:
344,104,62295,6,0,L|460:104,1,110,6|8,1:2|0:0,0:0:0:0:
348,104,62605,2,0,P|280:92|260:20,1,110,2|0,1:2|1:0,0:0:0:0:
364,56,62916,2,0,P|428:52|456:8,1,110,10|0,0:0|1:0,0:0:0:0:
176,32,63329,2,0,L|100:32,1,55,10|0,0:0|1:0,0:0:0:0:
188,32,63536,2,0,L|256:32,1,55,2|0,1:2|1:0,0:0:0:0:
436,36,63743,2,0,L|440:104,1,55,10|0,0:0|0:0,0:0:0:0:
228,96,63950,6,0,P|200:144|260:192,1,110,6|8,1:2|0:0,0:0:0:0:
332,180,64260,2,0,P|360:244|324:288,1,110,2|0,1:2|1:0,0:0:0:0:
240,272,64571,2,0,L|120:272,1,110,10|0,0:0|1:0,0:0:0:0:
408,280,64985,2,0,L|472:280,1,55,10|0,0:0|1:0,0:0:0:0:
396,280,65191,2,0,L|328:280,1,55,2|0,1:2|1:0,0:0:0:0:
152,284,65398,2,0,L|76:284,1,55,10|0,0:0|0:0,0:0:0:0:
308,272,65605,6,0,L|432:272,1,110,6|8,1:2|0:0,0:0:0:0:
312,264,65916,2,0,P|288:224|312:160,1,110,2|0,1:2|1:0,0:0:0:0:
412,168,66226,1,10,0:0:0:0:
104,176,66433,2,0,P|72:128|108:88,1,110,6|8,1:2|0:0,0:0:0:0:
164,84,66743,1,10,0:0:0:0:
268,88,66847,2,0,L|268:168,1,55,10|8,1:3|1:3,0:0:0:0:
164,164,67054,2,0,L|96:164,1,55,10|8,1:3|1:3,0:0:0:0:
320,160,67260,6,0,P|348:104|300:60,1,110,6|0,1:2|0:0,0:0:0:0:
220,64,67571,2,0,P|196:120|240:168,1,110,10|0,0:0|0:0,0:0:0:0:
328,160,67881,1,10,0:0:0:0:
24,188,68088,2,0,P|8:132|32:88,1,110,6|2,1:2|0:0,0:0:0:0:
136,84,68398,1,8,0:0:0:0:
204,84,68502,1,2,1:2:0:0:
20,48,68709,1,10,0:0:0:0:
328,36,68916,6,0,P|356:88|320:128,1,110,6|0,1:2|0:0,0:0:0:0:
224,132,69226,2,0,L|108:168,1,110,10|0,0:0|0:0,0:0:0:0:
224,168,69536,1,10,0:0:0:0:
412,180,69743,2,0,P|440:232|400:272,1,110,2|2,1:2|0:0,0:0:0:0:
308,272,70054,1,8,0:0:0:0:
244,272,70157,1,2,1:2:0:0:
432,264,70364,1,10,0:0:0:0:
92,276,70571,6,0,P|72:228|112:176,1,110,6|0,1:2|0:0,0:0:0:0:
204,172,70881,2,0,L|328:144,1,110,10|0,0:0|0:0,0:0:0:0:
208,148,71191,1,10,0:0:0:0:
20,192,71398,2,0,P|8:144|40:84,1,110,2|2,1:2|0:0,0:0:0:0:
140,88,71709,1,8,0:0:0:0:
204,88,71812,1,2,1:2:0:0:
16,88,72019,1,10,0:0:0:0:
324,88,72226,6,0,L|452:88,1,110,6|0,1:2|0:0,0:0:0:0:
328,172,72536,2,0,P|296:120|344:88,1,110,10|0,0:0|0:0,0:0:0:0:
428,92,72847,1,10,0:0:0:0:
152,88,73054,2,0,L|80:88,2,55,10|8|8,1:2|1:3|1:3,0:0:0:0:
428,80,73467,2,0,L|428:152,1,55,8|8,0:0|0:0,0:0:0:0:
240,124,73674,2,0,L|152:124,1,55,8|8,0:0|0:0,0:0:0:0:
396,128,73881,6,0,P|428:172|392:220,1,110,6|8,1:2|0:0,0:0:0:0:
300,216,74191,2,0,P|240:208|204:136,1,110,2|0,1:2|1:0,0:0:0:0:
316,168,74502,2,0,P|372:164|408:108,1,110,10|0,0:0|1:0,0:0:0:0:
128,128,74916,2,0,L|64:128,1,55,10|0,0:0|1:0,0:0:0:0:
140,128,75122,2,0,L|212:128,1,55,2|0,1:2|1:0,0:0:0:0:
384,132,75329,2,0,L|384:52,1,55,10|0,0:0|0:0,0:0:0:0:
172,88,75536,6,0,L|52:128,1,110,6|8,1:2|0:0,0:0:0:0:
172,144,75847,2,0,P|208:188|164:224,1,110,2|0,1:2|1:0,0:0:0:0:
72,228,76157,2,0,P|44:280|80:324,1,110,10|0,0:0|1:0,0:0:0:0:
344,316,76571,2,0,L|400:316,1,55,10|0,0:0|1:0,0:0:0:0:
332,320,76778,2,0,L|252:320,1,55,2|0,1:2|1:0,0:0:0:0:
88,308,76985,2,0,L|32:308,1,55,10|0,0:0|0:0,0:0:0:0:
244,252,77191,6,0,P|272:196|232:152,1,110,6|8,1:2|0:0,0:0:0:0:
144,152,77502,2,0,P|120:104|148:52,1,110,2|0,1:2|1:0,0:0:0:0:
248,56,77812,2,0,L|372:24,1,110,10|0,0:0|1:0,0:0:0:0:
80,48,78226,2,0,L|24:48,1,55,10|0,0:0|1:0,0:0:0:0:
92,44,78433,2,0,L|180:44,1,55,2|0,1:2|1:0,0:0:0:0:
332,40,78640,2,0,L|388:40,1,55,10|0,0:0|0:0,0:0:0:0:
176,32,78847,6,0,P|152:84|192:144,1,110,6|8,1:2|0:0,0:0:0:0:
368,136,79157,2,0,L|492:140,1,110,2|0,1:2|1:0,0:0:0:0:
368,248,79467,1,10,0:0:0:0:
60,272,79674,2,0,P|32:228|72:176,1,110,6|8,1:2|0:0,0:0:0:0:
252,188,79985,2,0,P|280:144|208:88,1,110,10|8,0:0|1:3,0:0:0:0:
152,100,80295,1,10,1:3:0:0:
464,96,80502,6,0,P|484:156|440:216,1,110,6|0,1:2|0:0,0:0:0:0:
256,208,80812,2,0,P|192:224|152:292,1,110,10|0,0:0|0:0,0:0:0:0:
372,276,81122,2,0,L|488:244,1,110,10|0,0:0|1:0,0:0:0:0:
300,256,81536,1,10,0:0:0:0:
163,255,81743,2,0,L|88:256,1,55,8|8,1:3|0:3,0:0:0:0:
104,188,81950,2,0,L|164:188,1,55,8|0,0:3|0:0,0:0:0:0:
368,188,82157,6,0,P|392:140|360:76,1,110,14|0,0:0|0:0,0:0:0:0:
188,92,82467,2,0,L|76:44,1,110,10|0,0:0|0:0,0:0:0:0:
276,36,82778,1,10,0:0:0:0:
408,36,82985,1,8,1:2:0:0:
476,36,83088,1,8,0:3:0:0:
408,36,83191,1,8,0:3:0:0:
340,36,83295,1,8,0:3:0:0:
148,36,83398,2,0,P|120:96|176:144,1,110,8|0,1:3|1:0,0:0:0:0:
204,132,83709,1,0,1:0:0:0:
412,144,83812,6,0,P|440:196|396:248,1,110,6|0,1:2|1:0,0:0:0:0:
208,244,84122,2,0,L|72:244,1,110,6|0,1:2|1:0,0:0:0:0:
312,248,84433,1,6,1:2:0:0:
488,252,84640,2,0,L|488:120,1,110,10|0,1:3|1:0,0:0:0:0:
384,132,84950,2,0,L|252:132,1,110,10|0,1:3|1:0,0:0:0:0:
380,132,85260,1,10,1:3:0:0:
72,144,85467,5,6,1:2:0:0:
256,192,85674,12,0,88985,0:0:0:0:
