osu file format v14

[General]
AudioFilename: audio.mp3
AudioLeadIn: 0
PreviewTime: 140028
Countdown: 0
SampleSet: Soft
StackLeniency: 0.5
Mode: 0
LetterboxInBreaks: 0
WidescreenStoryboard: 0

[Editor]
DistanceSpacing: 1
BeatDivisor: 4
GridSize: 16
TimelineZoom: 1.8

[Metadata]
Title:Raise Your Flag
TitleUnicode:Raise Your Flag
Artist:MAN WITH A MISSION
ArtistUnicode:MAN WITH A MISSION
Creator:Hantrik
Version:NELLIEL'S NORMAL
Source:機動戦士ガンダム 鉄血のオルフェンズ
Tags:japanese male vocals nelliel nekroman4ik akitoshi rock j-rock Mobile Suit Gundam IRON-BLOODED ORPHANS opening op anime Dead End in Tokyo corinn -laura- The World's On Fire
BeatmapID:2116391
BeatmapSetID:1005889

[Difficulty]
HPDrainRate:3
CircleSize:3.5
OverallDifficulty:4
ApproachRate:5
SliderMultiplier:1.19999990463257
SliderTickRate:1

[Events]
//Background and Video events
0,0,"BG.jpg",0,0
//Break Periods
2,86992,98165
//Storyboard Layer 0 (Background)
//Storyboard Layer 1 (Fail)
//Storyboard Layer 2 (Pass)
//Storyboard Layer 3 (Foreground)
//Storyboard Layer 4 (Overlay)
//Storyboard Sound Samples

[TimingPoints]
270,413.793103448276,4,2,5,40,1,0
26752,-100,4,2,5,40,0,0
39994,-100,4,2,5,50,0,0
53235,-100,4,2,5,75,0,0
56545,-100,4,2,5,85,0,1
69787,-100,4,2,5,85,0,1
76407,-100,4,2,5,85,0,1
83028,-100,4,2,5,90,0,1
86338,-100,4,2,5,80,0,0
99580,-100,4,2,5,45,0,0
112821,-100,4,2,5,50,0,0
126063,-100,4,2,5,55,0,0
137649,-100,4,2,5,70,0,0
139304,-100,4,2,5,80,0,0
140959,-100,4,2,5,75,0,0
145925,-100,4,2,5,85,0,0
147166,-100,4,2,5,85,0,0
147580,-100,4,2,5,85,0,1
167442,-100,4,2,5,90,0,1
170752,-100,4,2,5,95,0,1
172407,-100,4,2,5,100,0,0
172821,-100,4,2,5,70,0,0
179028,-100,4,2,5,50,0,0
180683,-100,4,2,5,30,0,0
182338,-100,4,2,5,10,0,0
183994,-100,4,2,5,5,0,0

[Colours]
Combo1 : 199,201,205
Combo2 : 228,92,96
Combo3 : 242,157,159
Combo4 : 147,148,149

[HitObjects]
60,47,26752,38,0,P|102:49|123:56,1,59.9999952316285,4|10,1:2|0:0,0:0:0:0:
216,124,27373,1,10,0:0:0:0:
216,124,27580,2,0,P|204:162|201:182,1,59.9999952316285,2|10,3:2|0:0,0:0:0:0:
212,241,27994,1,2,3:2:0:0:
227,359,28407,2,0,P|271:347|350:342,1,119.999990463257,2|0,3:2|0:0,0:0:0:0:
401,357,29028,2,0,P|425:363|469:366,1,59.9999952316285,10|0,0:0|1:0,0:0:0:0:
490,313,29442,1,10,0:0:0:0:
490,313,29649,2,0,P|479:268|476:250,1,59.9999952316285,2|10,3:2|0:0,0:0:0:0:
441,205,30063,6,0,P|452:159|454:142,1,59.9999952316285,4|10,1:2|0:0,0:0:0:0:
382,49,30683,1,10,0:0:0:0:
382,49,30890,2,0,L|313:54,1,59.9999952316285,2|10,3:2|0:0,0:0:0:0:
279,95,31304,1,2,3:2:0:0:
161,120,31718,2,0,L|38:128,1,119.999990463257,2|0,3:2|3:2,0:0:0:0:
11,177,32338,2,0,P|25:203|30:238,1,59.9999952316285,10|2,0:0|1:2,0:0:0:0:
11,290,32752,1,8,0:0:0:0:
176,361,33373,38,0,L|306:368,1,119.999990463257,4|0,0:0|0:0,0:0:0:0:
343,330,33994,1,10,0:0:0:0:
343,330,34201,2,0,L|406:326,1,59.9999952316285,2|10,3:2|0:0,0:0:0:0:
454,296,34614,1,2,3:2:0:0:
415,184,35028,2,0,P|398:128|391:59,1,119.999990463257,2|2,3:2|3:2,0:0:0:0:
409,9,35649,2,0,P|352:22|289:50,1,119.999990463257,10|10,0:0|0:0,0:0:0:0:
267,100,36270,1,10,0:0:0:0:
164,37,36683,6,0,L|21:49,1,119.999990463257,4|2,1:2|0:0,0:0:0:0:
11,97,37304,1,10,0:0:0:0:
11,97,37511,2,0,L|4:163,1,59.9999952316285,2|10,3:2|0:0,0:0:0:0:
31,210,37925,1,2,3:2:0:0:
90,313,38338,2,0,P|139:293|180:291,2,89.9999928474428,6|6|6,1:2|1:2|1:2,0:0:0:0:
31,298,39166,2,0,L|26:239,1,59.9999952316285,8|8,3:0|3:0,0:0:0:0:
196,178,39994,37,4,1:2:0:0:
196,178,40201,2,0,P|207:117|224:59,1,119.999990463257,10|10,0:0|0:0,0:0:0:0:
283,60,40821,2,0,P|308:74|337:93,1,59.9999952316285,2|10,1:2|0:0,0:0:0:0:
325,211,41442,1,10,0:0:0:0:
325,211,41649,2,0,L|321:287,1,59.9999952316285,2|10,0:0|0:0,0:0:0:0:
227,339,42270,1,10,0:0:0:0:
227,339,42476,2,0,P|186:327|103:321,1,119.999990463257,2|2,0:0|1:2,0:0:0:0:
58,212,43304,5,4,1:2:0:0:
58,212,43511,2,0,P|45:169|39:79,1,119.999990463257,10|10,0:0|0:0,0:0:0:0:
64,39,44132,2,0,P|120:23|141:23,1,59.9999952316285,2|10,0:2|0:0,0:0:0:0:
174,50,44545,1,2,0:0:0:0:
281,29,44959,2,0,P|320:17|402:11,1,119.999990463257,2|2,1:2|0:0,0:0:0:0:
445,49,45580,1,8,0:0:0:0:
445,49,45787,2,0,L|440:118,2,59.9999952316285,2|10|2,1:2|0:0|1:2,0:0:0:0:
329,82,46614,38,0,L|319:213,1,119.999990463257,4|0,1:2|0:0,0:0:0:0:
369,235,47235,1,10,0:0:0:0:
369,235,47442,2,0,L|372:305,1,59.9999952316285,2|10,1:2|0:0,0:0:0:0:
336,343,47856,1,2,0:0:0:0:
226,362,48270,1,4,1:2:0:0:
226,362,48476,2,0,P|178:377|96:376,1,119.999990463257,10|10,0:0|0:0,0:0:0:0:
65,336,49097,2,0,L|67:272,2,59.9999952316285,2|10|2,0:0|0:0|1:2,0:0:0:0:
174,286,49925,5,4,1:2:0:0:
174,286,50132,2,0,L|169:148,1,119.999990463257,10|10,0:0|0:0,0:0:0:0:
120,131,50752,2,0,L|121:62,1,59.9999952316285,2|10,0:2|0:0,0:0:0:0:
232,25,51373,1,10,0:0:0:0:
232,25,51580,2,0,L|297:26,1,59.9999952316285,6|10,1:2|0:0,0:0:0:0:
382,104,52201,1,2,1:2:0:0:
382,104,52407,2,0,L|461:101,1,59.9999952316285,10|10,3:2|3:2,0:0:0:0:
502,103,52821,1,10,0:0:0:0:
468,218,53235,38,0,P|481:261|485:312,2,89.9999928474428,6|6|6,1:2|1:2|1:2,0:0:0:0:
412,193,54063,2,0,L|315:197,2,89.9999928474428,6|6|6,1:2|1:2|1:2,0:0:0:0:
453,150,54890,2,0,P|445:102|431:58,1,89.9999928474428,6|6,1:2|1:2,0:0:0:0:
350,34,55511,1,6,1:2:0:0:
350,34,56545,22,0,P|323:46|283:52,1,59.9999952316285,6|8,1:2|0:0,0:0:0:0:
233,48,56959,2,0,P|206:35|166:29,1,59.9999952316285,0|8,0:0|0:0,0:0:0:0:
143,79,57373,1,0,1:2:0:0:
143,79,57580,2,0,L|152:145,2,59.9999952316285,10|0|10,0:0|0:0|0:0,0:0:0:0:
89,50,58201,2,0,P|49:49|-2:70,2,89.9999928474428,6|2|10,1:2|1:2|0:2,0:0:0:0:
155,149,59235,1,10,0:0:0:0:
155,149,59442,2,0,L|146:215,1,59.9999952316285,0|10,0:0|0:0,0:0:0:0:
183,256,59856,6,0,P|223:257|274:236,2,89.9999928474428,6|2|10,1:2|1:2|0:2,0:0:0:0:
215,140,60890,2,0,L|224:74,1,59.9999952316285,10|0,0:0|0:0,0:0:0:0:
263,35,61304,1,10,0:0:0:0:
263,35,61511,2,0,P|303:34|354:55,1,89.9999928474428,6|2,1:2|1:2,0:0:0:0:
404,123,62132,1,10,0:2:0:0:
404,123,62338,2,0,P|397:171|398:183,1,59.9999952316285,10|0,3:2|3:2,0:0:0:0:
438,226,62752,2,0,P|438:255|431:285,1,59.9999952316285,8|10,0:2|0:0,0:0:0:0:
415,343,63166,38,0,L|314:334,1,89.9999928474428,6|0,1:2|1:0,0:0:0:0:
246,378,63787,1,8,0:0:0:0:
159,297,64201,2,0,L|95:302,1,59.9999952316285,10|0,0:0|0:0,0:0:0:0:
48,269,64614,1,10,0:0:0:0:
48,269,64821,2,0,P|59:223|64:178,2,89.9999928474428,6|2|10,1:2|1:2|0:2,0:0:0:0:
159,294,65856,2,0,L|229:299,1,59.9999952316285,10|2,0:0|0:0,0:0:0:0:
274,275,66270,1,10,0:0:0:0:
274,275,66476,6,0,P|262:229|257:184,2,89.9999928474428,6|2|10,1:2|1:2|0:2,0:0:0:0:
386,318,67511,2,0,P|393:286|398:253,1,59.9999952316285,10|2,0:0|0:0,0:0:0:0:
365,208,67925,1,10,0:0:0:0:
365,208,68132,2,0,P|353:162|348:117,1,89.9999928474428,6|2,1:2|1:2,0:0:0:0:
389,40,68752,1,10,0:2:0:0:
389,40,68959,2,0,P|344:24|331:22,1,59.9999952316285,6|8,1:2|0:0,0:0:0:0:
277,47,69373,2,0,P|232:63|219:65,1,59.9999952316285,8|2,3:2|3:2,0:0:0:0:
168,34,69787,38,0,P|156:78|148:122,1,89.9999928474428,14|8,1:2|0:0,0:0:0:0:
192,199,70407,1,8,0:0:0:0:
192,199,70614,2,0,P|204:243|212:287,1,89.9999928474428,12|8,1:2|0:0,0:0:0:0:
170,366,71235,1,10,0:0:0:0:
170,366,71442,2,0,L|261:385,2,89.9999928474428,14|10|10,1:2|0:0|0:0,0:0:0:0:
67,302,72476,2,0,L|-1:316,2,59.9999952316285,2|0|10,0:0|1:0|0:0,0:0:0:0:
108,258,73097,6,0,P|117:223|116:164,1,89.9999928474428,14|10,1:2|0:0,0:0:0:0:
84,85,73718,1,10,0:0:0:0:
84,85,73925,2,0,L|177:79,1,89.9999928474428,0|8,1:2|0:0,0:0:0:0:
244,134,74545,1,10,0:0:0:0:
244,134,74752,2,0,P|233:181|228:226,2,89.9999928474428,14|10|10,1:2|0:0|0:0,0:0:0:0:
280,86,75580,2,0,P|274:48|265:13,2,59.9999952316285,10|0|0,0:0|1:0|1:0,0:0:0:0:
391,130,76407,38,0,P|388:159|381:189,1,59.9999952316285,6|8,1:2|0:2,0:0:0:0:
349,240,76821,2,0,P|352:269|359:299,1,59.9999952316285,0|8,0:0|0:2,0:0:0:0:
400,342,77235,1,0,1:2:0:0:
400,342,77442,2,0,L|464:340,2,59.9999952316285,10|2|10,0:2|0:0|0:2,0:0:0:0:
355,382,78063,2,0,L|257:378,2,89.9999928474428,6|2|10,1:2|1:2|0:2,0:0:0:0:
301,274,79097,2,0,L|299:210,1,59.9999952316285,10|2,0:2|0:0,0:0:0:0:
298,151,79511,1,10,0:2:0:0:
298,151,79718,6,0,P|247:156|199:167,2,89.9999928474428,6|2|10,1:2|1:2|0:2,0:0:0:0:
362,252,80752,2,0,L|359:335,2,59.9999952316285,10|2|10,0:2|0:0|0:2,0:0:0:0:
401,206,81373,2,0,L|398:117,2,89.9999928474428,6|10|2,1:2|0:0|3:2,0:0:0:0:
446,245,82201,2,0,L|443:334,2,89.9999928474428,6|10|10,1:2|0:2|3:2,0:0:0:0:
493,208,83028,38,0,L|489:110,1,89.9999928474428,6|12,1:2|0:2,0:0:0:0:
428,51,83649,1,12,0:2:0:0:
428,51,83856,2,0,L|365:43,2,59.9999952316285,0|8|8,1:0|0:0|3:2,0:0:0:0:
332,124,84683,2,0,L|229:126,1,89.9999928474428,4|12,1:2|0:2,0:0:0:0:
172,182,85304,1,12,0:2:0:0:
172,182,85511,2,0,L|111:174,2,59.9999952316285,0|8|8,1:0|0:0|0:0,0:0:0:0:
124,292,86338,21,4,1:2:0:0:
70,55,99580,6,0,L|180:71,1,89.9999928474428,0|0,3:2|3:2,0:0:0:0:
247,83,100201,1,0,3:2:0:0:
247,83,100407,1,12,0:0:0:0:
256,192,100511,12,0,102063,0:0:0:0:
438,326,102890,38,0,L|327:309,1,89.9999928474428,0|0,3:2|3:2,0:0:0:0:
262,297,103511,1,0,3:2:0:0:
262,297,103718,2,0,B|195:303|165:361|165:361|174:286|136:229,2,239.999980926514,12|0|0,0:0|0:0|0:0,0:0:0:0:
364,79,106201,6,0,L|254:95,1,89.9999928474428,0|0,3:2|3:2,0:0:0:0:
187,107,106821,1,0,3:2:0:0:
187,107,107028,1,12,0:0:0:0:
256,192,107132,12,0,108683,0:0:0:0:
438,326,109511,38,0,L|327:309,1,89.9999928474428,0|0,3:2|3:2,0:0:0:0:
262,297,110132,1,0,3:2:0:0:
262,297,110338,2,0,B|128:287|206:182|68:172,2,239.999980926514,12|0|0,0:0|0:0|0:0,0:0:0:0:
95,123,112821,6,0,P|137:92|179:89,1,89.9999928474428,0|0,3:2|3:2,0:0:0:0:
246,140,113442,1,2,3:2:0:0:
246,140,113649,1,14,0:0:0:0:
409,64,114270,1,2,0:0:0:0:
409,64,114476,2,0,P|387:112|383:156,1,89.9999928474428,2|2,3:2|3:2,0:0:0:0:
427,228,115097,1,2,3:2:0:0:
427,228,115304,2,0,P|440:259|443:289,2,59.9999952316285,14|2|10,0:0|0:0|0:0,0:0:0:0:
317,276,116132,38,0,P|272:284|223:279,1,89.9999928474428,0|0,3:2|3:2,0:0:0:0:
150,235,116752,1,2,3:2:0:0:
150,235,116959,1,14,0:0:0:0:
72,72,117580,1,2,0:0:0:0:
72,72,117787,2,0,P|118:70|164:80,1,89.9999928474428,2|2,3:2|3:2,0:0:0:0:
232,134,118407,1,2,3:2:0:0:
232,134,118614,2,0,P|264:134|296:127,2,59.9999952316285,14|2|10,0:0|0:0|0:0,0:0:0:0:
232,13,119442,6,0,P|277:11|321:21,1,89.9999928474428,0|0,3:2|3:2,0:0:0:0:
384,84,120063,1,2,3:2:0:0:
384,84,120270,1,14,0:0:0:0:
456,248,120890,1,2,0:0:0:0:
456,248,121097,2,0,P|411:257|367:256,1,89.9999928474428,2|2,3:2|3:2,0:0:0:0:
301,194,121718,1,2,3:2:0:0:
301,194,121925,2,0,P|264:184|227:186,1,59.9999952316285,14|2,0:0|0:0,0:0:0:0:
195,222,122338,1,10,0:0:0:0:
75,214,122752,38,0,P|94:260|97:304,1,89.9999928474428,0|0,3:2|3:2,0:0:0:0:
40,372,123373,1,2,3:2:0:0:
40,372,123580,1,14,0:0:0:0:
8,194,124201,1,2,0:0:0:0:
8,194,124407,2,0,P|13:150|36:107,1,89.9999928474428,2|2,3:2|3:2,0:0:0:0:
109,59,125028,1,2,3:2:0:0:
109,59,125235,2,0,L|177:55,1,59.9999952316285,10|10,0:0|0:0,0:0:0:0:
219,88,125649,1,10,0:0:0:0:
327,140,126063,5,4,1:2:0:0:
327,140,126270,2,0,L|453:134,1,119.999990463257,2|10,0:0|0:0,0:0:0:0:
506,132,126890,1,10,0:2:0:0:
472,308,127511,1,10,0:0:0:0:
472,308,127718,2,0,L|362:303,1,89.9999928474428,10|10,0:2|0:0,0:0:0:0:
304,248,128338,1,10,0:0:0:0:
304,248,128545,2,0,L|238:250,1,59.9999952316285,10|2,0:2|0:0,0:0:0:0:
183,249,128959,1,2,0:0:0:0:
85,319,129373,37,4,1:2:0:0:
85,319,129580,2,0,B|93:191,1,119.999990463257,2|10,0:0|0:0,0:0:0:0:
98,139,130201,1,10,0:2:0:0:
255,52,130821,1,10,0:0:0:0:
255,52,131028,2,0,B|262:151,1,89.9999928474428,10|10,0:2|0:0,0:0:0:0:
253,227,131649,1,10,0:0:0:0:
253,227,131856,2,0,P|292:240|323:245,1,59.9999952316285,2|10,3:2|0:0,0:0:0:0:
370,242,132270,1,2,1:2:0:0:
473,182,132683,5,4,1:2:0:0:
473,182,132890,2,0,L|471:314,1,119.999990463257,10|10,0:0|0:0,0:0:0:0:
472,362,133511,1,2,1:2:0:0:
361,314,133925,2,0,P|333:305|301:300,1,59.9999952316285,0|8,1:0|0:0,0:0:0:0:
257,340,134338,1,0,1:2:0:0:
257,340,134545,2,0,L|132:338,1,119.999990463257,10|10,0:0|0:0,0:0:0:0:
76,336,135166,1,2,1:2:0:0:
141,235,135580,2,0,P|160:196|165:178,1,59.9999952316285,0|8,1:0|0:0,0:0:0:0:
124,134,135994,37,4,1:2:0:0:
124,134,136201,2,0,P|85:56|76:19,1,119.999990463257,10|10,0:0|0:0,0:0:0:0:
132,1,136821,1,2,1:2:0:0:
226,78,137235,2,0,P|265:97|284:102,1,59.9999952316285,2|10,0:0|0:0,0:0:0:0:
331,68,137649,2,0,P|389:38|416:31,1,89.9999928474428,6|6,1:2|1:2,0:0:0:0:
482,89,138270,1,6,1:2:0:0:
482,89,138476,2,0,L|478:154,1,59.9999952316285,2|2,1:2|3:2,0:0:0:0:
474,209,138890,1,10,0:0:0:0:
372,272,139304,6,0,P|324:254|265:247,1,89.9999928474428,6|6,1:2|1:2,0:0:0:0:
222,311,139925,1,6,1:2:0:0:
222,311,140132,2,0,P|179:327|126:332,1,89.9999928474428,10|10,3:2|3:2,0:0:0:0:
82,260,140752,1,8,3:2:0:0:
82,260,140959,38,0,B|319:205|144:34|396:28,1,419.999966621399,4|2,1:2|0:0,0:0:0:0:
445,59,142614,2,0,P|459:99|468:153,2,89.9999928474428,6|2|2,1:2|0:0|0:0,0:0:0:0:
327,83,143649,2,0,P|288:92|267:95,1,59.9999952316285,2|2,0:0|0:0,0:0:0:0:
212,70,144063,1,2,0:0:0:0:
212,70,144270,6,0,P|153:56|122:52,2,89.9999928474428,6|2|2,1:2|0:0|0:0,0:0:0:0:
222,189,145304,2,0,P|183:180|162:177,1,59.9999952316285,2|2,0:0|0:0,0:0:0:0:
111,208,145718,1,2,0:0:0:0:
111,208,145925,2,0,P|52:222|21:226,2,89.9999928474428,2|2|2,1:2|1:2|1:2,0:0:0:0:
162,177,146752,1,2,0:0:0:0:
162,177,147580,6,0,P|157:210|156:248,1,59.9999952316285,6|8,1:2|0:0,0:0:0:0:
188,287,147994,2,0,P|212:298|248:303,1,59.9999952316285,0|8,0:0|0:0,0:0:0:0:
298,276,148407,1,0,1:2:0:0:
298,276,148614,2,0,L|289:210,2,59.9999952316285,10|0|10,0:0|0:0|0:0,0:0:0:0:
341,317,149235,2,0,P|381:318|432:297,2,89.9999928474428,6|2|10,1:2|1:2|0:2,0:0:0:0:
366,199,150270,2,0,L|375:133,1,59.9999952316285,10|2,0:0|0:0,0:0:0:0:
382,80,150683,1,10,0:0:0:0:
382,80,150890,6,0,P|342:79|291:100,2,89.9999928474428,6|2|10,1:2|1:2|0:2,0:0:0:0:
322,184,151925,2,0,L|313:243,1,59.9999952316285,10|2,0:0|0:0,0:0:0:0:
273,288,152338,1,10,0:0:0:0:
273,288,152545,2,0,P|233:289|182:268,1,89.9999928474428,14|2,1:2|1:2,0:0:0:0:
107,228,153166,5,10,0:2:0:0:
107,228,153373,2,0,P|100:180|101:168,1,59.9999952316285,6|8,3:2|3:2,0:0:0:0:
143,126,153787,2,0,P|149:96|150:66,1,59.9999952316285,0|2,1:0|1:2,0:0:0:0:
134,8,154201,38,0,L|235:17,1,89.9999928474428,6|8,1:2|1:2,0:0:0:0:
312,28,154821,1,8,0:0:0:0:
362,136,155235,2,0,L|427:130,1,59.9999952316285,10|2,0:0|0:0,0:0:0:0:
462,175,155649,1,10,0:0:0:0:
462,175,155856,2,0,P|456:219|446:263,2,89.9999928474428,14|10|10,1:2|1:2|0:2,0:0:0:0:
384,83,156890,2,0,L|319:77,1,59.9999952316285,10|0,0:0|0:0,0:0:0:0:
267,96,157304,1,10,0:0:0:0:
267,96,157511,6,0,P|279:142|284:187,2,89.9999928474428,14|10|10,1:2|1:2|0:2,0:0:0:0:
145,70,158545,2,0,P|138:98|133:128,1,59.9999952316285,10|0,0:0|0:0,0:0:0:0:
158,183,158959,1,10,0:0:0:0:
158,183,159166,2,0,P|170:229|175:274,1,89.9999928474428,14|10,1:2|1:2,0:0:0:0:
124,345,159787,1,10,0:2:0:0:
124,345,159994,2,0,P|169:361|182:363,1,59.9999952316285,10|8,1:2|0:0,0:0:0:0:
237,342,160407,1,8,3:2:0:0:
352,321,160821,38,0,P|360:290|366:259,1,59.9999952316285,6|8,1:2|0:0,0:0:0:0:
329,214,161235,2,0,P|320:183|314:152,1,59.9999952316285,0|8,0:0|0:0,0:0:0:0:
333,98,161649,1,0,1:2:0:0:
333,98,161856,2,0,P|340:66|347:35,2,59.9999952316285,10|2|10,0:0|0:0|0:0,0:0:0:0:
274,84,162476,2,0,L|177:96,2,89.9999928474428,6|2|10,1:2|1:2|0:2,0:0:0:0:
227,195,163511,2,0,L|153:203,1,59.9999952316285,10|2,0:0|0:0,0:0:0:0:
108,186,163925,1,10,0:0:0:0:
108,186,164132,6,0,P|129:229|137:270,2,89.9999928474428,6|2|10,1:2|1:2|0:2,0:0:0:0:
120,66,165166,2,0,P|148:74|174:90,1,59.9999952316285,10|2,0:0|0:0,0:0:0:0:
217,132,165580,1,10,0:0:0:0:
217,132,165787,2,0,P|260:119|299:94,2,89.9999928474428,6|10|2,1:2|1:2|3:2,0:0:0:0:
177,177,166614,2,0,P|198:216|211:259,1,89.9999928474428,10|2,3:2|3:2,0:0:0:0:
196,348,167235,1,2,3:2:0:0:
196,348,167442,38,0,P|255:355|292:356,1,89.9999928474428,6|8,1:2|0:0,0:0:0:0:
362,309,168063,1,8,0:0:0:0:
362,309,168270,2,0,L|352:249,2,59.9999952316285,0|8|0,1:0|0:0|1:0,0:0:0:0:
475,347,169097,2,0,P|477:302|485:257,1,89.9999928474428,12|8,0:0|0:0,0:0:0:0:
427,188,169718,1,8,0:0:0:0:
427,188,169925,2,0,L|417:128,2,59.9999952316285,0|0|0,1:0|1:0|1:0,0:0:0:0:
329,257,170752,6,0,L|235:247,1,89.9999928474428,6|6,1:2|1:2,0:0:0:0:
169,304,171373,1,6,1:2:0:0:
169,304,171580,2,0,P|118:326|76:332,2,89.9999928474428,14|14|14,1:2|1:2|1:2,0:0:0:0:
191,248,172407,37,6,1:2:0:0:
256,192,172614,12,0,183994,0:2:0:0:
