osu file format v14

[General]
AudioFilename: audio.mp3
AudioLeadIn: 0
PreviewTime: 140028
Countdown: 0
SampleSet: Soft
StackLeniency: 0.7
Mode: 0
LetterboxInBreaks: 0
WidescreenStoryboard: 0

[Editor]
DistanceSpacing: 1
BeatDivisor: 4
GridSize: 32
TimelineZoom: 1

[Metadata]
Title:Raise Your Flag
TitleUnicode:Raise Your Flag
Artist:MAN WITH A MISSION
ArtistUnicode:MAN WITH A MISSION
Creator:Hantrik
Version:A THOUSAND FLAGS
Source:機動戦士ガンダム 鉄血のオルフェンズ
Tags:japanese male vocals nelliel nekroman4ik akitoshi rock j-rock Mobile Suit Gundam IRON-BLOODED ORPHANS opening op anime Dead End in Tokyo corinn -laura- The World's On Fire
BeatmapID:2105177
BeatmapSetID:1005889

[Difficulty]
HPDrainRate:6
CircleSize:3.8
OverallDifficulty:9
ApproachRate:9.2
SliderMultiplier:1.92
SliderTickRate:1

[Events]
//Background and Video events
0,0,"BG.jpg",0,0
//Break Periods
2,86992,98177
//Storyboard Layer 0 (Background)
//Storyboard Layer 1 (Fail)
//Storyboard Layer 2 (Pass)
//Storyboard Layer 3 (Foreground)
//Storyboard Layer 4 (Overlay)
//Storyboard Sound Samples

[TimingPoints]
270,413.793103448276,4,2,5,40,1,0
26752,-75.7575757575758,4,2,5,40,0,0
27683,-75.7575757575758,4,2,5,40,0,0
27787,-75.7575757575758,4,2,5,40,0,0
27890,-75.7575757575758,4,2,5,40,0,0
27994,-75.7575757575758,4,2,5,40,0,0
28097,-75.7575757575758,4,2,5,40,0,0
28201,-75.7575757575758,4,2,5,40,0,0
28304,-75.7575757575758,4,2,5,40,0,0
28407,-75.7575757575758,4,2,5,40,0,0
29649,-75.7575757575758,4,2,5,40,0,0
29752,-75.7575757575758,4,2,5,40,0,0
29856,-75.7575757575758,4,2,5,40,0,0
29959,-75.7575757575758,4,2,5,40,0,0
30063,-75.7575757575758,4,2,5,40,0,0
30890,-75.7575757575758,4,2,5,40,0,0
30994,-75.7575757575758,4,2,5,40,0,0
31097,-75.7575757575758,4,2,5,40,0,0
31201,-75.7575757575758,4,2,5,40,0,0
31304,-75.7575757575758,4,2,5,40,0,0
31407,-75.7575757575758,4,2,5,40,0,0
31511,-75.7575757575758,4,2,5,40,0,0
31614,-75.7575757575758,4,2,5,40,0,0
31718,-75.7575757575758,4,2,5,40,0,0
34201,-75.7575757575758,4,2,5,40,0,0
34304,-75.7575757575758,4,2,5,40,0,0
34407,-75.7575757575758,4,2,5,40,0,0
34511,-75.7575757575758,4,2,5,40,0,0
34614,-75.7575757575758,4,2,5,40,0,0
34718,-75.7575757575758,4,2,5,40,0,0
34821,-75.7575757575758,4,2,5,40,0,0
34925,-75.7575757575758,4,2,5,40,0,0
35028,-75.7575757575758,4,2,5,40,0,0
36063,-75.7575757575758,4,2,5,40,0,0
36166,-75.7575757575758,4,2,5,40,0,0
36270,-75.7575757575758,4,2,5,40,0,0
36890,-75.7575757575758,4,2,5,40,0,0
36994,-75.7575757575758,4,2,5,40,0,0
37097,-75.7575757575758,4,2,5,40,0,0
37201,-75.7575757575758,4,2,5,40,0,0
37304,-75.7575757575758,4,2,5,40,0,0
37407,-75.7575757575758,4,2,5,40,0,0
37511,-75.7575757575758,4,2,5,40,0,0
37614,-75.7575757575758,4,2,5,40,0,0
37718,-75.7575757575758,4,2,5,40,0,0
37821,-75.7575757575758,4,2,5,40,0,0
37925,-75.7575757575758,4,2,5,40,0,0
38028,-75.7575757575758,4,2,5,40,0,0
38132,-75.7575757575758,4,2,5,40,0,0
39994,-75.7575757575758,4,2,5,50,0,0
40718,-75.7575757575758,4,2,5,50,0,0
40821,-75.7575757575758,4,2,5,50,0,0
40925,-75.7575757575758,4,2,5,50,0,0
41028,-75.7575757575758,4,2,5,50,0,0
41545,-75.7575757575758,4,2,5,50,0,0
41649,-75.7575757575758,4,2,5,50,0,0
41752,-75.7575757575758,4,2,5,50,0,0
41856,-75.7575757575758,4,2,5,50,0,0
42373,-75.7575757575758,4,2,5,50,0,0
42476,-75.7575757575758,4,2,5,50,0,0
42580,-75.7575757575758,4,2,5,50,0,0
42683,-75.7575757575758,4,2,5,50,0,0
42787,-75.7575757575758,4,2,5,50,0,0
42890,-75.7575757575758,4,2,5,50,0,0
44028,-75.7575757575758,4,2,5,50,0,0
44132,-75.7575757575758,4,2,5,50,0,0
44235,-75.7575757575758,4,2,5,50,0,0
44338,-75.7575757575758,4,2,5,50,0,0
44442,-75.7575757575758,4,2,5,50,0,0
44545,-75.7575757575758,4,2,5,50,0,0
45683,-75.7575757575758,4,2,5,50,0,0
45787,-75.7575757575758,4,2,5,50,0,0
45890,-75.7575757575758,4,2,5,50,0,0
45994,-75.7575757575758,4,2,5,50,0,0
46097,-75.7575757575758,4,2,5,50,0,0
46201,-75.7575757575758,4,2,5,50,0,0
47338,-75.7575757575758,4,2,5,50,0,0
47442,-75.7575757575758,4,2,5,50,0,0
47545,-75.7575757575758,4,2,5,50,0,0
47649,-75.7575757575758,4,2,5,50,0,0
47752,-75.7575757575758,4,2,5,50,0,0
47856,-75.7575757575758,4,2,5,50,0,0
48994,-75.7575757575758,4,2,5,50,0,0
49097,-75.7575757575758,4,2,5,50,0,0
49201,-75.7575757575758,4,2,5,50,0,0
49304,-75.7575757575758,4,2,5,50,0,0
49407,-75.7575757575758,4,2,5,50,0,0
49511,-75.7575757575758,4,2,5,50,0,0
50649,-75.7575757575758,4,2,5,50,0,0
50752,-75.7575757575758,4,2,5,50,0,0
50856,-75.7575757575758,4,2,5,50,0,0
50959,-75.7575757575758,4,2,5,50,0,0
53235,-45.045045045045,4,2,5,75,0,0
56545,-58.1395348837209,4,2,5,85,0,1
56649,-58.1395348837209,4,2,5,85,0,1
56752,-58.1395348837209,4,2,5,85,0,1
56959,-58.1395348837209,4,2,5,85,0,1
57063,-58.1395348837209,4,2,5,85,0,1
57270,-58.1395348837209,4,2,5,85,0,1
57373,-58.1395348837209,4,2,5,85,0,1
58097,-58.1395348837209,4,2,5,85,0,1
58201,-52.0833333333333,4,2,5,85,0,1
59235,-58.1395348837209,4,2,5,85,0,1
59752,-58.1395348837209,4,2,5,85,0,1
59856,-52.0833333333333,4,2,5,85,0,1
60890,-58.1395348837209,4,2,5,85,0,1
61407,-58.1395348837209,4,2,5,85,0,1
61511,-52.0833333333333,4,2,5,85,0,1
62132,-58.1395348837209,4,2,5,85,0,1
63270,-58.1395348837209,4,2,5,85,0,1
63373,-58.1395348837209,4,2,5,85,0,1
63476,-58.1395348837209,4,2,5,85,0,1
63580,-58.1395348837209,4,2,5,85,0,1
63683,-58.1395348837209,4,2,5,85,0,1
63890,-58.1395348837209,4,2,5,85,0,1
63994,-58.1395348837209,4,2,5,85,0,1
64097,-58.1395348837209,4,2,5,85,0,1
64201,-58.1395348837209,4,2,5,85,0,1
64718,-58.1395348837209,4,2,5,85,0,1
64821,-52.0833333333333,4,2,5,85,0,1
65856,-58.1395348837209,4,2,5,85,0,1
66373,-58.1395348837209,4,2,5,85,0,1
66476,-52.0833333333333,4,2,5,85,0,1
67511,-58.1395348837209,4,2,5,85,0,1
68028,-58.1395348837209,4,2,5,85,0,1
68132,-52.0833333333333,4,2,5,85,0,1
69787,-61.7283950617284,4,2,5,85,0,1
70304,-61.7283950617284,4,2,5,85,0,1
70407,-61.7283950617284,4,2,5,85,0,1
70511,-61.7283950617284,4,2,5,85,0,1
70614,-61.7283950617284,4,2,5,85,0,1
71132,-61.7283950617284,4,2,5,85,0,1
71235,-61.7283950617284,4,2,5,85,0,1
71338,-61.7283950617284,4,2,5,85,0,1
71442,-54.9450549450549,4,2,5,85,0,1
71752,-61.7283950617284,4,2,5,85,0,1
72787,-61.7283950617284,4,2,5,85,0,1
72890,-61.7283950617284,4,2,5,85,0,1
72994,-61.7283950617284,4,2,5,85,0,1
73097,-54.9450549450549,4,2,5,85,0,1
73407,-61.7283950617284,4,2,5,85,0,1
73614,-61.7283950617284,4,2,5,85,0,1
73718,-61.7283950617284,4,2,5,85,0,1
74442,-61.7283950617284,4,2,5,85,0,1
74545,-61.7283950617284,4,2,5,85,0,1
74649,-61.7283950617284,4,2,5,85,0,1
74752,-54.9450549450549,4,2,5,85,0,1
75063,-61.7283950617284,4,2,5,85,0,1
75270,-61.7283950617284,4,2,5,85,0,1
75373,-61.7283950617284,4,2,5,85,0,1
76407,-54.9450549450549,4,2,5,85,0,1
77442,-61.7283950617284,4,2,5,85,0,1
77959,-61.7283950617284,4,2,5,85,0,1
78063,-54.9450549450549,4,2,5,85,0,1
79097,-61.7283950617284,4,2,5,85,0,1
79614,-61.7283950617284,4,2,5,85,0,1
79718,-54.9450549450549,4,2,5,85,0,1
80752,-61.7283950617284,4,2,5,85,0,1
81270,-61.7283950617284,4,2,5,85,0,1
81373,-54.9450549450549,4,2,5,85,0,1
82407,-61.7283950617284,4,2,5,85,0,1
83028,-58.1395348837209,4,2,5,90,0,1
86338,-100,4,2,5,80,0,0
99580,-108.695652173913,4,2,5,45,0,0
112821,-108.695652173913,4,2,5,50,0,0
126063,-89.2857142857143,4,2,5,55,0,0
132683,-75.7575757575758,4,2,5,55,0,0
137649,-65.7894736842105,4,2,5,70,0,0
139304,-43.1034482758621,4,2,5,80,0,0
140959,-100,4,2,5,75,0,0
145925,-100,4,2,5,85,0,0
147166,-100,4,2,5,85,0,0
147580,-58.1395348837209,4,2,5,85,0,1
147683,-58.1395348837209,4,2,5,85,0,1
147787,-58.1395348837209,4,2,5,85,0,1
147994,-58.1395348837209,4,2,5,85,0,1
148097,-58.1395348837209,4,2,5,85,0,1
148304,-58.1395348837209,4,2,5,85,0,1
148407,-58.1395348837209,4,2,5,85,0,1
148511,-58.1395348837209,4,2,5,85,0,1
148614,-58.1395348837209,4,2,5,85,0,1
149132,-58.1395348837209,4,2,5,85,0,1
149235,-52.0833333333333,4,2,5,85,0,1
150270,-58.1395348837209,4,2,5,85,0,1
150787,-58.1395348837209,4,2,5,85,0,1
150890,-52.0833333333333,4,2,5,85,0,1
151925,-58.1395348837209,4,2,5,85,0,1
152442,-58.1395348837209,4,2,5,85,0,1
152545,-58.1395348837209,4,2,5,85,0,1
153063,-58.1395348837209,4,2,5,85,0,1
153166,-58.1395348837209,4,2,5,85,0,1
154201,-49.5049504950495,4,2,5,85,0,1
155235,-58.1395348837209,4,2,5,85,0,1
155856,-49.5049504950495,4,2,5,85,0,1
156890,-58.1395348837209,4,2,5,85,0,1
157511,-49.5049504950495,4,2,5,85,0,1
158545,-58.1395348837209,4,2,5,85,0,1
159166,-49.5049504950495,4,2,5,85,0,1
160821,-58.1395348837209,4,2,5,85,0,1
160925,-58.1395348837209,4,2,5,85,0,1
161028,-58.1395348837209,4,2,5,85,0,1
161235,-58.1395348837209,4,2,5,85,0,1
161338,-58.1395348837209,4,2,5,85,0,1
161545,-58.1395348837209,4,2,5,85,0,1
161649,-58.1395348837209,4,2,5,85,0,1
161752,-58.1395348837209,4,2,5,85,0,1
161856,-58.1395348837209,4,2,5,85,0,1
162373,-58.1395348837209,4,2,5,85,0,1
162476,-49.5049504950495,4,2,5,85,0,1
163511,-58.1395348837209,4,2,5,85,0,1
164028,-58.1395348837209,4,2,5,85,0,1
164132,-49.5049504950495,4,2,5,85,0,1
165166,-58.1395348837209,4,2,5,85,0,1
165683,-58.1395348837209,4,2,5,85,0,1
165787,-49.5049504950495,4,2,5,85,0,1
166511,-49.5049504950495,4,2,5,85,0,1
166614,-49.5049504950495,4,2,5,85,0,1
166925,-58.1395348837209,4,2,5,85,0,1
167442,-58.1395348837209,4,2,5,90,0,1
170442,-58.1395348837209,4,2,5,90,0,1
170545,-58.1395348837209,4,2,5,90,0,1
170752,-49.5049504950495,4,2,5,95,0,1
172201,-49.5049504950495,4,2,5,95,0,1
172407,-277.777777777778,4,2,5,100,0,0
172821,-277.777777777778,4,2,5,70,0,0
174063,-285.714285714286,4,2,5,70,0,0
179028,-285.714285714286,4,2,5,50,0,0
180683,-285.714285714286,4,2,5,30,0,0
182338,-285.714285714286,4,2,5,10,0,0
183994,-285.714285714286,4,2,5,5,0,0

[Colours]
Combo1 : 199,201,205
Combo2 : 228,92,96
Combo3 : 242,157,159
Combo4 : 147,148,149

[HitObjects]
256,192,25097,12,0,26338,0:0:0:0:
227,106,26752,37,4,1:2:0:0:
408,47,26959,1,10,0:0:0:0:
347,189,27166,2,0,P|331:259|331:345,1,126.719999613281,2|10,0:0|0:0,0:0:0:0:
91,174,27580,2,0,P|111:250|111:265,1,63.3599998066406,2|0,3:2|0:0,0:0:0:0:
264,54,27787,2,0,P|243:131|244:154,1,63.3599998066406,10|0,0:0|0:0,0:0:0:0:
80,189,27994,2,0,P|100:266|100:281,1,63.3599998066406,2|0,3:2|0:0,0:0:0:0:
132,67,28201,2,0,P|68:49|28:58,1,63.3599998066406,10|0,0:0|0:0,0:0:0:0:
222,222,28407,6,0,B|299:217|258:170|363:165,1,126.719999613281,2|8,3:2|0:0,0:0:0:0:
492,199,28718,2,0,P|500:264|508:342,1,126.719999613281,2|0,0:0|0:0,0:0:0:0:
308,352,29028,1,10,0:0:0:0:
363,195,29235,1,0,1:0:0:0:
363,195,29338,1,0,1:0:0:0:
363,195,29442,1,10,0:0:0:0:
217,136,29649,2,0,P|213:93|204:53,1,63.3599998066406,2|0,3:2|0:0,0:0:0:0:
438,81,29856,2,0,P|432:114|431:155,1,63.3599998066406,10|0,0:0|0:0,0:0:0:0:
310,37,30063,37,4,1:2:0:0:
256,231,30270,2,0,P|177:201|111:237,1,126.719999613281,10|0,0:0|0:0,0:0:0:0:
11,322,30683,1,10,0:0:0:0:
15,171,30890,2,0,P|49:237|51:258,1,63.3599998066406,2|0,3:2|0:0,0:0:0:0:
185,268,31097,2,0,P|197:236|220:209,1,63.3599998066406,10|0,0:0|0:0,0:0:0:0:
22,153,31304,2,0,P|56:219|56:238,1,63.3599998066406,2|0,3:2|0:0,0:0:0:0:
119,328,31511,2,0,P|186:345|221:335,1,63.3599998066406,10|0,0:0|0:0,0:0:0:0:
329,275,31718,6,0,P|323:215|318:138,1,126.719999613281,2|8,3:2|0:0,0:0:0:0:
125,66,32028,2,0,P|118:127|109:205,1,126.719999613281,0|0,0:0|0:0,0:0:0:0:
41,288,32338,1,10,0:0:0:0:
232,122,32545,1,2,1:2:0:0:
232,122,32649,1,0,1:0:0:0:
232,122,32752,1,8,0:0:0:0:
235,342,32959,1,8,0:0:0:0:
203,304,33063,1,8,0:0:0:0:
194,257,33166,1,8,0:0:0:0:
203,209,33270,1,8,0:0:0:0:
234,171,33373,37,4,0:0:0:0:
391,314,33580,2,0,B|341:146|446:233|386:37,1,253.439999226562,10|10,0:0|0:0,0:0:0:0:
137,276,34201,2,0,P|132:227|124:197,1,63.3599998066406,2|0,3:2|0:0,0:0:0:0:
266,81,34407,2,0,P|260:114|257:155,1,63.3599998066406,10|0,0:0|0:0,0:0:0:0:
157,289,34614,2,0,P|152:240|143:202,1,63.3599998066406,2|0,3:2|0:0,0:0:0:0:
278,175,34821,2,0,P|312:148|356:141,1,63.3599998066406,10|0,0:0|0:0,0:0:0:0:
483,289,35028,6,0,P|437:237|355:239,1,126.719999613281,2|8,3:2|0:0,0:0:0:0:
266,337,35338,2,0,P|269:273|275:193,1,126.719999613281,2|0,0:0|0:0,0:0:0:0:
347,31,35649,1,10,0:0:0:0:
216,117,35856,1,0,1:0:0:0:
216,117,35959,1,0,1:0:0:0:
216,117,36063,2,0,P|174:134|121:132,1,63.3599998066406,10|0,0:0|0:0,0:0:0:0:
0,116,36270,1,10,0:0:0:0:
59,311,36476,1,10,0:0:0:0:
59,311,36580,1,8,0:0:0:0:
59,311,36683,37,4,1:2:0:0:
31,126,36890,2,0,P|75:102|113:54,1,63.3599998066406,10|0,0:0|0:0,0:0:0:0:
229,8,37097,2,0,P|232:58|257:109,1,63.3599998066406,2|0,0:0|0:0,0:0:0:0:
35,155,37304,2,0,P|79:131|118:88,1,63.3599998066406,10|0,0:0|0:0,0:0:0:0:
316,116,37511,2,0,P|254:93|223:92,1,63.3599998066406,2|0,3:2|0:0,0:0:0:0:
177,246,37718,2,0,P|169:193|178:145,1,63.3599998066406,10|0,0:0|0:0,0:0:0:0:
346,105,37925,2,0,P|284:82|252:81,1,63.3599998066406,2|0,3:2|0:0,0:0:0:0:
149,40,38132,1,10,0:0:0:0:
268,218,38338,6,0,P|335:232|409:196,1,126.719999613281,6|8,1:2|0:0,0:0:0:0:
491,89,38649,2,0,P|500:147|511:232,1,126.719999613281,6|8,1:2|0:0,0:0:0:0:
458,339,38959,1,6,1:2:0:0:
359,125,39166,1,8,3:0:0:0:
251,333,39373,1,8,3:0:0:0:
189,93,39580,1,8,0:0:0:0:
144,60,39683,1,8,0:0:0:0:
94,48,39787,1,8,0:0:0:0:
45,60,39890,1,8,0:0:0:0:
7,87,39994,37,4,1:2:0:0:
74,243,40201,2,0,P|170:244|220:193,1,126.719999613281,10|2,0:0|0:0,0:0:0:0:
279,138,40511,1,0,1:0:0:0:
279,138,40614,2,0,P|320:132|358:137,1,63.3599998066406,10|0,0:0|0:0,0:0:0:0:
327,352,40821,2,0,P|321:310|306:270,1,63.3599998066406,2|0,1:2|0:0,0:0:0:0:
501,187,41028,2,0,P|492:219|484:344,1,126.719999613281,10|0,0:0|0:0,0:0:0:0:
406,103,41338,1,2,1:2:0:0:
406,103,41442,2,0,P|362:117|312:112,1,63.3599998066406,10|0,0:0|0:0,0:0:0:0:
175,197,41649,6,0,P|189:249|193:291,1,63.3599998066406,2|0,0:0|0:0,0:0:0:0:
255,42,41856,2,0,B|175:50|207:0|115:7,1,126.719999613281,10|0,0:0|0:0,0:0:0:0:
5,91,42166,1,0,1:0:0:0:
5,91,42270,2,0,P|15:143|16:179,1,63.3599998066406,10|0,0:0|0:0,0:0:0:0:
27,306,42476,2,0,P|48:282|92:263,1,63.3599998066406,2|0,0:0|0:0,0:0:0:0:
286,236,42683,2,0,P|277:205|241:167,1,63.3599998066406,10|0,0:0|0:0,0:0:0:0:
117,128,42890,1,2,1:2:0:0:
117,128,42994,1,0,1:0:0:0:
117,128,43097,1,8,0:0:0:0:
158,309,43304,37,4,1:2:0:0:
265,100,43511,2,0,P|315:84|400:107,1,126.719999613281,10|0,0:0|0:0,0:0:0:0:
424,124,43821,1,0,1:0:0:0:
424,124,43925,2,0,P|425:167|432:213,1,63.3599998066406,10|0,0:0|0:0,0:0:0:0:
243,300,44132,2,0,P|255:268|264:231,1,63.3599998066406,2|0,0:2|0:0,0:0:0:0:
443,107,44338,2,0,P|444:150|451:199,1,63.3599998066406,10|0,0:0|0:0,0:0:0:0:
436,327,44545,1,2,0:0:0:0:
436,327,44649,2,0,P|379:315|362:303,1,63.3599998066406,0|10,1:0|0:0,0:0:0:0:
207,135,44959,6,0,P|137:133|55:121,1,126.719999613281,2|8,1:2|0:0,0:0:0:0:
233,342,45373,1,2,0:0:0:0:
233,342,45476,1,0,1:0:0:0:
233,342,45580,2,0,P|272:340|318:327,1,63.3599998066406,8|0,0:0|0:0,0:0:0:0:
105,269,45787,2,0,P|100:215|95:184,1,63.3599998066406,2|0,1:2|0:0,0:0:0:0:
303,94,45994,2,0,P|298:127|296:164,1,63.3599998066406,10|0,0:0|0:0,0:0:0:0:
350,260,46201,1,2,1:2:0:0:
381,226,46304,1,0,1:0:0:0:
423,209,46407,1,8,0:0:0:0:
469,210,46511,1,8,0:0:0:0:
510,228,46614,37,4,1:2:0:0:
312,352,46821,2,0,B|234:332|279:294|201:270,1,126.719999613281,10|0,0:2|0:0,0:0:0:0:
173,262,47132,1,0,1:0:0:0:
173,262,47235,2,0,P|192:223|231:195,1,63.3599998066406,10|0,0:0|0:0,0:0:0:0:
416,216,47442,2,0,P|386:199|361:171,1,63.3599998066406,2|0,1:2|0:0,0:0:0:0:
142,265,47649,2,0,P|162:226|196:199,1,63.3599998066406,10|0,0:0|0:0,0:0:0:0:
222,56,47856,1,2,0:0:0:0:
222,56,47959,2,0,P|229:97|243:131,1,63.3599998066406,0|10,1:0|0:0,0:0:0:0:
292,261,48270,5,4,1:2:0:0:
337,42,48476,2,0,P|377:12|461:24,1,126.719999613281,10|2,0:0|0:0,0:0:0:0:
508,114,48787,1,0,1:0:0:0:
508,114,48890,2,0,P|505:177|509:210,1,63.3599998066406,10|0,0:0|0:0,0:0:0:0:
386,255,49097,2,0,P|372:219|365:173,1,63.3599998066406,2|0,0:0|0:0,0:0:0:0:
173,113,49304,2,0,P|165:146|148:183,1,63.3599998066406,10|0,0:0|0:0,0:0:0:0:
247,307,49511,1,2,1:2:0:0:
247,307,49614,2,0,P|257:273|262:234,1,63.3599998066406,0|8,1:0|0:0,0:0:0:0:
289,107,49925,37,4,1:2:0:0:
122,332,50132,2,0,P|57:314|27:247,1,126.719999613281,10|0,0:0|0:0,0:0:0:0:
51,119,50442,1,0,1:0:0:0:
51,119,50545,2,0,P|92:110|133:84,1,63.3599998066406,10|0,0:0|0:0,0:0:0:0:
272,15,50752,2,0,P|223:13|191:4,1,63.3599998066406,2|0,0:2|0:0,0:0:0:0:
212,223,50959,1,10,0:0:0:0:
212,223,51063,2,0,P|285:222|349:185,1,126.719999613281,0|0,1:2|1:0,0:0:0:0:
388,63,51373,1,10,0:0:0:0:
508,258,51580,6,0,P|495:188|483:115,1,126.719999613281,6|10,1:2|0:0,0:0:0:0:
176,36,51890,2,0,B|243:76|187:97|263:144,1,126.719999613281,6|8,1:2|0:0,0:0:0:0:
408,250,52201,1,2,1:2:0:0:
301,9,52407,1,10,3:2:0:0:
99,200,52614,1,10,3:2:0:0:
310,282,52821,1,10,0:0:0:0:
339,218,52924,1,8,0:0:0:0:
336,149,53027,1,10,0:0:0:0:
299,90,53132,1,8,0:0:0:0:
233,61,53235,38,0,B|104:34|151:118|28:93,1,213.120005203125,6|8,1:2|0:2,0:0:0:0:
21,65,53545,2,0,B|141:89|94:5|223:32,1,213.120005203125,6|8,1:2|0:2,0:0:0:0:
391,0,53856,1,6,1:2:0:0:
295,216,54063,6,0,B|403:272|381:178|498:240,1,213.120005203125,6|8,1:2|0:2,0:0:0:0:
512,214,54373,2,0,B|395:152|417:246|308:189,1,213.120005203125,6|8,1:2|0:2,0:0:0:0:
177,105,54683,1,6,1:2:0:0:
211,316,54890,38,0,B|81:293|131:375|9:355,1,213.120005203125,6|0,1:2|0:0,0:0:0:0:
0,328,55201,2,0,B|121:348|71:265|201:288,1,213.120005203125,6|0,1:2|0:0,0:0:0:0:
356,134,55511,1,6,1:2:0:0:
307,174,56545,22,0,L|316:281,1,82.5600012597657,6|0,1:2|0:0,0:0:0:0:
501,120,56752,1,8,0:0:0:0:
501,120,56856,2,0,L|508:33,1,82.5600012597657,0|0,1:0|0:0,0:0:0:0:
493,352,57063,1,0,1:0:0:0:
493,352,57166,2,0,P|456:352|415:331,1,82.5600012597657,8|0,0:0|0:0,0:0:0:0:
280,265,57373,2,0,P|244:257|201:268,1,82.5600012597657,0|0,1:2|0:0,0:0:0:0:
427,175,57580,1,10,0:0:0:0:
427,175,57683,2,0,P|417:89|410:9,1,165.120002519531,2|0,1:2|1:0,0:0:0:0:
222,0,57994,2,0,P|218:42|211:92,1,82.5600012597657,10|0,0:0|0:0,0:0:0:0:
69,300,58201,6,0,B|175:312|123:239|247:243,1,184.3200045,6|8,1:2|0:0,0:0:0:0:
369,312,58511,2,0,P|354:221|342:130,1,184.3200045,2|0,1:2|1:2,0:0:0:0:
114,6,58821,2,0,P|100:97|84:187,1,184.3200045,10|0,0:2|1:0,0:0:0:0:
359,41,59235,1,10,0:0:0:0:
359,41,59338,2,0,P|443:47|511:-13,1,165.120002519531,2|0,1:2|1:0,0:0:0:0:
510,153,59649,2,0,P|471:167|440:195,1,82.5600012597657,10|0,0:0|0:0,0:0:0:0:
358,384,59856,38,0,P|287:316|283:222,1,184.3200045,6|8,1:2|0:0,0:0:0:0:
235,96,60166,2,0,P|329:68|412:111,1,184.3200045,2|0,1:2|1:2,0:0:0:0:
288,333,60476,2,0,P|190:343|108:281,1,184.3200045,10|0,0:2|1:0,0:0:0:0:
3,0,60890,1,10,0:0:0:0:
3,0,60994,2,0,P|12:76|23:177,1,165.120002519531,2|0,1:2|1:0,0:0:0:0:
213,176,61304,2,0,P|216:132|221:77,1,82.5600012597657,10|0,0:0|0:0,0:0:0:0:
2,366,61511,6,0,B|36:377|70:368|70:368|106:317|195:308,1,184.3200045,6|8,1:2|0:0,0:0:0:0:
388,251,61821,2,0,B|354:262|320:253|320:253|284:202|195:193,1,184.3200045,2|0,1:2|1:2,0:0:0:0:
59,158,62132,1,10,0:2:0:0:
187,53,62338,1,10,3:2:0:0:
254,7,62441,1,8,3:2:0:0:
331,26,62545,1,0,3:2:0:0:
371,95,62648,1,2,3:2:0:0:
367,169,62752,1,8,0:2:0:0:
407,239,62856,1,0,3:0:0:0:
485,258,62959,1,10,0:0:0:0:
478,182,63063,1,8,0:0:0:0:
434,122,63166,38,0,P|392:115|349:100,1,82.5600012597657,6|0,1:2|0:0,0:0:0:0:
65,174,63373,1,8,0:0:0:0:
65,174,63476,2,0,P|109:157|152:134,1,82.5600012597657,0|0,1:0|0:0,0:0:0:0:
293,286,63683,1,0,1:0:0:0:
293,286,63787,2,0,P|282:236|265:197,1,82.5600012597657,8|0,0:0|0:0,0:0:0:0:
249,18,63994,2,0,P|234:56|226:96,1,82.5600012597657,0|0,1:2|0:0,0:0:0:0:
128,328,64201,1,10,0:0:0:0:
128,328,64304,2,0,P|34:315|4:240,1,165.120002519531,2|0,1:2|1:0,0:0:0:0:
188,197,64614,2,0,P|233:179|295:199,1,82.5600012597657,10|0,0:0|0:0,0:0:0:0:
509,378,64821,6,0,B|525:252|466:326|495:151,1,184.3200045,6|8,1:2|0:0,0:0:0:0:
385,0,65132,2,0,B|402:126|348:53|364:179,1,184.3200045,2|0,1:2|1:2,0:0:0:0:
354,363,65442,2,0,P|275:287|181:301,1,184.3200045,10|0,0:2|1:0,0:0:0:0:
278,27,65856,2,0,P|331:53|393:62,1,82.5600012597657,10|0,0:0|1:0,0:0:0:0:
127,175,66063,2,0,P|74:201|15:208,1,82.5600012597657,2|0,0:0|1:0,0:0:0:0:
283,5,66270,2,0,P|336:31|396:38,1,82.5600012597657,10|0,0:0|0:0,0:0:0:0:
218,256,66476,38,0,B|126:194|208:170|109:102,1,184.3200045,6|8,1:2|0:0,0:0:0:0:
1,377,66787,6,0,B|35:388|69:379|69:379|105:328|194:319,1,184.3200045,2|0,1:2|1:2,0:0:0:0:
366,381,67097,2,0,P|371:289|380:172,1,184.3200045,10|0,0:2|1:0,0:0:0:0:
130,0,67511,2,0,P|124:45|110:88,1,82.5600012597657,10|0,0:0|1:0,0:0:0:0:
353,124,67718,2,0,P|339:79|334:34,1,82.5600012597657,2|0,0:0|1:0,0:0:0:0:
59,237,67925,2,0,P|118:209|161:210,1,82.5600012597657,10|0,0:0|0:0,0:0:0:0:
345,307,68132,38,0,P|442:324|522:269,1,184.3200045,6|8,1:2|0:0,0:0:0:0:
274,134,68442,2,0,P|193:77|97:93,1,184.3200045,2|0,1:2|1:2,0:0:0:0:
0,184,68752,1,10,0:2:0:0:
312,208,68959,1,6,1:2:0:0:
37,336,69166,1,8,0:0:0:0:
106,384,69270,1,10,0:0:0:0:
187,365,69372,1,8,3:2:0:0:
228,293,69476,1,8,3:2:0:0:
203,215,69580,1,2,3:2:0:0:
230,136,69683,1,0,3:0:0:0:
311,114,69787,6,0,B|402:123|359:70|462:64,1,155.520003796875,14|0,1:2|0:0,0:0:0:0:
503,206,70097,1,8,0:0:0:0:
503,206,70201,2,0,P|486:259|487:297,1,77.7600018984376,0|0,1:0|0:0,0:0:0:0:
291,372,70407,2,0,P|287:333|273:297,1,77.7600018984376,8|0,0:0|0:0,0:0:0:0:
130,144,70614,1,12,1:2:0:0:
51,334,70821,1,2,0:0:0:0:
51,334,70925,1,8,0:0:0:0:
51,334,71028,2,0,P|109:309|141:267,1,77.7600018984376,2|0,1:2|0:0,0:0:0:0:
218,194,71235,2,0,P|249:217|286:228,1,77.7600018984376,10|0,0:0|0:0,0:0:0:0:
476,339,71442,38,0,P|468:249|460:151,1,174.720005865235,14|0,1:2|0:0,0:0:0:0:
242,69,71752,1,10,0:0:0:0:
246,73,71856,2,0,P|287:56|338:57,1,77.7600018984376,0|0,1:0|0:0,0:0:0:0:
154,263,72063,2,0,P|68:219|60:155,1,155.520003796875,10|8,0:0|1:2,0:0:0:0:
328,174,72476,1,2,0:0:0:0:
328,174,72580,1,8,0:0:0:0:
328,174,72683,2,0,P|325:213|331:265,1,77.7600018984376,0|0,1:0|0:0,0:0:0:0:
111,110,72890,2,0,P|116:72|116:28,1,77.7600018984376,10|0,0:0|0:0,0:0:0:0:
478,56,73097,6,0,B|432:35|401:11|401:11|354:15|309:29,1,174.720005865235,14|0,1:2|0:0,0:0:0:0:
158,205,73407,1,10,0:0:0:0:
158,205,73511,2,0,P|191:186|251:179,1,77.7600018984376,0|0,1:0|0:0,0:0:0:0:
474,274,73718,2,0,B|380:239|450:197|342:150,1,155.520003796875,10|8,0:0|1:2,0:0:0:0:
129,26,74132,1,2,0:0:0:0:
129,26,74235,1,8,0:0:0:0:
129,26,74338,2,0,P|173:33|228:62,1,77.7600018984376,2|0,1:2|0:0,0:0:0:0:
335,310,74545,2,0,P|323:268|313:211,1,77.7600018984376,10|0,0:0|0:0,0:0:0:0:
0,251,74752,38,0,P|20:176|28:76,1,174.720005865235,14|0,1:2|0:0,0:0:0:0:
332,11,75063,1,10,0:0:0:0:
332,11,75166,2,0,P|339:83|350:120,1,77.7600018984376,0|0,1:0|0:0,0:0:0:0:
403,258,75373,1,10,0:0:0:0:
114,205,75580,1,10,0:0:0:0:
167,152,75683,1,0,1:0:0:0:
241,156,75786,1,0,1:0:0:0:
290,213,75890,1,10,0:0:0:0:
312,287,75994,1,0,1:0:0:0:
361,345,76098,1,0,1:0:0:0:
437,353,76201,1,10,0:0:0:0:
492,298,76304,1,8,0:0:0:0:
488,219,76407,6,0,P|477:133|473:33,1,174.720005865235,6|8,1:2|0:2,0:0:0:0:
202,235,76718,2,0,P|212:149|216:51,1,174.720005865235,0|0,1:2|1:2,0:0:0:0:
7,358,77028,2,0,P|88:309|169:337,1,174.720005865235,8|0,0:2|1:2,0:0:0:0:
408,272,77442,2,0,P|416:220|428:175,1,77.7600018984376,10|0,0:2|1:2,0:0:0:0:
181,229,77649,2,0,P|173:177|161:132,1,77.7600018984376,2|0,0:0|1:2,0:0:0:0:
419,37,77856,2,0,P|410:74|405:113,1,77.7600018984376,10|0,0:2|0:0,0:0:0:0:
137,137,78063,38,0,P|43:138|-2:63,1,174.720005865235,6|8,1:2|0:2,0:0:0:0:
266,0,78373,2,0,P|273:75|295:175,1,174.720005865235,2|0,1:2|1:2,0:0:0:0:
472,278,78683,2,0,P|487:201|494:105,1,174.720005865235,10|0,0:2|1:2,0:0:0:0:
174,212,79097,2,0,P|223:193|272:191,1,77.7600018984376,10|0,0:2|1:2,0:0:0:0:
367,384,79304,2,0,P|324:352|277:338,1,77.7600018984376,2|0,0:0|1:2,0:0:0:0:
355,110,79511,2,0,P|389:149|408:194,1,77.7600018984376,10|0,0:2|0:0,0:0:0:0:
129,365,79718,6,0,B|32:344|95:277|-30:249,1,174.720005865235,6|8,1:2|0:2,0:0:0:0:
369,264,80028,2,0,P|457:236|484:144,1,174.720005865235,2|0,1:2|1:2,0:0:0:0:
193,14,80338,2,0,P|205:85|208:193,1,174.720005865235,10|0,0:2|1:2,0:0:0:0:
226,361,80752,2,0,P|265:340|304:334,1,77.7600018984376,10|0,0:2|1:2,0:0:0:0:
358,149,80959,2,0,P|326:119|290:103,1,77.7600018984376,2|0,0:0|1:2,0:0:0:0:
413,369,81166,2,0,P|432:335|439:297,1,77.7600018984376,10|0,0:2|0:0,0:0:0:0:
59,224,81373,38,0,B|158:195|90:140|219:101,1,174.720005865235,6|8,1:2|0:0,0:0:0:0:
446,172,81683,2,0,P|430:83|416:0,1,174.720005865235,10|0,0:0|3:2,0:0:0:0:
302,310,81994,2,0,P|398:362|468:337,1,174.720005865235,2|6,3:2|1:2,0:0:0:0:
210,76,82407,1,8,0:2:0:0:
210,76,82511,2,0,P|114:24|47:45,1,155.520003796875,10|8,0:2|3:2,0:0:0:0:
0,141,82821,1,10,3:2:0:0:
126,384,83028,6,0,L|121:120,2,247.680003779297,6|12|12,1:2|0:2|0:2,0:0:0:0:
308,36,83856,1,0,1:0:0:0:
211,298,84063,1,8,0:0:0:0:
512,307,84270,1,8,3:2:0:0:
495,301,84373,1,8,3:2:0:0:
477,296,84476,1,0,3:2:0:0:
374,107,84683,38,0,L|369:354,2,247.680003779297,4|12|12,1:2|0:2|0:2,0:0:0:0:
0,303,85511,1,0,1:0:0:0:
283,209,85718,1,8,0:0:0:0:
54,41,85925,1,8,0:0:0:0:
54,41,86028,1,8,0:0:0:0:
54,41,86132,1,0,1:0:0:0:
54,41,86235,1,0,1:0:0:0:
54,41,86338,37,4,1:2:0:0:
54,160,99580,38,0,L|72:297,2,132.479995552735,0|0|0,3:2|3:2|3:2,0:0:0:0:
116,11,100407,1,12,0:0:0:0:
450,223,102890,6,0,L|439:381,2,132.479995552735,0|0|0,3:2|3:2|3:2,0:0:0:0:
388,74,103717,1,12,0:0:0:0:
177,173,106201,38,0,B|93:151|152:117|59:90,2,132.479995552735,0|0|0,3:2|3:2|3:2,0:0:0:0:
351,96,107028,1,12,0:0:0:0:
369,320,109511,6,0,B|446:297|391:257|479:235,2,132.479995552735,0|0|0,3:2|3:2|3:2,0:0:0:0:
193,247,110338,1,12,0:0:0:0:
208,27,112821,37,0,3:2:0:0:
27,149,113028,1,2,0:0:0:0:
27,149,113132,2,0,B|105:156|71:105|181:114,1,132.479995552735,0|2,3:2|3:2,0:0:0:0:
302,169,113649,1,14,0:0:0:0:
153,328,114476,5,2,3:2:0:0:
340,194,114787,1,2,3:2:0:0:
340,194,114890,1,0,0:0:0:0:
350,359,115097,1,2,3:2:0:0:
196,210,115304,2,0,P|146:188|98:198,1,88.3199970351563,14|2,0:0|0:0,0:0:0:0:
24,292,115718,1,10,0:0:0:0:
223,84,116132,37,0,3:2:0:0:
361,216,116338,1,2,0:0:0:0:
361,216,116442,2,0,L|361:60,1,132.479995552735,0|2,3:2|3:2,0:0:0:0:
441,10,116959,1,14,0:0:0:0:
15,160,117787,5,2,3:2:0:0:
254,76,118097,1,2,3:2:0:0:
254,76,118201,1,0,0:0:0:0:
222,248,118407,1,2,3:2:0:0:
87,67,118614,2,0,P|110:140|111:189,1,88.3199970351563,14|2,0:0|0:0,0:0:0:0:
62,290,119028,1,10,0:0:0:0:
436,109,119442,37,0,3:2:0:0:
307,234,119649,1,2,0:0:0:0:
307,234,119752,2,0,P|371:230|450:272,1,132.479995552735,0|2,3:2|3:2,0:0:0:0:
509,356,120270,1,14,0:0:0:0:
150,258,121097,5,2,3:2:0:0:
248,23,121407,1,2,3:2:0:0:
248,23,121511,1,0,0:0:0:0:
302,213,121718,1,2,3:2:0:0:
143,105,121925,2,0,P|81:76|32:86,1,88.3199970351563,14|2,0:0|0:0,0:0:0:0:
0,204,122338,1,10,0:0:0:0:
304,131,122752,37,0,3:2:0:0:
162,237,122959,1,2,0:0:0:0:
162,237,123063,2,0,P|221:221|314:261,1,132.479995552735,0|2,3:2|3:2,0:0:0:0:
373,345,123580,1,14,0:0:0:0:
233,94,124407,5,2,3:2:0:0:
488,158,124718,1,2,3:2:0:0:
488,158,124821,1,0,0:0:0:0:
315,216,125028,1,2,3:2:0:0:
422,25,125235,2,0,P|428:50|440:79,3,44.1599985175782,10|8|10|0,0:0|0:0|0:0|3:0,0:0:0:0:
387,164,125649,1,10,0:0:0:0:
397,206,125752,1,8,0:0:0:0:
393,250,125855,1,10,0:0:0:0:
373,289,125959,1,8,0:0:0:0:
335,313,126063,38,0,P|269:290|237:234,1,107.5200013125,4|2,1:2|0:0,0:0:0:0:
63,267,126373,1,8,0:0:0:0:
63,267,126476,2,0,P|106:229|121:176,1,107.5200013125,2|10,0:0|0:0,0:0:0:0:
124,21,126890,2,0,P|181:19|241:9,1,107.5200013125,10|0,0:2|0:0,0:0:0:0:
465,85,127201,1,8,0:0:0:0:
465,85,127304,2,0,P|408:83|346:72,1,107.5200013125,0|10,0:0|0:0,0:0:0:0:
257,142,127718,6,0,P|266:195|276:260,1,107.5200013125,10|0,0:2|0:0,0:0:0:0:
427,343,128028,1,10,0:0:0:0:
427,343,128132,2,0,P|434:292|444:231,1,107.5200013125,0|10,0:0|0:0,0:0:0:0:
255,289,128545,2,0,B|175:294|216:254|116:264,1,107.5200013125,10|2,0:2|0:0,0:0:0:0:
36,129,128856,1,8,0:0:0:0:
36,129,128959,2,0,B|103:141|71:95|161:103,1,107.5200013125,2|10,0:0|0:0,0:0:0:0:
264,175,129373,38,0,P|269:117|265:60,1,107.5200013125,4|2,1:2|0:0,0:0:0:0:
447,15,129683,1,8,0:0:0:0:
447,15,129787,2,0,P|443:73|450:131,1,107.5200013125,2|10,0:0|0:0,0:0:0:0:
402,296,130201,2,0,P|491:295|517:272,1,107.5200013125,10|0,0:2|0:0,0:0:0:0:
257,175,130511,1,8,0:0:0:0:
257,175,130614,2,0,P|170:152|131:171,1,107.5200013125,0|10,0:0|0:0,0:0:0:0:
8,271,131028,6,0,B|20:218|20:218|12:160,1,107.5200013125,10|0,0:2|0:0,0:0:0:0:
139,29,131338,1,10,0:0:0:0:
139,29,131442,2,0,B|131:80|131:80|145:134,1,107.5200013125,0|10,0:0|0:0,0:0:0:0:
188,251,131856,1,2,3:2:0:0:
344,68,132063,1,10,0:0:0:0:
389,295,132270,1,2,1:2:0:0:
377,255,132373,1,8,0:0:0:0:
356,220,132476,1,10,0:0:0:0:
327,192,132580,1,8,0:0:0:0:
291,172,132683,37,4,1:2:0:0:
453,69,132890,2,0,B|378:64|417:18|329:16,1,126.719999613281,10|2,0:0|0:0,0:0:0:0:
189,57,133201,1,0,1:0:0:0:
189,57,133304,1,10,0:0:0:0:
293,275,133511,2,0,P|385:292|429:266,1,126.719999613281,2|8,1:2|0:0,0:0:0:0:
322,93,133925,1,0,1:0:0:0:
322,93,134028,1,0,1:0:0:0:
322,93,134131,1,8,0:0:0:0:
144,307,134338,5,0,1:2:0:0:
22,130,134545,2,0,P|93:123|162:105,1,126.719999613281,10|2,0:0|0:0,0:0:0:0:
256,10,134856,1,0,1:0:0:0:
256,10,134959,1,10,0:0:0:0:
452,202,135166,2,0,P|405:142|320:144,1,126.719999613281,2|8,1:2|0:0,0:0:0:0:
139,207,135580,1,0,1:0:0:0:
139,207,135683,1,0,1:0:0:0:
139,207,135786,1,8,0:0:0:0:
135,22,135993,37,4,1:2:0:0:
285,130,136201,2,0,P|290:186|295:274,1,126.719999613281,10|2,0:0|0:0,0:0:0:0:
219,383,136511,1,0,1:0:0:0:
219,383,136614,1,10,0:0:0:0:
424,324,136821,2,0,P|426:269|432:197,1,126.719999613281,2|8,1:2|0:0,0:0:0:0:
365,62,137235,2,0,P|360:30|355:0,2,63.3599998066406,2|0|10,0:0|1:0|0:0,0:0:0:0:
171,114,137649,6,0,P|93:102|0:94,1,145.91999821875,6|8,1:2|0:2,0:0:0:0:
173,258,137959,2,0,P|243:248|317:241,1,145.91999821875,6|8,1:2|0:0,0:0:0:0:
314,359,138270,1,6,1:2:0:0:
44,261,138476,1,2,1:2:0:0:
243,62,138683,1,2,3:2:0:0:
185,362,138890,1,10,0:0:0:0:
203,290,138993,1,8,0:0:0:0:
261,247,139096,1,10,0:0:0:0:
333,240,139200,1,8,0:0:0:0:
396,275,139304,38,0,B|359:148|446:191|407:57,1,222.720006796875,6|8,1:2|1:2,0:0:0:0:
438,54,139614,2,0,B|476:184|389:141|426:268,1,222.720006796875,6|8,1:2|0:2,0:0:0:0:
506,373,139925,1,6,1:2:0:0:
119,154,140132,6,0,B|241:93|214:187|332:127,1,222.720006796875,10|0,3:2|0:0,0:0:0:0:
317,104,140442,2,0,B|198:162|225:69|103:128,1,222.720006796875,10|0,3:2|0:0,0:0:0:0:
11,294,140752,1,8,3:2:0:0:
51,13,140959,5,4,1:2:0:0:
498,364,142614,5,6,1:2:0:0:
295,0,144270,37,6,1:2:0:0:
175,384,145925,5,2,1:2:0:0:
356,88,146235,1,2,1:2:0:0:
9,110,146545,1,2,1:2:0:0:
317,236,146752,2,0,B|409:265|341:294|449:335,1,144,2|0,0:0|0:0,0:0:0:0:
463,314,147166,1,8,0:0:0:0:
461,275,147269,1,8,0:0:0:0:
459,236,147372,1,10,0:0:0:0:
457,197,147476,1,8,0:0:0:0:
456,158,147580,38,0,L|451:49,1,82.5600012597657,6|0,1:2|0:0,0:0:0:0:
171,218,147787,1,8,0:0:0:0:
171,218,147890,2,0,L|167:300,1,82.5600012597657,0|0,1:0|0:0,0:0:0:0:
330,24,148097,1,0,1:0:0:0:
330,24,148201,2,0,P|251:0|224:5,1,82.5600012597657,8|0,0:0|0:0,0:0:0:0:
82,99,148407,2,0,P|3:123|-24:118,1,82.5600012597657,0|0,1:2|0:0,0:0:0:0:
316,151,148614,1,10,0:0:0:0:
316,151,148718,2,0,P|408:154|477:114,1,165.120002519531,0|0,1:0|1:0,0:0:0:0:
510,276,149028,2,0,P|442:303|420:326,1,82.5600012597657,10|0,0:0|0:0,0:0:0:0:
198,384,149235,6,0,P|185:285|171:166,1,184.3200045,6|8,1:2|0:0,0:0:0:0:
22,44,149545,2,0,P|12:130|0:226,1,184.3200045,2|0,1:2|1:2,0:0:0:0:
224,75,149856,2,0,B|332:65|281:5|395:0,1,184.3200045,10|0,0:2|1:0,0:0:0:0:
305,235,150270,2,0,P|285:282|275:334,1,82.5600012597657,10|0,0:0|1:0,0:0:0:0:
73,125,150476,2,0,P|93:172|103:224,1,82.5600012597657,2|0,0:0|1:0,0:0:0:0:
328,245,150683,2,0,P|308:292|298:344,1,82.5600012597657,10|0,0:0|0:0,0:0:0:0:
4,360,150890,38,0,B|39:366|71:352|71:352|100:297|187:275,1,184.3200045,6|8,1:2|0:0,0:0:0:0:
413,208,151201,2,0,B|379:219|345:210|345:210|309:159|220:150,1,184.3200045,2|0,1:2|1:2,0:0:0:0:
26,235,151511,2,0,P|18:137|8:42,1,184.3200045,10|0,0:2|1:0,0:0:0:0:
343,41,151925,2,0,P|253:21|234:23,1,82.5600012597657,10|0,0:0|1:0,0:0:0:0:
321,255,152132,2,0,P|361:249|400:235,1,82.5600012597657,2|0,0:0|1:0,0:0:0:0:
345,19,152338,2,0,P|255:0|236:1,1,82.5600012597657,10|0,0:0|0:0,0:0:0:0:
139,143,152545,6,0,P|147:179|153:233,2,82.5600012597657,14|0|8,1:2|1:0|0:0,0:0:0:0:
111,346,152856,1,2,1:2:0:0:
111,346,152959,2,0,P|24:308|-27:316,1,82.5600012597657,8|0,1:2|1:2,0:0:0:0:
297,130,153166,2,0,P|287:166|280:212,1,82.5600012597657,10|8,0:2|0:0,0:0:0:0:
25,110,153373,1,6,3:2:0:0:
62,38,153476,1,0,3:2:0:0:
137,11,153579,1,8,3:2:0:0:
212,40,153683,1,10,3:2:0:0:
267,101,153787,1,0,1:0:0:0:
342,130,153891,1,0,3:0:0:0:
417,103,153994,1,2,1:2:0:0:
445,25,154097,1,0,1:0:0:0:
364,43,154201,38,0,P|379:126|399:242,1,193.91999615332,14|0,1:2|1:0,0:0:0:0:
175,384,154511,2,0,P|191:290|208:193,1,193.91999615332,8|0,1:2|1:0,0:0:0:0:
45,111,154821,2,0,B|174:130|109:48|253:65,1,193.91999615332,8|8,0:0|1:2,0:0:0:0:
510,276,155235,2,0,P|443:250|391:251,1,82.5600012597657,10|8,0:0|1:2,0:0:0:0:
238,352,155442,2,0,P|278:343|315:324,1,82.5600012597657,2|0,0:0|1:0,0:0:0:0:
348,170,155649,2,0,L|365:89,1,82.5600012597657,10|0,0:0|0:0,0:0:0:0:
70,38,155856,6,0,P|89:124|111:240,1,193.91999615332,14|0,1:2|1:2,0:0:0:0:
446,110,156166,2,0,B|322:115|386:39|243:35,1,193.91999615332,10|0,1:2|1:2,0:0:0:0:
119,356,156476,2,0,B|243:361|179:285|322:281,1,193.91999615332,10|8,0:2|1:2,0:0:0:0:
512,273,156890,1,10,0:0:0:0:
512,273,156994,2,0,P|419:256|357:171,1,165.120002519531,8|0,1:2|1:0,0:0:0:0:
340,39,157304,1,10,0:0:0:0:
148,236,157511,38,0,P|163:141|170:44,1,193.91999615332,14|0,1:2|1:2,0:0:0:0:
447,0,157821,2,0,P|455:96|469:192,1,193.91999615332,10|0,1:2|1:2,0:0:0:0:
242,356,158132,2,0,P|141:377|49:332,1,193.91999615332,10|8,0:2|1:2,0:0:0:0:
510,327,158545,1,10,0:0:0:0:
510,327,158649,2,0,P|510:240|513:139,1,165.120002519531,8|0,1:2|1:0,0:0:0:0:
458,7,158959,1,10,0:0:0:0:
234,148,159166,6,0,B|118:141|180:69|39:73,1,193.91999615332,14|0,1:2|1:2,0:0:0:0:
0,384,159476,2,0,B|113:356|39:296|179:276,1,193.91999615332,10|0,1:2|1:2,0:0:0:0:
309,278,159787,1,10,0:2:0:0:
380,302,159890,1,8,0:0:0:0:
445,264,159993,1,10,1:2:0:0:
457,190,160097,1,8,0:0:0:0:
426,118,160201,1,8,0:0:0:0:
438,44,160305,1,10,0:0:0:0:
503,7,160408,1,8,3:2:0:0:
488,82,160511,1,0,3:2:0:0:
426,118,160614,1,2,3:2:0:0:
351,95,160718,1,0,3:2:0:0:
305,32,160821,38,0,P|246:7|195:2,1,82.5600012597657,6|0,1:2|0:0,0:0:0:0:
12,152,161028,1,8,0:0:0:0:
12,152,161132,2,0,P|62:112|110:94,1,82.5600012597657,0|0,1:0|0:0,0:0:0:0:
273,230,161338,1,0,1:0:0:0:
273,230,161442,2,0,P|261:177|258:127,1,82.5600012597657,8|0,0:0|0:0,0:0:0:0:
50,355,161649,2,0,P|62:302|65:252,1,82.5600012597657,0|0,1:2|0:0,0:0:0:0:
341,358,161856,2,0,P|297:368|246:362,1,82.5600012597657,10|0,0:0|1:0,0:0:0:0:
396,155,162063,2,0,P|435:133|486:126,1,82.5600012597657,2|0,0:0|1:0,0:0:0:0:
346,377,162270,2,0,P|302:387|251:381,1,82.5600012597657,10|0,0:0|0:0,0:0:0:0:
152,192,162476,6,0,P|171:106|179:-2,1,193.91999615332,6|8,1:2|0:0,0:0:0:0:
459,8,162787,2,0,P|464:95|490:200,1,193.91999615332,2|0,1:2|1:2,0:0:0:0:
482,340,163097,2,0,B|377:325|446:261|299:243,1,193.91999615332,10|0,0:2|1:0,0:0:0:0:
80,261,163511,2,0,P|27:235|-18:226,1,82.5600012597657,10|0,0:0|1:0,0:0:0:0:
207,105,163718,2,0,P|260:79|319:72,1,82.5600012597657,2|0,0:0|1:0,0:0:0:0:
75,283,163925,2,0,P|22:257|-38:250,1,82.5600012597657,10|0,0:0|0:0,0:0:0:0:
102,17,164132,38,0,B|191:78|109:102|208:172,1,193.91999615332,6|8,1:2|0:0,0:0:0:0:
406,296,164442,2,0,P|479:269|497:128,1,193.91999615332,2|0,1:2|1:2,0:0:0:0:
249,384,164752,2,0,P|176:357|139:222,1,193.91999615332,10|0,0:2|1:0,0:0:0:0:
332,53,165166,2,0,P|366:36|441:27,1,82.5600012597657,10|0,0:0|1:0,0:0:0:0:
210,215,165373,2,0,P|181:189|109:160,1,82.5600012597657,2|0,0:0|1:0,0:0:0:0:
333,26,165580,2,0,P|367:9|443:-1,1,82.5600012597657,10|0,0:0|0:0,0:0:0:0:
449,246,165787,6,0,B|350:217|418:162|299:125,1,193.91999615332,6|8,1:2|0:0,0:0:0:0:
61,20,166097,2,0,P|45:110|28:212,1,193.91999615332,10|0,1:2|1:2,0:0:0:0:
91,378,166407,2,0,P|125:340|184:311,1,96.9599980766602,2|0,3:2|0:0,0:0:0:0:
364,284,166614,1,10,3:2:0:0:
364,284,166718,2,0,P|340:238|291:195,1,96.9599980766602,8|0,3:2|3:2,0:0:0:0:
197,74,166925,1,2,3:2:0:0:
197,74,167028,2,0,P|261:27|348:54,1,165.120002519531,8|2,0:0|3:2,0:0:0:0:
490,247,167338,1,0,3:0:0:0:
490,247,167442,38,0,L|487:-30,2,247.680003779297,6|8|8,1:2|0:0|0:0,0:0:0:0:
85,268,168270,1,0,1:0:0:0:
355,108,168476,1,8,0:0:0:0:
404,384,168683,1,0,1:0:0:0:
392,353,168786,1,0,1:0:0:0:
381,322,168889,1,0,1:0:0:0:
220,92,169097,6,0,L|217:339,2,247.680003779297,12|8|8,0:0|0:0|0:0,0:0:0:0:
19,241,169925,1,0,1:0:0:0:
58,217,170028,1,0,1:0:0:0:
101,203,170131,1,0,1:0:0:0:
146,200,170235,1,0,1:0:0:0:
191,207,170338,2,0,P|242:221|290:223,1,82.5600012597657,0|0,1:0|0:0,0:0:0:0:
469,263,170545,1,8,3:2:0:0:
469,263,170649,1,0,1:0:0:0:
469,263,170752,38,0,B|364:215|441:179|334:122,1,193.91999615332,6|0,1:2|0:0,0:0:0:0:
174,362,171063,2,0,B|279:314|202:278|309:221,1,193.91999615332,6|0,1:2|0:0,0:0:0:0:
502,148,171373,1,6,1:2:0:0:
23,124,171580,6,0,B|128:172|51:208|158:265,1,193.91999615332,14|0,1:2|0:0,0:0:0:0:
318,25,171891,2,0,B|213:73|290:109|183:166,1,193.91999615332,14|0,1:2|0:0,0:0:0:0:
26,287,172201,1,14,1:2:0:0:
308,373,172407,38,0,B|341:227|341:227|410:251|394:205|462:232|462:232|499:100|499:100|404:54|415:113|313:78|313:78|339:18|339:18|318:10|318:10|246:210|246:210|253:275|253:275|266:211|266:211|214:0|214:0|192:7|192:7|210:62|210:62|103:96|122:46|23:77|23:77|53:213|53:213|123:199|100:240|171:223|171:223|189:377,1,1935.36004725,6|0,1:2|0:2,0:0:0:0:
