osu file format v14

[General]
AudioFilename: audio.mp3
AudioLeadIn: 0
PreviewTime: 56058
Countdown: 0
SampleSet: Soft
StackLeniency: 0.7
Mode: 0
LetterboxInBreaks: 0
WidescreenStoryboard: 1

[Editor]
Bookmarks: 8225,19058,29725,40391
DistanceSpacing: 0.5
BeatDivisor: 4
GridSize: 4
TimelineZoom: 3.099999

[Metadata]
Title:My Hero
TitleUnicode:My Hero
Artist:MAN WITH A MISSION
ArtistUnicode:MAN WITH A MISSION
Creator:toybot
Version:Zekk's Insane
Source:いぬやしき
Tags:inu yashiki inuyashiki [ - Zekks - ] Hazu- Underforest
BeatmapID:1461832
BeatmapSetID:689957

[Difficulty]
HPDrainRate:6
CircleSize:4.2
OverallDifficulty:8
ApproachRate:9
SliderMultiplier:1.75
SliderTickRate:1

[Events]
//Background and Video events
0,0,"b8905846.jpg",0,0
Video,180,"pew pew noise.avi"
//Break Periods
//Storyboard Layer 0 (Background)
//Storyboard Layer 1 (Fail)
//Storyboard Layer 2 (Pass)
//Storyboard Layer 3 (Foreground)
//Storyboard Sound Samples

[TimingPoints]
392,333.333333333333,4,3,1,40,1,0
392,-133.333333333333,4,3,1,40,0,0
6391,-111.111111111111,4,3,1,40,0,0
7058,-95.2380952380952,4,3,1,40,0,0
7725,-95.2380952380952,4,2,1,40,0,0
8225,-95.2380952380952,4,2,1,70,0,0
8725,-100,4,2,1,70,0,0
29725,-133.333333333333,4,2,1,50,0,0
39058,-111.111111111111,4,2,1,60,0,0
40391,-111.111111111111,4,2,1,70,0,0
50225,-133.333333333333,4,2,1,65,0,0
50558,-200,4,2,1,60,0,0
54308,-200,4,2,1,5,0,0
54391,-166.666666666667,4,2,1,60,0,0
54975,-166.666666666667,4,2,1,5,0,0
55058,-107.52688172043,4,2,1,70,0,0
56225,-90.9090909090909,4,2,1,80,0,1
89391,-90.9090909090909,4,2,1,5,0,0

[Colours]
Combo1 : 100,100,100
Combo2 : 255,62,62
Combo3 : 64,128,128
Combo4 : 174,0,0

[HitObjects]
138,278,392,6,0,P|186:293|264:228,1,131.25000500679,8|0,0:0|0:0,0:0:0:0:
273,163,836,2,0,L|264:104,1,43.7500016689301,0|0,0:0|0:0,0:0:0:0:
264,185,1058,2,0,L|124:176,1,131.25000500679,8|0,0:0|0:0,0:0:0:0:
48,220,1503,2,0,L|58:280,1,43.7500016689301,0|0,0:0|0:0,0:0:0:0:
104,321,1725,6,0,P|159:337|237:290,1,131.25000500679,8|0,0:0|0:0,0:0:0:0:
266,213,2169,2,0,L|250:144,1,43.7500016689301,0|0,0:0|0:0,0:0:0:0:
255,238,2391,2,0,P|315:205|374:235,1,131.25000500679,8|0,0:0|0:0,0:0:0:0:
454,276,2836,2,0,L|510:269,1,43.7500016689301,0|0,0:0|0:0,0:0:0:0:
459,302,3058,6,0,B|449:246|449:246|454:235|454:235|444:165,1,131.25000500679,8|0,0:0|0:0,0:0:0:0:
396,80,3503,2,0,L|338:88,1,43.7500016689301,0|0,0:0|0:0,0:0:0:0:
405,57,3725,2,0,P|439:40|514:88,1,131.25000500679,8|0,0:0|0:0,0:0:0:0:
483,151,4169,2,0,L|423:146,1,43.7500016689301,0|0,0:0|0:0,0:0:0:0:
353,144,4391,6,0,B|283:136|300:168|217:149,1,131.25000500679,8|0,0:0|0:0,0:0:0:0:
136,172,4836,2,0,L|118:115,1,43.7500016689301,0|0,0:0|0:0,0:0:0:0:
210,237,5058,2,0,L|202:273,10,21.8750008344651,8|0|0|0|0|0|0|0|0|0|0,0:0|0:0|0:0|0:0|0:0|0:0|0:0|0:0|0:0|0:0|0:0,0:0:0:0:
276,309,5725,6,0,P|305:331|399:308,1,131.25000500679,10|0,0:0|0:0,0:0:0:0:
437,242,6169,2,0,L|425:182,1,43.7500016689301,0|0,0:0|0:0,0:0:0:0:
259,325,6391,6,0,P|288:347|392:309,1,157.499995193482,10|0,0:0|0:0,0:0:0:0:
320,276,6836,2,0,L|310:215,1,52.4999983978272,0|0,0:0|0:0,0:0:0:0:
293,145,7058,6,0,B|282:91|259:67|259:67|233:60|210:38|210:38|192:62|171:77|171:77|151:101|153:173,1,275.624991588593,10|0,0:0|0:0,0:0:0:0:
239,288,7725,5,8,1:2:0:0:
320,276,7891,1,4,1:3:0:0:
401,264,8058,1,4,1:3:0:0:
215,292,8225,6,0,L|200:102,1,183.749994392395,6|2,1:2|0:0,0:0:0:0:
125,211,8725,1,2,0:0:0:0:
324,164,8891,1,0,0:0:0:0:
95,216,9058,2,0,L|105:124,1,87.5,8|0,0:0|0:0,0:0:0:0:
388,228,9391,2,0,P|344:254|292:246,1,87.5,0|0,0:0|0:0,0:0:0:0:
354,81,9725,6,0,L|464:89,1,87.5,2|0,0:0|0:0,0:0:0:0:
207,123,10058,2,0,B|191:79|191:79|203:16,1,87.5,2|0,0:0|0:0,0:0:0:0:
354,81,10391,1,8,0:0:0:0:
259,205,10558,2,0,B|215:221|215:221|152:209,1,87.5,0|0,0:0|0:0,0:0:0:0:
350,64,10891,6,0,B|451:48|421:93|530:68,1,175,6|2,0:0|0:0,0:0:0:0:
207,123,11391,2,0,P|161:104|96:112,1,87.5,2|0,0:0|0:0,0:0:0:0:
276,291,11725,2,0,L|379:282,1,87.5,12|0,0:0|0:0,0:0:0:0:
116,240,12058,1,0,0:0:0:0:
229,355,12225,1,8,0:0:0:0:
291,130,12391,6,0,B|249:115|249:115|188:126,1,87.5,2|0,0:0|0:0,0:0:0:0:
377,197,12725,2,0,L|477:188,1,87.5,2|0,0:0|0:0,0:0:0:0:
245,213,13058,1,8,0:2:0:0:
366,333,13225,1,4,0:3:0:0:
333,121,13391,1,4,0:3:0:0:
221,315,13558,6,0,P|153:333|75:253,1,175,6|2,0:0|0:0,0:0:0:0:
413,254,14058,2,0,P|445:286|454:356,1,87.5,2|0,0:0|0:0,0:0:0:0:
245,213,14391,2,0,L|252:113,1,87.5,8|0,0:0|0:0,0:0:0:0:
318,290,14725,1,0,0:0:0:0:
132,206,14891,6,0,P|96:231|79:307,1,87.5,2|0,0:0|0:0,0:0:0:0:
170,289,15225,1,2,0:0:0:0:
189,121,15391,2,0,L|183:28,1,87.5,2|0,0:0|0:0,0:0:0:0:
171,308,15725,2,0,P|257:302|369:298,1,175,12|8,0:0|0:0,0:0:0:0:
189,121,16225,6,0,B|89:110|122:155|-1:131,1,175,6|2,0:0|0:0,0:0:0:0:
319,41,16725,2,0,P|349:85|356:136,1,87.5,2|0,0:0|0:0,0:0:0:0:
202,234,17058,2,0,B|224:196|224:196|285:180,1,87.5,12|0,0:0|0:0,0:0:0:0:
217,354,17391,1,2,0:0:0:0:
109,220,17558,1,8,0:0:0:0:
338,218,17725,5,2,0:0:0:0:
123,306,17891,1,0,0:0:0:0:
307,357,18058,2,0,P|297:313|251:266,1,87.5,2|0,0:0|0:0,0:0:0:0:
416,96,18391,1,8,0:0:0:0:
256,183,18558,1,4,0:3:0:0:
481,219,18725,1,4,0:3:0:0:
281,184,18891,6,0,L|265:85,1,87.5,6|0,0:0|0:0,0:0:0:0:
225,272,19225,2,0,B|246:310|246:310|292:332,1,87.5,2|2,0:0|0:0,0:0:0:0:
355,202,19558,1,0,0:0:0:0:
169,162,19725,2,0,B|130:183|130:183|108:229,1,87.5,8|0,0:0|0:0,0:0:0:0:
379,198,20058,2,0,L|479:187,1,87.5,0|0,0:0|0:0,0:0:0:0:
204,329,20391,6,0,P|207:285|182:240,1,87.5,2|0,0:0|0:0,0:0:0:0:
121,302,20725,1,2,0:0:0:0:
303,231,20891,1,0,0:0:0:0:
169,162,21058,1,8,0:0:0:0:
225,356,21225,1,4,0:3:0:0:
323,224,21391,1,4,0:3:0:0:
95,233,21558,1,6,0:0:0:0:
258,280,21725,5,0,0:0:0:0:
235,77,21891,1,2,0:0:0:0:
261,303,22058,2,0,L|146:293,1,87.5,2|0,0:0|0:0,0:0:0:0:
429,240,22391,2,0,P|460:278|464:351,1,87.5,12|0,0:0|0:0,0:0:0:0:
317,166,22725,2,0,L|323:67,1,87.5,0|8,0:0|0:0,0:0:0:0:
336,271,23058,5,8,0:0:0:0:
258,266,23225,1,0,0:0:0:0:
180,261,23391,1,2,0:0:0:0:
223,195,23558,1,8,0:0:0:0:
215,332,23725,1,8,0:0:0:0:
101,257,23891,1,4,0:3:0:0:
306,196,24058,1,4,0:3:0:0:
155,111,24225,6,0,B|111:101|111:101|52:130,1,87.5,6|0,0:0|0:0,0:0:0:0:
258,266,24558,1,2,0:0:0:0:
323,123,24725,2,0,B|333:79|333:79|304:20,1,87.5,2|0,0:0|0:0,0:0:0:0:
408,250,25058,2,0,L|512:238,1,87.5,8|0,0:0|0:0,0:0:0:0:
228,271,25391,1,0,0:0:0:0:
325,344,25558,6,0,L|310:138,1,175,6|2,0:0|0:0,0:0:0:0:
409,82,26058,2,0,P|394:133|403:204,1,87.5,2|0,0:0|0:0,0:0:0:0:
488,142,26391,1,8,0:0:0:0:
307,82,26558,1,4,0:3:0:0:
512,46,26725,1,4,0:3:0:0:
304,182,26891,6,0,B|329:220|329:220|327:279,1,87.5,6|0,0:0|0:0,0:0:0:0:
171,189,27225,1,2,0:0:0:0:
307,82,27391,2,0,B|345:57|345:57|404:59,1,87.5,2|0,0:0|0:0,0:0:0:0:
147,197,27725,2,0,L|138:97,1,87.5,12|0,0:0|0:0,0:0:0:0:
243,246,28058,1,2,0:0:0:0:
54,189,28225,1,8,0:0:0:0:
286,125,28391,6,0,P|319:166|326:222,1,87.5,8|0,0:0|0:0,0:0:0:0:
104,129,28725,2,0,L|107:34,1,87.5,10|0,0:0|0:0,0:0:0:0:
202,269,29058,1,8,0:0:0:0:
23,184,29225,1,4,0:3:0:0:
252,105,29391,1,4,0:3:0:0:
78,253,29558,1,4,0:3:0:0:
319,232,29725,6,0,B|391:223|371:256|465:235,1,131.25000500679,6|0,0:0|0:0,0:0:0:0:
483,167,30225,1,0,0:0:0:0:
448,93,30391,2,0,P|415:83|375:96,1,65.6250025033952,2|0,0:0|0:0,0:0:0:0:
385,234,30725,2,0,P|415:243|447:237,1,65.6250025033952,0|0,0:0|0:0,0:0:0:0:
324,160,31058,6,0,L|178:167,1,131.25000500679,2|0,0:0|0:0,0:0:0:0:
192,166,31725,2,0,L|202:81,1,65.6250025033952,2|0,0:0|0:0,0:0:0:0:
246,39,32058,2,0,P|277:31|332:44,1,65.6250025033952,0|0,0:0|0:0,0:0:0:0:
215,256,32391,6,0,P|158:254|104:190,1,131.25000500679,2|0,0:0|0:0,0:0:0:0:
285,194,32891,1,0,0:0:0:0:
285,194,33058,2,0,P|306:232|307:284,1,65.6250025033952,2|0,0:0|0:0,0:0:0:0:
138,340,33391,2,0,P|143:301|163:262,1,65.6250025033952,0|0,0:0|0:0,0:0:0:0:
255,114,33725,6,0,B|333:101|305:141|388:126,1,131.25000500679,2|0,0:0|0:0,0:0:0:0:
449,80,34225,1,0,0:0:0:0:
494,146,34391,2,0,P|511:191|507:224,1,65.6250025033952,2|0,0:0|0:0,0:0:0:0:
459,268,34725,2,0,P|424:280|375:268,1,65.6250025033952,0|8,0:0|0:0,0:0:0:0:
189,294,35058,6,0,P|269:276|320:318,1,131.25000500679,6|0,0:0|0:0,0:0:0:0:
245,356,35558,1,0,0:0:0:0:
103,303,35725,1,2,0:0:0:0:
103,303,35891,2,0,L|113:218,1,65.6250025033952,0|0,0:0|0:0,0:0:0:0:
135,160,36225,1,0,0:0:0:0:
193,98,36391,6,0,P|228:87|276:95,2,65.6250025033952,2|0|0,0:0|0:0|0:0,0:0:0:0:
237,175,36891,1,0,0:0:0:0:
327,156,37058,2,0,L|403:144,1,65.6250025033952,2|0,0:0|0:0,0:0:0:0:
209,180,37391,2,0,P|190:222|190:260,1,65.6250025033952,0|0,0:0|0:0,0:0:0:0:
300,300,37725,6,0,P|290:256|267:226,1,65.6250025033952,2|0,0:0|0:0,0:0:0:0:
134,323,38058,2,0,L|206:330,1,65.6250025033952,0|0,0:0|0:0,0:0:0:0:
209,180,38391,2,0,B|131:162|154:201|56:180,1,131.25000500679,2|0,0:0|0:0,0:0:0:0:
32,122,38891,1,0,1:0:0:0:
25,106,38975,1,0,1:0:0:0:
25,86,39058,5,8,0:0:0:0:
292,159,39225,1,2,0:0:0:0:
292,159,39558,1,2,0:0:0:0:
148,299,39891,1,2,0:0:0:0:
170,66,40058,1,8,0:0:0:0:
20,168,40225,1,8,0:0:0:0:
215,203,40391,6,0,L|120:213,1,78.7499975967408,6|0,0:0|0:0,0:0:0:0:
281,116,40725,1,0,0:0:0:0:
281,116,40891,1,0,0:0:0:0:
352,232,41058,2,0,B|372:267|372:267|365:318,1,78.7499975967408,8|0,0:0|0:0,0:0:0:0:
269,208,41391,1,0,0:0:0:0:
469,243,41558,1,0,0:0:0:0:
276,307,41725,5,2,0:0:0:0:
276,307,41891,1,0,0:0:0:0:
485,232,42058,2,0,L|477:328,1,78.7499975967408,0|0,0:0|0:0,0:0:0:0:
339,117,42391,2,0,P|374:92|428:94,1,78.7499975967408,8|0,0:0|0:0,0:0:0:0:
320,217,42725,1,0,0:0:0:0:
320,217,42891,1,0,0:0:0:0:
162,188,43058,6,0,L|62:176,1,78.7499975967408,2|0,0:0|0:0,0:0:0:0:
363,136,43391,2,0,P|396:163|413:223,1,78.7499975967408,0|0,0:0|0:0,0:0:0:0:
320,217,43725,1,8,0:0:0:0:
320,217,43891,1,0,0:0:0:0:
334,47,44058,2,0,P|361:14|421:-3,1,78.7499975967408,0|0,0:0|0:0,0:0:0:0:
323,233,44391,5,2,0:0:0:0:
230,157,44558,1,0,0:0:0:0:
412,97,44725,1,8,0:0:0:0:
264,44,44891,1,8,0:0:0:0:
324,251,45058,1,0,0:0:0:0:
393,103,45225,1,4,0:3:0:0:
202,164,45391,1,4,0:3:0:0:
351,299,45558,1,4,0:3:0:0:
292,55,45725,6,6,B|201:37|224:78|125:58,1,157.499995193482,6|0,0:0|0:0,0:0:0:0:
136,300,46225,1,0,0:0:0:0:
246,209,46391,2,0,P|293:213|351:299,1,157.499995193482,8|0,0:0|0:0,0:0:0:0:
136,300,46891,1,0,0:0:0:0:
194,126,47058,5,2,0:0:0:0:
287,231,47225,1,0,0:0:0:0:
43,262,47391,2,0,B|34:221|34:221|54:173,1,78.7499975967408,0|0,0:0|0:0,0:0:0:0:
306,235,47725,2,0,L|299:332,1,78.7499975967408,8|0,0:0|0:0,0:0:0:0:
209,223,48058,1,0,0:0:0:0:
409,253,48225,1,0,0:0:0:0:
185,220,48391,6,0,L|189:305,1,78.7499975967408,2|0,0:0|0:0,0:0:0:0:
255,63,48725,2,0,P|218:41|154:48,1,78.7499975967408,0|0,0:0|0:0,0:0:0:0:
348,148,49058,1,8,0:0:0:0:
486,101,49225,1,0,0:0:0:0:
325,155,49391,2,0,L|335:56,1,78.7499975967408,0|0,0:0|0:0,0:0:0:0:
253,216,49725,5,8,0:0:0:0:
459,203,49891,1,2,0:0:0:0:
225,221,50225,5,2,0:0:0:0:
486,204,50558,1,2,0:0:0:0:
358,215,50891,1,8,0:0:0:0:
426,342,51058,5,6,0:0:0:0:
339,82,51725,5,6,0:0:0:0:
215,303,52391,5,6,0:0:0:0:
441,143,53058,5,6,0:0:0:0:
140,238,53725,6,0,P|172:213|261:268,1,153.125,6|0,0:0|0:0,0:0:0:0:
267,288,54391,2,0,P|319:337|409:271,1,183.749994392395,6|0,0:0|0:0,0:0:0:0:
416,262,55058,6,0,B|279:220|320:293|167:252,1,244.125007636357,6|2,0:0|0:0,0:0:0:0:
176,254,55641,1,2,0:0:0:0:
176,254,55725,1,8,1:2:0:0:
313,135,55891,1,8,1:2:0:0:
255,322,56225,6,0,B|366:303|329:361|466:328,1,192.500005874634,6|2,0:0|0:0,0:0:0:0:
289,114,56725,2,0,P|272:167|269:224,1,96.250002937317,2|0,0:0|0:0,0:0:0:0:
89,222,57058,2,0,P|79:176|52:120,1,96.250002937317,8|0,0:0|0:0,0:0:0:0:
192,320,57391,1,0,0:0:0:0:
180,168,57558,1,0,0:0:0:0:
192,320,57725,6,0,L|298:332,1,96.250002937317,2|0,0:0|0:0,0:0:0:0:
309,107,58058,2,0,B|273:142|273:142|270:195,1,96.250002937317,2|0,0:0|0:0,0:0:0:0:
415,197,58391,1,8,0:0:0:0:
382,46,58558,2,0,B|347:10|347:10|294:7,1,96.250002937317,0|0,0:0|0:0,0:0:0:0:
416,218,58891,6,0,B|470:182|470:182|318:162,1,192.500005874634,6|2,0:0|0:0,0:0:0:0:
249,325,59391,2,0,P|261:285|243:218,1,96.250002937317,2|0,0:0|0:0,0:0:0:0:
102,239,59725,2,0,P|92:285|104:331,1,96.250002937317,8|0,0:0|0:0,0:0:0:0:
172,145,60058,2,0,L|164:38,1,96.250002937317,0|8,0:0|0:0,0:0:0:0:
179,278,60391,6,0,P|212:240|310:250,1,144.375004405975,2|0,0:0|0:0,0:0:0:0:
320,263,60725,2,0,P|371:281|444:217,1,144.375004405975,2|0,0:0|0:0,0:0:0:0:
445,206,61058,1,8,0:0:0:0:
276,120,61225,1,4,0:3:0:0:
396,312,61391,1,4,0:3:0:0:
441,58,61558,6,0,L|306:50,1,96.250002937317,6|0,0:0|0:0,0:0:0:0:
185,42,61891,1,2,0:0:0:0:
196,126,62058,1,2,0:0:0:0:
207,210,62225,1,0,0:0:0:0:
185,42,62391,2,0,P|230:24|280:36,1,96.250002937317,8|0,0:0|0:0,0:0:0:0:
207,210,62725,1,0,0:0:0:0:
112,93,62891,6,0,P|94:48|106:-2,1,96.250002937317,2|2,0:0|0:0,0:0:0:0:
207,210,63225,1,0,0:0:0:0:
123,204,63391,1,0,0:0:0:0:
39,198,63558,1,2,0:0:0:0:
207,210,63725,2,0,L|199:99,1,96.250002937317,8|0,0:0|0:0,0:0:0:0:
136,314,64058,1,8,0:0:0:0:
321,260,64225,6,0,L|446:221,1,96.250002937317,6|0,0:0|0:0,0:0:0:0:
112,323,64558,1,2,0:0:0:0:
309,334,64725,1,2,0:0:0:0:
241,133,64891,1,0,0:0:0:0:
312,356,65058,2,0,P|362:337|432:346,1,96.250002937317,8|0,0:0|0:0,0:0:0:0:
253,233,65391,1,0,0:0:0:0:
334,64,65558,1,8,0:0:0:0:
422,230,65725,6,0,P|440:269|441:335,1,96.250002937317,2|0,0:0|0:0,0:0:0:0:
323,93,66058,1,2,0:0:0:0:
478,169,66225,1,8,0:0:0:0:
301,82,66391,2,0,B|285:127|285:127|295:176,1,96.250002937317,8|4,0:0|0:3,0:0:0:0:
421,48,66725,1,4,0:3:0:0:
306,262,66891,6,0,B|189:246|227:303|113:279,1,192.500005874634,6|2,0:0|0:0,0:0:0:0:
381,322,67391,2,0,P|388:273|416:220,1,96.250002937317,2|0,0:0|0:0,0:0:0:0:
460,351,67725,1,8,0:0:0:0:
300,217,67891,1,0,0:0:0:0:
512,157,68058,1,0,0:0:0:0:
323,218,68225,6,2,L|305:90,1,96.250002937317,2|2,0:0|0:0,0:0:0:0:
427,260,68558,1,0,0:0:0:0:
220,185,68725,1,2,0:0:0:0:
402,97,68891,1,0,0:0:0:0:
233,48,69058,1,12,0:0:0:0:
323,218,69225,2,0,B|369:229|369:229|438:191,1,96.250002937317,2|0,0:0|0:0,0:0:0:0:
220,185,69558,6,0,P|123:173|55:257,1,192.500005874634,2|6,0:0|0:0,0:0:0:0:
243,266,70058,1,2,0:0:0:0:
152,75,70225,1,2,0:0:0:0:
123,304,70391,1,8,0:0:0:0:
223,129,70558,1,0,0:0:0:0:
0,153,70724,1,2,0:0:0:0:
121,283,70891,1,0,0:0:0:0:
128,57,71058,6,0,P|106:100|108:174,1,96.250002937317,2|0,0:0|0:0,0:0:0:0:
288,196,71391,2,0,P|261:155|196:120,1,96.250002937317,2|0,0:0|0:0,0:0:0:0:
211,304,71725,1,8,0:0:0:0:
375,194,71891,1,4,0:3:0:0:
144,142,72058,1,4,0:3:0:0:
357,68,72225,6,0,L|373:178,1,96.250002937317,6|0,0:0|0:0,0:0:0:0:
263,71,72558,1,2,0:0:0:0:
461,90,72725,1,2,0:0:0:0:
237,65,72891,1,0,0:0:0:0:
480,97,73058,2,0,B|490:188|490:188|481:200|481:200|492:308,1,192.500005874634,8|0,0:0|0:0,0:0:0:0:
256,325,73558,6,0,P|280:291|336:273,1,96.250002937317,2|0,0:0|0:0,0:0:0:0:
157,326,73891,1,2,0:0:0:0:
130,140,74058,1,2,0:0:0:0:
159,349,74225,1,0,0:0:0:0:
126,112,74391,1,8,0:0:0:0:
275,248,74558,1,4,0:3:0:0:
21,235,74725,1,4,0:3:0:0:
300,250,74891,6,0,L|284:148,1,96.250002937317,6|0,0:0|0:0,0:0:0:0:
216,308,75225,1,2,0:0:0:0:
385,208,75391,1,2,0:0:0:0:
179,166,75558,1,0,0:0:0:0:
313,342,75725,2,0,B|318:294|318:294|289:224,1,96.250002937317,12|0,0:0|0:0,0:0:0:0:
214,80,76058,1,2,0:0:0:0:
179,166,76225,6,0,P|239:171|286:139,1,96.250002937317,8|0,0:0|0:0,0:0:0:0:
101,102,76558,1,8,0:0:0:0:
192,255,76725,1,2,0:0:0:0:
239,57,76891,1,8,0:0:0:0:
224,37,76975,1,8,0:0:0:0:
200,30,77058,1,8,0:0:0:0:
103,209,77225,1,4,0:3:0:0:
323,148,77391,1,4,0:3:0:0:
66,111,77558,6,0,P|25:134|1:180,1,96.250002937317,6|0,0:0|0:0,0:0:0:0:
103,209,77891,1,2,0:0:0:0:
156,81,78058,2,0,P|133:40|87:16,1,96.250002937317,2|0,0:0|0:0,0:0:0:0:
106,231,78391,2,0,L|114:328,1,96.250002937317,8|0,0:0|0:0,0:0:0:0:
349,210,78725,2,0,B|265:192|294:244|185:218,1,144.375004405975
190,207,79058,6,0,L|173:106,1,96.250002937317,2|0,0:0|0:0,0:0:0:0:
420,251,79391,2,0,L|408:353,1,96.250002937317,2|0,0:0|0:0,0:0:0:0:
314,160,79725,1,8,0:0:0:0:
452,160,79891,2,0,P|464:115|460:43,1,96.250002937317,6|0,0:0|0:0,0:0:0:0:
220,48,80225,2,0,P|222:110|236:175,1,96.250002937317,2|0,0:0|0:0,0:0:0:0:
395,259,80558,6,0,P|447:250|500:267,1,96.250002937317,6|0,0:0|0:0,0:0:0:0:
256,351,80891,1,2,0:0:0:0:
175,217,81058,2,0,P|164:168|190:102,1,96.250002937317,8|0,0:0|0:0,0:0:0:0:
231,351,81391,2,0,L|119:356,1,96.250002937317,2|0,0:0|0:0,0:0:0:0:
246,176,81725,6,0,P|270:218|272:278,1,96.250002937317,2|0,0:0|0:0,0:0:0:0:
457,339,82058,2,0,P|465:275|480:230,1,96.250002937317,8|0,0:0|0:0,0:0:0:0:
443,71,82391,1,8,0:0:0:0:
358,222,82558,2,0,P|368:271|366:321,1,96.250002937317,2|0,0:0|0:0,0:0:0:0:
263,304,82891,6,0,B|154:289|192:344|64:315,1,192.500005874634,6|2,0:0|0:0,0:0:0:0:
32,237,83391,1,2,0:0:0:0:
32,237,83558,2,0,P|21:185|27:128,1,96.250002937317,0|8,0:0|0:0,0:0:0:0:
144,182,83891,1,0,0:0:0:0:
99,340,84058,1,8,0:0:0:0:
148,160,84225,6,0,L|363:154,1,192.500005874634,6|2,0:0|0:0,0:0:0:0:
496,239,84725,1,2,0:0:0:0:
496,239,84891,2,0,L|383:226,1,96.250002937317,0|8,0:0|0:0,0:0:0:0:
418,113,85225,1,0,0:0:0:0:
314,270,85391,1,8,0:0:0:0:
431,96,85558,6,0,B|451:76|484:62|484:62|336:52,1,192.500005874634,6|2,0:0|0:0,0:0:0:0:
240,76,86058,1,2,0:0:0:0:
240,76,86225,1,0,0:0:0:0:
269,272,86391,2,0,B|285:226|285:226|269:162|262:164,1,96.250002937317,8|0,0:0|0:0,0:0:0:0:
345,336,86725,1,8,0:0:0:0:
434,234,86891,6,0,P|389:183|260:186,1,192.500005874634,6|2,0:0|0:0,0:0:0:0:
179,232,87391,2,0,P|160:278|157:345,1,96.250002937317,10|0,0:0|0:0,0:0:0:0:
271,179,87725,1,8,0:0:0:0:
75,282,87891,1,8,0:0:0:0:
304,340,88058,1,8,0:0:0:0:
102,167,88225,5,6,0:0:0:0:
256,192,88308,12,0,89391,0:0:0:0:
