osu file format v14

[General]
AudioFilename: audio.mp3
AudioLeadIn: 0
PreviewTime: 56058
Countdown: 0
SampleSet: Soft
StackLeniency: 0.7
Mode: 0
LetterboxInBreaks: 0
WidescreenStoryboard: 1

[Editor]
DistanceSpacing: 1
BeatDivisor: 4
GridSize: 4
TimelineZoom: 1

[Metadata]
Title:My Hero
TitleUnicode:My Hero
Artist:MAN WITH A MISSION
ArtistUnicode:MAN WITH A MISSION
Creator:toybot
Version:Normal
Source:いぬやしき
Tags:inu yashiki inuyashiki [ - Zekks - ] Hazu- Underforest
BeatmapID:1463197
BeatmapSetID:689957

[Difficulty]
HPDrainRate:4
CircleSize:3.5
OverallDifficulty:4
ApproachRate:5
SliderMultiplier:1.1
SliderTickRate:1

[Events]
//Background and Video events
0,0,"b8905846.jpg",0,0
Video,180,"pew pew noise.avi"
//Break Periods
//Storyboard Layer 0 (Background)
//Storyboard Layer 1 (Fail)
//Storyboard Layer 2 (Pass)
//Storyboard Layer 3 (Foreground)
//Storyboard Sound Samples

[TimingPoints]
392,333.333333333333,4,3,1,40,1,0
392,-100,4,3,1,40,0,0
6391,-100,4,3,1,40,0,0
7058,-100,4,3,1,40,0,0
7725,-100,4,2,1,40,0,0
8225,-100,4,2,1,70,0,0
8725,-100,4,2,1,70,0,0
29725,-100,4,2,1,50,0,0
34891,-100,4,2,1,50,0,0
35058,-100,4,2,1,50,0,0
39058,-100,4,2,1,60,0,0
40391,-100,4,2,1,70,0,0
50225,-100,4,2,1,65,0,0
50558,-100,4,2,1,60,0,0
54391,-100,4,2,1,60,0,0
55058,-100,4,2,1,70,0,0
56225,-100,4,2,1,80,0,1
77558,-100,4,2,1,80,0,1
88558,-100,4,2,1,20,0,1
89391,-100,4,2,1,5,0,0

[Colours]
Combo1 : 100,100,100
Combo2 : 255,62,62
Combo3 : 64,128,128
Combo4 : 174,0,0

[HitObjects]
227,322,392,6,0,B|204:277|225:221|265:210|265:210|236:187|236:187|217:145|217:145|231:105|240:79|208:28|141:34|108:83|141:142,1,440,8|8,0:0|0:0,0:0:0:0:
296,282,2391,1,8,0:0:0:0:
136,132,3058,6,0,B|92:133|56:107|31:77|31:77|-1:136|9:195|69:228|69:228|108:211|108:211|144:221|177:221|208:210,1,440,8|8,0:0|0:0,0:0:0:0:
348,44,5058,1,8,0:0:0:0:
205,210,5725,6,0,P|185:266|297:250,1,220,10|10,0:0|0:0,0:0:0:0:
208,60,7058,2,0,B|116:40|144:112|40:88,1,165,10|0,0:0|0:0,0:0:0:0:
12,128,7725,6,0,L|24:188,1,55,8|4,1:2|1:3,0:0:0:0:
16,236,8058,1,4,1:3:0:0:
16,236,8225,2,0,P|56:232|120:280,1,110,6|2,1:2|0:0,0:0:0:0:
140,316,8725,1,2,0:0:0:0:
224,248,9058,2,0,L|352:264,1,110,8|0,0:0|0:0,0:0:0:0:
432,312,9725,1,2,0:0:0:0:
424,204,10058,1,2,0:0:0:0:
333,261,10391,2,0,L|337:325,2,55,8|0|0,0:0|0:0|0:0,0:0:0:0:
296,220,10891,6,0,P|280:192|296:104,1,110,6|2,0:0|0:0,0:0:0:0:
316,72,11391,1,2,0:0:0:0:
216,28,11725,2,0,L|104:44,1,110,12|0,0:0|0:0,0:0:0:0:
40,132,12391,1,2,0:0:0:0:
124,200,12725,1,2,0:0:0:0:
48,280,13058,2,0,L|-16:288,2,55,8|4|4,0:2|0:3|0:3,0:0:0:0:
88,316,13558,6,0,P|128:328|196:296,1,110,6|2,0:0|0:0,0:0:0:0:
224,260,14058,1,2,0:0:0:0:
196,152,14391,2,0,P|244:128|297:139,1,110,8|0,0:0|0:0,0:0:0:0:
340,176,14891,2,0,L|356:296,1,110,2|2,0:0|0:0,0:0:0:0:
396,320,15391,1,2,0:0:0:0:
456,228,15725,2,0,L|441:118,1,110,12|8,0:0|0:0,0:0:0:0:
444,64,16225,6,0,B|383:56|383:56|346:72|346:72|278:66,1,165,6|2,0:0|0:0,0:0:0:0:
180,100,17058,2,0,P|168:140|204:212,1,110,12|2,0:0|0:0,0:0:0:0:
240,228,17558,1,8,0:0:0:0:
240,228,17725,2,0,L|360:216,1,110,2|2,0:0|0:0,0:0:0:0:
436,284,18391,2,0,L|432:348,2,55,8|4|4,0:0|0:3|0:3,0:0:0:0:
468,240,18891,6,0,B|464:180|464:180|472:152|472:152|464:72,1,165,6|2,0:0|0:0,0:0:0:0:
364,36,19725,1,8,0:0:0:0:
288,116,20058,1,0,0:0:0:0:
192,64,20391,2,0,P|144:56|88:88,1,110,2|2,0:0|0:0,0:0:0:0:
40,180,21058,2,0,L|48:248,1,55,8|4,0:0|0:3,0:0:0:0:
36,288,21391,1,4,0:3:0:0:
36,288,21558,6,0,P|88:296|144:256,1,110,6|2,0:0|0:0,0:0:0:0:
168,224,22058,1,2,0:0:0:0:
272,264,22391,2,0,L|396:252,1,110,12|0,0:0|0:0,0:0:0:0:
460,176,23058,2,0,P|472:116|456:68,2,110,8|2|8,0:0|0:0|0:0,0:0:0:0:
364,124,24058,1,4,0:3:0:0:
364,124,24225,6,0,L|180:112,1,165,6|2,0:0|0:0,0:0:0:0:
120,188,25058,1,8,0:0:0:0:
188,276,25391,1,0,0:0:0:0:
188,276,25558,2,0,B|232:244|232:244|296:248,1,110,6|2,0:0|0:0,0:0:0:0:
336,272,26058,1,2,0:0:0:0:
444,264,26391,2,0,L|448:320,2,55,8|4|4,0:0|0:3|0:3,0:0:0:0:
412,220,26891,6,0,P|396:172|420:104,1,110,6|2,0:0|0:0,0:0:0:0:
444,72,27391,1,2,0:0:0:0:
340,32,27725,2,0,L|212:48,1,110,12|2,0:0|0:0,0:0:0:0:
196,148,28391,2,0,L|305:134,2,110,8|10|8,0:0|0:0|0:0,0:0:0:0:
144,132,29225,1,4,0:3:0:0:
100,164,29391,2,0,L|88:240,1,55,4|4,0:3|0:3,0:0:0:0:
108,272,29725,5,6,0:0:0:0:
316,344,30391,1,2,0:0:0:0:
448,168,31058,1,2,0:0:0:0:
248,260,31725,1,2,0:0:0:0:
98,98,32391,5,2,0:0:0:0:
304,176,33058,1,2,0:0:0:0:
441,4,33725,2,0,L|312:16,1,110,2|0,0:0|0:0,0:0:0:0:
252,92,34391,2,0,P|208:104|132:64,1,110,2|0,0:0|0:0,0:0:0:0:
104,52,34891,1,8,0:0:0:0:
64,92,35058,6,0,L|72:208,1,110,6|0,0:0|0:0,0:0:0:0:
48,308,35725,2,0,P|101:317|151:295,1,110,2|0,0:0|0:0,0:0:0:0:
220,212,36391,2,0,L|352:220,2,110,2|0|2,0:0|0:0|0:0,0:0:0:0:
160,120,37391,1,0,0:0:0:0:
244,52,37725,6,0,P|284:44|360:80,1,110,2|0,0:0|0:0,0:0:0:0:
424,148,38391,2,0,B|408:192|408:192|424:272,1,110,2|0,0:0|0:0,0:0:0:0:
508,324,39058,1,8,0:0:0:0:
508,324,39225,2,0,B|524:280|524:280|508:200,2,110,2|2|2,0:0|0:0|0:0,0:0:0:0:
460,352,40058,2,0,L|388:344,1,55,8|8,0:0|0:0,0:0:0:0:
352,360,40391,5,6,0:0:0:0:
268,288,40725,2,0,L|208:296,2,55,0|0|8,0:0|0:0|0:0,0:0:0:0:
336,200,41391,1,0,0:0:0:0:
263,115,41725,2,0,B|212:96|212:96|158:111,1,110,2|0,0:0|0:0,0:0:0:0:
100,204,42391,2,0,B|151:223|151:223|205:208,1,110,8|0,0:0|0:0,0:0:0:0:
256,228,42891,1,0,0:0:0:0:
256,228,43058,6,0,L|368:212,1,110,2|0,0:0|0:0,0:0:0:0:
472,236,43725,2,0,P|492:192|476:128,1,110,8|0,0:0|0:0,0:0:0:0:
404,56,44391,1,2,0:0:0:0:
312,120,44725,2,0,L|236:112,1,55,8|8,0:0|0:0,0:0:0:0:
208,88,45058,2,0,L|200:28,2,55,0|4|4,0:0|0:3|0:3,0:0:0:0:
128,160,45725,5,6,0:0:0:0:
196,244,46058,2,0,P|203:270|201:297,1,55
160,332,46391,2,0,L|40:324,1,110,8|0,0:0|0:0,0:0:0:0:
8,224,47058,2,0,P|8:169|39:125,1,110,2|0,0:0|0:0,0:0:0:0:
92,104,47558,1,0,0:0:0:0:
136,136,47725,2,0,P|199:131|268:120,1,110,8|0,0:0|0:0,0:0:0:0:
340,64,48391,5,2,0:0:0:0:
343,176,48725,2,0,L|344:243,2,55,0|0|8,0:0|0:0|0:0,0:0:0:0:
434,115,49391,1,0,0:0:0:0:
340,64,49725,1,8,0:0:0:0:
340,64,49891,1,2,0:0:0:0:
232,92,50225,1,2,0:0:0:0:
192,191,50558,2,0,P|137:197|83:198,1,110,2|8,0:0|0:0,0:0:0:0:
33,176,51058,5,6,0:0:0:0:
232,269,51725,1,6,0:0:0:0:
96,95,52391,1,6,0:0:0:0:
295,188,53058,1,6,0:0:0:0:
159,14,53724,1,6,0:0:0:0:
358,107,54391,1,6,0:0:0:0:
200,261,55058,2,0,P|174:214|191:144,1,110,6|2,0:0|0:0,0:0:0:0:
218,119,55558,1,2,0:0:0:0:
271,132,55725,2,0,L|334:127,1,55,8|8,1:2|1:2,0:0:0:0:
427,84,56225,6,0,B|450:116|450:116|432:205,1,110,6|2,0:0|0:0,0:0:0:0:
423,238,56725,1,2,0:0:0:0:
461,340,57058,2,0,P|415:361|356:351,1,110,8|0,0:0|0:0,0:0:0:0:
304,255,57725,2,0,P|258:234|199:244,1,110,2|2,0:0|0:0,0:0:0:0:
150,340,58391,2,0,P|104:361|45:351,1,110,8|0,0:0|0:0,0:0:0:0:
14,307,58891,6,0,L|25:195,1,110,6|2,0:0|0:0,0:0:0:0:
48,148,59391,1,2,0:0:0:0:
41,37,59725,2,0,B|95:50|95:50|152:26,1,110,8|0,0:0|0:0,0:0:0:0:
196,126,60391,2,0,B|250:113|250:113|307:137,1,110,2|2,0:0|0:0,0:0:0:0:
377,56,61058,2,0,L|370:-7,2,55,8|4|4,0:0|0:3|0:3,0:0:0:0:
421,88,61558,6,0,P|447:137|434:200,1,110,6|2,0:0|0:0,0:0:0:0:
409,235,62058,1,2,0:0:0:0:
309,281,62391,2,0,L|179:274,1,110,8|0,0:0|0:0,0:0:0:0:
152,303,62891,1,2,0:0:0:0:
152,303,63058,2,0,P|126:254|139:191,1,110,2|0,0:0|0:0,0:0:0:0:
225,141,63725,2,0,L|214:70,1,55,8|0,0:0|0:0,0:0:0:0:
246,40,64058,1,8,0:0:0:0:
246,40,64225,6,0,L|123:35,1,110,6|2,0:0|0:0,0:0:0:0:
81,37,64725,1,2,0:0:0:0:
24,131,65058,2,0,P|22:174|60:240,1,110,8|0,0:0|0:0,0:0:0:0:
103,214,65558,1,8,0:0:0:0:
148,244,65725,2,0,B|208:248|196:224|256:228,1,110,2|2,0:0|0:0,0:0:0:0:
345,288,66391,2,0,L|354:353,1,55,8|4,0:0|0:3,0:0:0:0:
404,361,66725,1,4,0:3:0:0:
456,344,66891,6,0,P|472:306|458:229,1,110,6|2,0:0|0:0,0:0:0:0:
437,190,67391,1,2,0:0:0:0:
349,122,67725,2,0,L|218:137,1,110,8|0,0:0|0:0,0:0:0:0:
213,27,68391,2,0,L|340:13,2,110,2|2|12,0:0|0:0|0:0,0:0:0:0:
170,62,69225,2,0,P|138:63|106:54,1,55,2|0,0:0|0:0,0:0:0:0:
62,42,69558,6,0,L|73:161,1,110,2|6,0:0|0:0,0:0:0:0:
107,194,70058,2,0,L|104:259,1,55,2|2,0:0|0:0,0:0:0:0:
79,298,70391,1,8,0:0:0:0:
179,342,70725,1,2,0:0:0:0:
268,278,71058,2,0,P|313:264|382:270,1,110,2|2,0:0|0:0,0:0:0:0:
473,318,71725,2,0,L|484:379,2,55,8|4|4,0:0|0:3|0:3,0:0:0:0:
508,275,72225,6,0,L|518:162,1,110,6|2,0:0|0:0,0:0:0:0:
499,113,72725,1,2,0:0:0:0:
401,62,73058,2,0,B|352:90|352:90|278:77,1,110,8|0,0:0|0:0,0:0:0:0:
247,61,73558,2,0,L|114:75,1,110,2|2,0:0|0:0,0:0:0:0:
82,79,74058,1,2,0:0:0:0:
58,186,74391,2,0,L|-6:178,2,55,8|4|4,0:0|0:3|0:3,0:0:0:0:
89,231,74891,6,0,P|121:248|201:223,1,110,6|2,0:0|0:0,0:0:0:0:
229,194,75391,1,2,0:0:0:0:
307,270,75725,2,0,P|348:233|402:230,1,110,12|2,0:0|0:0,0:0:0:0:
452,252,76225,1,8,0:0:0:0:
488,293,76391,2,0,L|498:166,2,110,0|2|8,0:0|0:0|0:0,0:0:0:0:
460,341,77225,2,0,P|435:352|407:354,1,55,4|4,0:3|0:3,0:0:0:0:
358,329,77558,6,0,L|247:318,1,110,6|2,0:0|0:0,0:0:0:0:
195,332,78058,1,2,0:0:0:0:
99,277,78391,2,0,P|71:230|75:176,1,110,8|0,0:0|0:0,0:0:0:0:
107,131,78891,1,2,0:0:0:0:
107,131,79058,2,0,L|224:119,1,110,2|2,0:0|0:0,0:0:0:0:
298,193,79725,1,8,0:0:0:0:
349,175,79891,2,0,L|458:186,1,110,6|2,0:0|0:0,0:0:0:0:
490,291,80558,6,0,P|459:330|394:333,1,110,6|2,0:0|0:0,0:0:0:0:
351,313,81058,1,8,0:0:0:0:
262,247,81391,1,2,0:0:0:0:
248,356,81725,2,0,L|123:342,1,110,2|8,0:0|0:0,0:0:0:0:
50,278,82391,1,8,0:0:0:0:
50,278,82558,2,0,L|38:210,1,55,2|0,0:0|0:0,0:0:0:0:
21,172,82891,6,0,P|52:143|122:149,1,110,6|2,0:0|0:0,0:0:0:0:
160,177,83391,2,0,L|219:169,1,55,2|0,0:0|0:0,0:0:0:0:
263,144,83725,1,8,0:0:0:0:
334,227,84058,1,8,0:0:0:0:
334,227,84225,2,0,P|369:261|436:256,1,110,6|2,0:0|0:0,0:0:0:0:
473,230,84725,2,0,L|475:164,1,55,2|0,0:0|0:0,0:0:0:0:
448,126,85058,2,0,L|442:65,1,55,8|0,0:0|0:0,0:0:0:0:
456,17,85391,1,8,0:0:0:0:
456,17,85558,6,0,B|392:8|407:32|326:26,1,110,6|2,0:0|0:0,0:0:0:0:
293,16,86058,1,2,0:0:0:0:
243,114,86391,1,8,0:0:0:0:
328,183,86725,1,8,0:0:0:0:
328,183,86891,2,0,L|442:175,1,110,6|2,0:0|0:0,0:0:0:0:
484,203,87391,2,0,P|494:237|491:263,1,55,10|0,0:0|0:0,0:0:0:0:
456,297,87725,2,0,L|379:291,1,55,8|8,0:0|0:0,0:0:0:0:
348,275,88058,1,8,0:0:0:0:
295,291,88225,6,0,B|249:311|170:299|139:214|190:145|190:145|240:133|240:133|280:168|249:226,1,385,6|0,0:0|0:0,0:0:0:0:
