osu file format v14

[General]
AudioFilename: audio.mp3
AudioLeadIn: 0
PreviewTime: 56058
Countdown: 0
SampleSet: Soft
StackLeniency: 0.5
Mode: 0
LetterboxInBreaks: 0
WidescreenStoryboard: 0

[Editor]
Bookmarks: 8225,19058,29725,40391
DistanceSpacing: 2
BeatDivisor: 6
GridSize: 4
TimelineZoom: 3.099999

[Metadata]
Title:My Hero
TitleUnicode:My Hero
Artist:MAN WITH A MISSION
ArtistUnicode:MAN WITH A MISSION
Creator:toybot
Version:Forest's Insane
Source:いぬやしき
Tags:inu yashiki inuyashiki [ - Zekks - ] Hazu- Underforest
BeatmapID:1490190
BeatmapSetID:689957

[Difficulty]
HPDrainRate:6
CircleSize:4
OverallDifficulty:7
ApproachRate:9
SliderMultiplier:1.7
SliderTickRate:1

[Events]
//Background and Video events
0,0,"b8905846.jpg",0,0
Video,180,"pew pew noise.avi"
//Break Periods
//Storyboard Layer 0 (Background)
//Storyboard Layer 1 (Fail)
//Storyboard Layer 2 (Pass)
//Storyboard Layer 3 (Foreground)
//Storyboard Sound Samples

[TimingPoints]
392,333.333333333333,4,3,1,40,1,0
392,-133.333333333333,4,3,1,40,0,0
6391,-100,4,3,1,40,0,0
7058,-111.111111111111,4,3,1,40,0,0
7725,-100,4,2,1,40,0,0
8225,-83.3333333333333,4,2,1,70,0,0
8725,-83.3333333333333,4,2,1,70,0,0
29725,-133.333333333333,4,2,1,50,0,0
39058,-133.333333333333,4,2,1,60,0,0
40391,-100,4,2,1,70,0,0
50225,-100,4,2,1,65,0,0
50558,-100,4,2,1,60,0,0
51058,-133.333333333333,4,2,1,60,0,0
53725,-133.333333333333,4,2,1,60,0,0
54391,-133.333333333333,4,2,1,60,0,0
55058,-100,4,2,1,70,0,0
56225,-83.3333333333333,4,2,1,80,0,1
89391,-83.3333333333333,4,2,1,5,0,0

[Colours]
Combo1 : 100,100,100
Combo2 : 255,62,62
Combo3 : 64,128,128
Combo4 : 174,0,0

[HitObjects]
246,84,392,6,0,P|180:52|101:79,1,127.499997711182,8|0,0:0|0:0,0:0:0:0:
69,121,836,2,0,L|53:192,1,42.4999992370606,0|0,0:0|0:0,0:0:0:0:
107,232,1058,2,0,P|173:264|252:237,1,127.499997711182,8|0,0:0|0:0,0:0:0:0:
284,195,1502,2,0,L|300:124,1,42.4999992370606,0|0,0:0|0:0,0:0:0:0:
377,137,1725,2,0,L|342:297,1,127.499997711182,8|0,0:0|0:0,0:0:0:0:
298,328,2169,2,0,P|271:334|245:330,1,42.4999992370606,0|0,0:0|0:0,0:0:0:0:
171,324,2391,2,0,L|168:357,10,21.2499996185303,8|0|0|0|0|0|0|0|0|0|0,0:0|0:0|0:0|0:0|0:0|0:0|0:0|0:0|0:0|0:0|0:0,0:0:0:0:
172,302,3058,6,0,B|159:240|159:240|186:175,1,127.499997711182,8|0,0:0|0:0,0:0:0:0:
246,122,3503,2,0,P|270:122|293:126,1,42.4999992370606,0|0,0:0|0:0,0:0:0:0:
358,172,3725,2,0,B|371:234|371:234|344:299,1,127.499997711182,8|0,0:0|0:0,0:0:0:0:
284,352,4169,2,0,P|261:353|220:331,1,42.4999992370606,0|0,0:0|0:0,0:0:0:0:
170,301,4391,2,0,P|111:312|56:278,1,127.500004863739,8|0,0:0|0:0,0:0:0:0:
126,229,4836,2,0,L|124:180,1,42.5000016212464
115,102,5058,2,0,L|88:102,10,21.2500008106232,8|0|0|0|0|0|0|0|0|0|0,0:0|0:0|0:0|0:0|0:0|0:0|0:0|0:0|0:0|0:0|0:0,0:0:0:0:
151,110,5725,6,0,P|202:143|276:128,1,127.499997711182,10|0,0:0|0:0,0:0:0:0:
222,62,6169,2,0,L|233:16,1,42.4999992370606
133,123,6391,6,0,P|182:157|291:140,1,169.999990463257,10|0,0:0|0:0,0:0:0:0:
222,62,6836,2,0,L|236:5,1,56.6666634877523,0|0,0:0|0:0,0:0:0:0:
115,130,7058,6,0,P|164:183|309:141,1,229.499980121613,10|0,0:0|0:0,0:0:0:0:
303,150,7725,5,8,1:2:0:0:
459,242,7891,1,4,1:3:0:0:
451,75,8058,1,4,1:3:0:0:
451,75,8225,6,0,B|356:113|357:26|234:71,1,203.999982330323,6|2,1:2|0:0,0:0:0:0:
127,118,8725,2,0,L|113:247,1,101.999996887207,2|0,0:0|0:0,0:0:0:0:
292,251,9058,2,0,L|303:149,1,101.999996887207,8|0,0:0|0:0,0:0:0:0:
199,276,9391,2,0,P|267:344|340:336,1,152.999995330811,0|0,0:0|0:0,0:0:0:0:
350,334,9725,6,0,P|404:343|455:326,1,101.999996887207,2|0,0:0|0:0,0:0:0:0:
490,166,10058,2,0,P|436:157|385:174,1,101.999996887207,2|0,0:0|0:0,0:0:0:0:
216,193,10391,1,8,0:0:0:0:
275,35,10558,1,0,0:0:0:0:
377,179,10725,1,0,0:0:0:0:
192,95,10891,6,0,B|89:78|89:78|-1:124,1,203.999993774414,6|2,0:0|0:0,0:0:0:0:
121,182,11391,2,0,L|247:204,1,101.999996887207,2|0,0:0|0:0,0:0:0:0:
308,31,11725,2,0,L|207:13,1,101.999996887207,12|0,0:0|0:0,0:0:0:0:
50,62,12058,1,0,0:0:0:0:
33,213,12225,1,8,0:0:0:0:
33,213,12391,6,0,P|11:285|32:335,1,101.999996887207,2|0,0:0|0:0,0:0:0:0:
182,366,12725,2,0,P|204:294|183:244,1,101.999996887207,2|0,0:0|0:0,0:0:0:0:
201,114,13058,1,8,0:2:0:0:
114,182,13225,1,4,0:3:0:0:
174,25,13391,1,4,0:3:0:0:
286,166,13558,6,0,P|333:224|478:169,1,203.999993774414,6|2,0:0|0:0,0:0:0:0:
399,46,14058,2,0,L|378:158,1,101.999996887207,2|0,0:0|0:0,0:0:0:0:
206,219,14391,2,0,L|187:118,1,101.999996887207,8|0,0:0|0:0,0:0:0:0:
252,5,14725,1,0,0:0:0:0:
286,166,14891,6,0,P|293:256|164:305,1,203.999993774414,2|2,0:0|0:0,0:0:0:0:
107,211,15391,2,0,P|156:204|224:230,1,101.999996887207,2|0,0:0|0:0,0:0:0:0:
101,318,15725,1,12,0:0:0:0:
20,191,15891,2,0,L|35:70,1,101.999996887207,0|8,0:0|0:0,0:0:0:0:
170,48,16225,6,0,B|231:36|231:36|292:69|292:69|368:55,1,203.999993774414,6|2,0:0|0:0,0:0:0:0:
397,169,16725,2,0,P|413:238|374:294,1,101.999996887207,2|0,0:0|0:0,0:0:0:0:
215,219,17058,2,0,P|203:170|220:123,1,101.999996887207,12|0,0:0|0:0,0:0:0:0:
339,60,17391,1,2,0:0:0:0:
339,60,17558,1,8,0:0:0:0:
317,226,17725,6,0,L|295:345,1,101.999996887207,2|0,0:0|0:0,0:0:0:0:
132,243,18058,2,0,L|150:142,1,101.999996887207,2|8,0:0|0:0,0:0:0:0:
302,87,18391,1,8,0:0:0:0:
225,210,18558,1,4,0:3:0:0:
382,160,18725,1,4,0:3:0:0:
199,57,18891,6,0,P|94:61|58:161,1,203.999993774414,6|2,0:0|0:0,0:0:0:0:
188,207,19391,1,2,0:0:0:0:
188,207,19558,1,0,0:0:0:0:
339,130,19725,2,0,L|483:119,1,101.999996887207,8|0,0:0|0:0,0:0:0:0:
403,270,20058,2,0,L|301:277,1,101.999996887207,0|0,0:0|0:0,0:0:0:0:
167,179,20391,6,0,P|151:116|168:56,1,101.999996887207,2|0,0:0|0:0,0:0:0:0:
315,42,20725,2,0,P|331:105|314:165,1,101.999996887207,2|0,0:0|0:0,0:0:0:0:
380,306,21058,1,8,0:0:0:0:
209,276,21224,1,4,0:3:0:0:
389,292,21391,1,4,0:3:0:0:
226,360,21558,6,0,P|180:371|105:335,2,101.999996887207,6|0|2,0:0|0:0|0:0,0:0:0:0:
309,245,22058,2,0,L|432:238,1,101.999996887207,2|0,0:0|0:0,0:0:0:0:
329,110,22391,2,0,L|169:117,1,152.999995330811,12|0,0:0|0:0,0:0:0:0:
144,125,22725,1,8,0:0:0:0:
91,240,22891,1,8,0:0:0:0:
91,240,23058,6,0,P|146:266|211:260,1,101.999996887207,8|0,0:0|0:0,0:0:0:0:
334,158,23391,2,0,P|279:132|214:138,1,101.999996887207,2|8,0:0|0:0,0:0:0:0:
293,289,23725,1,8,0:0:0:0:
429,211,23891,1,4,0:3:0:0:
304,305,24058,1,4,0:3:0:0:
334,158,24225,6,0,L|363:28,2,101.999996887207,6|0|2,0:0|0:0|0:0,0:0:0:0:
304,305,24725,2,0,P|254:317|190:301,1,101.999996887207,2|0,0:0|0:0,0:0:0:0:
108,176,25058,2,0,P|157:164|207:172,1,101.999996887207,8|0,0:0|0:0,0:0:0:0:
361,238,25391,1,0,0:0:0:0:
361,238,25558,6,0,B|498:217|498:217|414:172,1,203.999993774414,6|2,0:0|0:0,0:0:0:0:
320,84,26058,2,0,L|199:97,1,101.999996887207,2|0,0:0|0:0,0:0:0:0:
36,167,26391,1,8,0:0:0:0:
195,202,26558,1,4,0:3:0:0:
93,289,26725,1,4,0:3:0:0:
94,96,26891,6,0,P|58:80|23:17,2,101.999996887207,6|0|2,0:0|0:0|0:0,0:0:0:0:
215,52,27391,2,0,L|203:182,1,101.999996887207,2|0,0:0|0:0,0:0:0:0:
303,272,27725,2,0,L|312:170,1,101.999996887207,12|0,0:0|0:0,0:0:0:0:
492,248,28058,1,2,0:0:0:0:
465,107,28225,1,8,0:0:0:0:
492,248,28391,6,0,P|428:236|371:260,1,101.999991165162,8|0,0:0|0:0,0:0:0:0:
276,361,28725,2,0,P|212:373|155:349,1,101.999991165162,10|0,0:0|0:0,0:0:0:0:
84,221,29058,1,8,0:0:0:0:
219,289,29225,1,4,0:3:0:0:
66,246,29392,1,4,0:3:0:0:
238,180,29558,1,4,0:3:0:0:
90,336,29725,5,6,0:0:0:0:
90,336,30058,2,0,L|102:250,1,63.7499988555908,0|0,0:0|0:0,0:0:0:0:
128,181,30391,2,0,L|116:95,1,63.7499988555908,2|0,0:0|0:0,0:0:0:0:
187,49,30725,1,0,0:0:0:0:
187,49,30891,1,0,0:0:0:0:
270,95,31058,6,0,P|323:103|394:75,2,127.499997711182,2|0|2,0:0|0:0|0:0,0:0:0:0:
187,49,31891,1,0,0:0:0:0:
110,106,32058,2,0,L|25:114,1,63.7499988555908,0|0,0:0|0:0,0:0:0:0:
24,205,32391,6,0,L|164:193,2,127.499997711182,2|0|2,0:0|0:0|0:0,0:0:0:0:
23,206,33391,1,0,0:0:0:0:
79,283,33558,1,0,0:0:0:0:
174,293,33725,6,0,P|234:297|265:285,1,63.7499988555908,2|0,0:0|0:0,0:0:0:0:
323,254,34058,2,0,P|354:251|385:257,1,63.7499988555908,0|0,0:0|0:0,0:0:0:0:
475,223,34391,2,0,L|482:87,1,127.499997711182,2|0,0:0|0:0,0:0:0:0:
327,27,34891,1,8,0:0:0:0:
327,27,35058,6,0,L|178:40,1,127.499997711182,6|0,0:0|0:0,0:0:0:0:
112,76,35558,1,0,0:0:0:0:
97,170,35725,1,2,0:0:0:0:
43,248,35891,2,0,P|88:265|168:233,1,127.499997711182,0|0,0:0|0:0,0:0:0:0:
251,210,36391,6,0,L|239:292,1,63.7499988555908,2|0,0:0|0:0,0:0:0:0:
311,339,36725,1,0,0:0:0:0:
357,255,36891,2,0,L|366:191,1,63.7499988555908,0|2,0:0|0:0,0:0:0:0:
297,124,37225,1,0,0:0:0:0:
205,97,37391,2,0,P|163:102|137:92,1,63.7499988555908,0|0,0:0|0:0,0:0:0:0:
81,21,37725,6,0,P|47:74|64:154,2,127.499997711182,2|0|2,0:0|0:0|0:0,0:0:0:0:
270,46,38725,1,0,0:0:0:0:
154,198,39058,5,8,0:0:0:0:
154,198,39225,2,0,L|146:346,2,127.499997711182,2|2|2,0:0|0:0|0:0,0:0:0:0:
227,70,40058,1,8,0:0:0:0:
320,180,40225,1,8,0:0:0:0:
320,180,40391,6,0,P|370:185|449:97,1,169.999990463257,6|0,0:0|0:0,0:0:0:0:
354,93,40891,1,0,0:0:0:0:
220,166,41058,2,0,L|212:343,1,169.999990463257,8|0,0:0|0:0,0:0:0:0:
39,275,41558,1,0,0:0:0:0:
39,275,41725,6,0,L|47:174,1,84.9999952316285,2|0,0:0|0:0,0:0:0:0:
154,129,42058,1,0,0:0:0:0:
214,245,42225,2,0,P|152:256|111:232,2,84.9999952316285,0|8|0,0:0|0:0|0:0,0:0:0:0:
305,170,42724,2,0,P|367:159|408:183,1,84.9999952316285,0|0,0:0|0:0,0:0:0:0:
471,277,43058,6,0,P|416:306|356:218,1,169.999990463257,2|0,0:0|0:0,0:0:0:0:
307,79,43558,2,0,L|203:85,1,84.9999952316285,0|8,0:0|0:0,0:0:0:0:
115,133,43891,1,0,0:0:0:0:
163,242,44058,2,0,L|247:237,1,84.9999952316285,0|0,0:0|0:0,0:0:0:0:
307,79,44391,5,2,0:0:0:0:
365,201,44558,1,0,0:0:0:0:
482,112,44725,5,8,0:0:0:0:
468,251,44891,1,8,0:0:0:0:
365,201,45058,5,0,0:0:0:0:
407,351,45225,1,4,0:3:0:0:
468,251,45391,5,4,0:3:0:0:
328,282,45558,1,4,0:3:0:0:
328,282,45725,6,0,P|281:312|183:247,1,169.999990463257,6|0,0:0|0:0,0:0:0:0:
136,161,46225,1,0,0:0:0:0:
50,229,46391,2,0,L|56:336,1,84.9999952316285,8|0,0:0|0:0,0:0:0:0:
136,161,46725,2,0,L|131:76,1,84.9999952316285,0|0,0:0|0:0,0:0:0:0:
250,121,47058,6,0,B|334:96|324:154|443:122,1,169.999990463257,2|0,0:0|0:0,0:0:0:0:
371,36,47558,1,0,0:0:0:0:
298,210,47725,2,0,L|290:321,1,84.9999952316285,8|0,0:0|0:0,0:0:0:0:
155,311,48058,2,0,L|161:226,1,84.9999952316285
250,121,48391,6,0,P|305:113|362:138,1,84.9999952316285,2|0,0:0|0:0,0:0:0:0:
443,158,48724,1,0,0:0:0:0:
243,230,49058,2,0,L|231:332,1,84.9999952316285,8|0,0:0|0:0,0:0:0:0:
113,350,49391,2,0,L|103:264,1,84.9999952316285
75,114,49725,5,8,0:0:0:0:
287,177,49891,2,0,L|467:140,2,169.999990463257,2|2|2,0:0|0:0|0:0,0:0:0:0:
287,177,50891,1,8,0:0:0:0:
62,218,51058,5,6,0:0:0:0:
454,143,51725,1,6,0:0:0:0:
50,46,52391,5,6,0:0:0:0:
469,345,53058,1,6,0:0:0:0:
80,198,53725,6,0,B|120:245|183:223|183:223|236:169|331:208,1,255.000009727478,6|6,0:0|0:0,0:0:0:0:
315,202,54725,1,0,0:0:0:0:
315,202,55058,6,0,L|221:217,1,84.9999952316285,6|0,0:0|0:0,0:0:0:0:
48,251,55391,1,2,0:0:0:0:
134,123,55558,1,2,0:0:0:0:
140,291,55725,5,8,1:2:0:0:
50,89,55891,1,8,1:2:0:0:
50,89,56225,6,0,B|145:127|144:40|267:85,1,203.999982330323,6|2,0:0|0:0,0:0:0:0:
376,137,56725,2,0,P|388:195|352:264,1,101.999991165162,2|0,0:0|0:0,0:0:0:0:
193,267,57058,2,0,P|180:218|192:169,1,101.999991165162,8|0,0:0|0:0,0:0:0:0:
311,318,57391,2,0,P|372:338|459:304,1,152.999986747742,0|0,0:0|0:0,0:0:0:0:
471,285,57725,6,0,L|485:172,1,101.999991165162,2|0,0:0|0:0,0:0:0:0:
334,75,58058,2,0,L|346:176,1,101.999991165162,2|0,0:0|0:0,0:0:0:0:
404,343,58391,1,8,0:0:0:0:
307,282,58558,1,0,0:0:0:0:
461,227,58725,1,0,0:0:0:0:
291,282,58891,6,0,B|226:267|226:267|159:289|159:289|82:269,1,203.999982330323,6|2,0:0|0:0,0:0:0:0:
68,176,59391,2,0,L|187:204,1,101.999991165162,2|0,0:0|0:0,0:0:0:0:
100,360,59725,2,0,L|0:336,1,101.999991165162,8|0,0:0|0:0,0:0:0:0:
68,176,60058,1,0,0:0:0:0:
171,301,60225,1,8,0:0:0:0:
231,127,60391,6,0,B|219:74|219:74|236:11,1,101.999991165162,2|0,0:0|0:0,0:0:0:0:
368,112,60725,2,0,B|380:158|380:158|368:211,1,101.999991165162,2|0,0:0|0:0,0:0:0:0:
304,335,61058,1,8,0:0:0:0:
267,206,61225,1,4,0:3:0:0:
316,338,61391,1,4,0:3:0:0:
178,323,61558,6,0,P|145:351|25:258,1,203.999982330323,6|2,0:0|0:0,0:0:0:0:
121,173,62058,2,0,L|105:299,1,101.999991165162,2|0,0:0|0:0,0:0:0:0:
257,210,62391,2,0,L|244:108,1,101.999991165162,8|0,0:0|0:0,0:0:0:0:
136,36,62725,1,0,0:0:0:0:
114,187,62891,6,0,P|61:201|1:185,2,101.999991165162,2|2|0,0:0|0:0|0:0,0:0:0:0:
224,119,63391,2,0,P|280:107|350:128,1,101.999991165162,0|2,0:0|0:0,0:0:0:0:
429,216,63725,1,8,0:0:0:0:
281,188,63891,1,0,0:0:0:0:
420,107,64058,1,8,0:0:0:0:
334,280,64225,6,0,B|244:253|233:325|122:274,1,203.999982330323,6|2,0:0|0:0,0:0:0:0:
61,162,64725,2,0,L|41:45,1,101.999991165162,2|0,0:0|0:0,0:0:0:0:
214,96,65058,2,0,L|196:196,1,101.999991165162,8|0,0:0|0:0,0:0:0:0:
95,309,65391,1,0,0:0:0:0:
263,362,65558,6,0,L|395:349,2,101.999991165162,8|2|0,0:0|0:0|0:0,0:0:0:0:
132,272,66058,1,2,0:0:0:0:
304,231,66225,1,8,0:0:0:0:
162,364,66391,1,8,0:0:0:0:
167,156,66558,1,4,0:3:0:0:
260,293,66725,1,4,0:3:0:0:
56,241,66891,6,0,L|77:30,1,203.999982330323,6|2,0:0|0:0,0:0:0:0:
194,97,67391,2,0,L|179:208,1,101.999991165162,2|0,0:0|0:0,0:0:0:0:
242,328,67725,2,0,P|312:346|395:246,1,203.999982330323,8|0,0:0|0:0,0:0:0:0:
281,187,68225,6,0,L|161:200,1,101.999991165162,2|2,0:0|0:0,0:0:0:0:
62,110,68558,1,0,0:0:0:0:
206,13,68725,2,0,P|225:57|210:132,1,101.999991165162,2|0,0:0|0:0,0:0:0:0:
231,291,69058,1,12,0:0:0:0:
79,200,69225,1,2,0:0:0:0:
79,200,69558,6,0,P|58:255|157:349,1,203.999982330323,2|6,0:0|0:0,0:0:0:0:
245,248,70058,2,0,P|188:242|126:272,1,101.999991165162,2|2,0:0|0:0,0:0:0:0:
242,349,70391,2,0,P|290:364|340:357,1,101.999991165162,8|0,0:0|0:0,0:0:0:0:
438,274,70725,1,2,0:0:0:0:
342,192,70891,6,0,L|327:77,2,101.999991165162,0|2|0,0:0|0:0|0:0,0:0:0:0:
414,349,71391,1,2,0:0:0:0:
456,193,71558,1,0,0:0:0:0:
297,281,71725,1,8,0:0:0:0:
494,291,71891,1,4,0:3:0:0:
342,372,72058,1,4,0:3:0:0:
342,192,72225,6,0,B|280:182|258:143|258:143|220:174|145:155,1,203.999982330323,6|2,0:0|0:0,0:0:0:0:
96,74,72725,2,0,P|146:52|212:69,1,101.999991165162,2|0,0:0|0:0,0:0:0:0:
213,242,73058,2,0,P|163:264|97:247,1,101.999991165162,8|0,0:0|0:0,0:0:0:0:
35,143,73391,1,0,0:0:0:0:
21,277,73558,6,0,L|12:386,2,101.999991165162,2|0|2,0:0|0:0|0:0,0:0:0:0:
35,143,74058,2,0,P|101:132|150:152,1,101.999991165162,2|0,0:0|0:0,0:0:0:0:
304,196,74391,1,8,0:0:0:0:
174,61,74558,1,4,0:3:0:0:
131,248,74725,1,4,0:3:0:0:
302,211,74891,6,0,B|329:356|329:356|364:262,1,203.999982330323,6|2,0:0|0:0,0:0:0:0:
376,173,75391,2,0,L|357:61,1,101.999991165162,2|0,0:0|0:0,0:0:0:0:
196,92,75725,2,0,L|213:192,1,101.999991165162,12|0,0:0|0:0,0:0:0:0:
236,361,76058,1,2,0:0:0:0:
102,281,76225,6,0,L|-2:267,2,101.999991165162,8|0|8,0:0|0:0|0:0,0:0:0:0:
236,361,76725,2,0,P|300:373|357:349,1,101.999991165162,2|8,0:0|0:0,0:0:0:0:
359,342,76975,1,8,0:0:0:0:
380,318,77058,1,8,0:0:0:0:
262,242,77225,1,4,0:3:0:0:
398,159,77391,1,4,0:3:0:0:
241,97,77558,6,0,P|168:65|62:122,1,203.999982330323,6|2,0:0|0:0,0:0:0:0:
152,263,78058,2,0,L|158:142,1,101.999991165162,2|0,0:0|0:0,0:0:0:0:
20,204,78391,2,0,L|14:305,1,101.999991165162,8|0,0:0|0:0,0:0:0:0:
163,268,78725,2,0,L|168:166,1,101.999991165162,0|2,0:0|0:0,0:0:0:0:
292,82,79058,6,0,P|348:68|417:91,1,101.999991165162,2|0,0:0|0:0,0:0:0:0:
492,223,79391,1,2,0:0:0:0:
347,167,79558,1,0,0:0:0:0:
471,122,79725,1,8,0:0:0:0:
402,299,79891,1,6,0:0:0:0:
402,299,80225,5,2,0:0:0:0:
175,275,80558,2,0,P|116:288|39:173,1,203.999982330323,6|2,0:0|0:0,0:0:0:0:
127,198,81058,1,8,0:0:0:0:
127,198,81391,1,2,0:0:0:0:
372,351,81725,6,0,L|513:339,1,101.999991165162,2|0,0:0|0:0,0:0:0:0:
369,180,82058,2,0,L|267:188,1,101.999991165162,8|0,0:0|0:0,0:0:0:0:
139,44,82391,1,8,0:0:0:0:
83,230,82558,1,2,0:0:0:0:
83,230,82891,6,0,P|153:182|277:194,1,203.999982330323,6|2,0:0|0:0,0:0:0:0:
430,248,83391,1,2,0:0:0:0:
358,127,83558,1,0,0:0:0:0:
328,298,83725,2,0,L|227:308,1,101.999991165162,8|0,0:0|0:0,0:0:0:0:
83,230,84058,1,8,0:0:0:0:
213,159,84225,6,0,P|230:109|226:53,2,101.999991165162,6|0|2,0:0|0:0|0:0,0:0:0:0:
88,245,84725,1,2,0:0:0:0:
120,134,84891,1,0,0:0:0:0:
173,277,85058,1,8,0:0:0:0:
16,221,85225,1,0,0:0:0:0:
123,351,85392,1,8,0:0:0:0:
243,222,85558,6,0,P|312:253|440:206,1,203.999982330323,6|2,0:0|0:0,0:0:0:0:
331,63,86058,1,2,0:0:0:0:
282,153,86225,2,0,L|402:150,1,101.999996887207,0|8,0:0|0:0,0:0:0:0:
512,115,86558,1,0,0:0:0:0:
418,29,86725,1,8,0:0:0:0:
459,215,86891,6,0,L|443:353,2,101.999991165162,6|0|2,0:0|0:0|0:0,0:0:0:0:
494,90,87391,1,10,0:0:0:0:
327,177,87558,1,0,0:0:0:0:
392,66,87725,5,8,0:0:0:0:
307,261,87891,1,8,0:0:0:0:
224,66,88058,1,8,0:0:0:0:
454,229,88224,1,6,0:0:0:0:
256,192,88308,12,0,89391,0:0:0:0:
