osu file format v14

[General]
AudioFilename: audio.mp3
AudioLeadIn: 0
PreviewTime: 56058
Countdown: 0
SampleSet: Soft
StackLeniency: 0.7
Mode: 0
LetterboxInBreaks: 0
WidescreenStoryboard: 1

[Editor]
DistanceSpacing: 1
BeatDivisor: 4
GridSize: 4
TimelineZoom: 1

[Metadata]
Title:My Hero
TitleUnicode:My Hero
Artist:MAN WITH A MISSION
ArtistUnicode:MAN WITH A MISSION
Creator:toybot
Version:Easy
Source:いぬやしき
Tags:inu yashiki inuyashiki [ - Zekks - ] Hazu- Underforest
BeatmapID:1462336
BeatmapSetID:689957

[Difficulty]
HPDrainRate:3
CircleSize:3
OverallDifficulty:3
ApproachRate:3
SliderMultiplier:0.9
SliderTickRate:1

[Events]
//Background and Video events
0,0,"b8905846.jpg",0,0
Video,180,"pew pew noise.avi"
//Break Periods
//Storyboard Layer 0 (Background)
//Storyboard Layer 1 (Fail)
//Storyboard Layer 2 (Pass)
//Storyboard Layer 3 (Foreground)
//Storyboard Sound Samples

[TimingPoints]
392,333.333333333333,4,3,1,40,1,0
392,-100,4,3,1,40,0,0
6391,-100,4,3,1,40,0,0
7058,-100,4,3,1,40,0,0
7725,-100,4,2,1,40,0,0
8225,-100,4,2,1,70,0,0
8725,-100,4,2,1,70,0,0
29725,-100,4,2,1,50,0,0
34891,-100,4,2,1,50,0,0
35058,-100,4,2,1,50,0,0
39058,-100,4,2,1,60,0,0
40391,-100,4,2,1,70,0,0
50225,-100,4,2,1,65,0,0
50558,-100,4,2,1,60,0,0
54391,-100,4,2,1,60,0,0
55058,-100,4,2,1,70,0,0
56225,-100,4,2,1,80,0,1
77558,-100,4,2,1,80,0,1
88558,-100,4,2,1,20,0,1
89391,-100,4,2,1,5,0,0

[Colours]
Combo1 : 100,100,100
Combo2 : 255,62,62
Combo3 : 64,128,128
Combo4 : 174,0,0

[HitObjects]
401,221,8225,6,0,P|386:120|285:132,1,225,6|8,1:2|0:0,0:0:0:0:
212,296,9725,2,0,P|172:308|116:304,1,90,2|2,0:0|0:0,0:0:0:0:
52,252,10391,2,0,L|40:116,2,135,8|6|2,0:0|0:0|0:0,0:0:0:0:
136,216,11725,1,12,0:0:0:0:
300,288,12391,2,0,L|408:276,1,90,2|2,0:0|0:0,0:0:0:0:
456,216,13058,6,0,P|484:172|468:88,2,135,8|6|2,0:2|0:0|0:0,0:0:0:0:
398,146,14391,2,0,L|264:159,2,135,8|2|2,0:0|0:0|0:0,0:0:0:0:
461,82,15725,1,12,0:0:0:0:
336,30,16225,2,0,P|300:19|216:66,1,135,6|2,0:0|0:0,0:0:0:0:
171,138,17058,2,0,L|199:317,1,180,12|0,0:0|0:0,0:0:0:0:
283,345,18058,1,0,0:0:0:0:
336,272,18391,6,0,P|377:242|471:260,2,135,8|6|2,0:0|0:0|0:0,0:0:0:0:
283,345,19725,1,8,0:0:0:0:
108,303,20391,2,0,P|84:264|89:208,1,90,2|2,0:0|0:0,0:0:0:0:
148,157,21058,2,0,B|183:140|183:140|280:160,2,135,8|6|2,0:0|0:0|0:0,0:0:0:0:
84,220,22391,1,12,0:0:0:0:
248,296,23058,2,0,P|288:300|340:276,1,90,8|2,0:0|0:0,0:0:0:0:
396,216,23725,6,0,P|412:176|380:92,2,135,8|6|2,0:0|0:0|0:0,0:0:0:0:
324,164,25058,1,8,0:0:0:0:
224,256,25558,2,0,B|172:272|172:272|80:260,1,135,6|2,0:0|0:0,0:0:0:0:
24,204,26391,2,0,P|8:152|60:72,2,135,8|6|2,0:0|0:0|0:0,0:0:0:0:
98,153,27725,1,12,0:0:0:0:
252,244,28391,2,0,L|442:230,1,180,8|8,0:0|0:0,0:0:0:0:
483,156,29391,1,4,0:3:0:0:
437,78,29725,5,6,0:0:0:0:
274,154,30391,1,2,0:0:0:0:
103,94,31058,2,0,P|80:54|89:5,2,90,2|0|2,0:0|0:0|0:0,0:0:0:0:
176,146,32058,1,0,0:0:0:0:
159,234,32391,2,0,P|117:289|1:283,2,180,2|2|2,0:0|0:0|0:0,0:0:0:0:
185,55,34391,2,0,L|281:47,1,90,2|0,0:0|0:0,0:0:0:0:
361,24,35058,5,6,0:0:0:0:
285,187,35725,1,2,0:0:0:0:
433,289,36391,2,0,B|332:266|364:339|256:316,1,180,2|2,0:0|0:0,0:0:0:0:
89,258,37725,2,0,P|70:219|73:174,1,90,2|0,0:0|0:0,0:0:0:0:
143,117,38391,2,0,P|162:156|159:201,1,90,2|0,0:0|0:0,0:0:0:0:
238,244,39058,2,0,L|374:255,2,135,8|2|8,0:0|0:0|0:0,0:0:0:0:
164,295,40391,5,6,0:0:0:0:
143,117,41058,1,8,0:0:0:0:
300,32,41725,2,0,P|375:36|427:134,1,180,2|8,0:0|0:0,0:0:0:0:
337,116,42725,1,0,0:0:0:0:
384,194,43058,2,0,L|344:370,1,180,2|8,0:0|0:0,0:0:0:0:
168,340,44391,2,0,P|64:322|34:250,1,180,2|0,0:0|0:0,0:0:0:0:
88,188,45391,1,4,0:3:0:0:
40,110,45725,5,6,0:0:0:0:
199,192,46391,1,8,0:0:0:0:
324,61,47058,2,0,P|364:42|409:40,2,90,2|0|8,0:0|0:0|0:0,0:0:0:0:
272,136,48058,1,0,0:0:0:0:
354,169,48391,2,0,P|399:219|393:336,1,180,2|8,0:0|0:0,0:0:0:0:
218,303,49725,2,0,B|172:293|172:293|128:312|67:298,2,135,8|2|0,0:0|0:0|0:0,0:0:0:0:
301,268,51058,5,6,0:0:0:0:
256,96,51725,1,6,0:0:0:0:
84,141,52391,1,6,0:0:0:0:
129,313,53058,1,6,0:0:0:0:
301,268,53725,6,0,L|313:165,1,90,6|0,0:0|0:0,0:0:0:0:
233,133,54391,2,0,L|221:236,1,90,6|0,0:0|0:0,0:0:0:0:
171,296,55058,2,0,B|77:277|100:357|2:335,1,180,6|8,0:0|1:2,0:0:0:0:
38,204,56225,6,0,L|21:55,1,135,6|2,0:0|0:0,0:0:0:0:
105,33,57058,1,8,0:0:0:0:
220,170,57725,1,2,0:0:0:0:
377,83,58391,2,0,L|514:67,2,135,8|6|2,0:0|0:0|0:0,0:0:0:0:
319,152,59725,2,0,P|310:195|324:237,1,90,8|0,0:0|0:0,0:0:0:0:
409,268,60391,2,0,P|342:323|257:298,1,180,2|8,0:0|0:0,0:0:0:0:
172,196,61558,6,0,L|182:43,1,135,6|2,0:0|0:0,0:0:0:0:
95,33,62391,2,0,L|84:176,2,135,8|2|0,0:0|0:0|0:0,0:0:0:0:
180,61,63725,1,8,0:0:0:0:
312,33,64225,2,0,L|465:23,1,135,6|2,0:0|0:0,0:0:0:0:
467,110,65058,2,0,B|335:119|335:119|274:143,1,180,8|2,0:0|0:0,0:0:0:0:
240,211,66058,1,2,0:0:0:0:
276,292,66391,6,0,P|336:330|401:321,2,135,8|6|2,0:0|0:0|0:0,0:0:0:0:
330,220,67725,1,8,0:0:0:0:
204,91,68391,1,2,0:0:0:0:
58,197,69058,2,0,P|43:245|83:324,1,135,12|2,0:0|0:0,0:0:0:0:
160,350,69891,2,0,L|301:335,1,135,6|8,0:0|0:0,0:0:0:0:
474,332,71058,2,0,P|508:265|493:158,1,180,2|8,0:0|0:0,0:0:0:0:
410,57,72225,6,0,L|403:191,1,135,6|2,0:0|0:0,0:0:0:0:
314,206,73058,2,0,L|321:62,2,135,8|2|2,0:0|0:0|0:0,0:0:0:0:
368,277,74391,1,8,0:0:0:0:
248,336,74891,2,0,L|108:346,1,135,6|2,0:0|0:0,0:0:0:0:
79,262,75725,2,0,L|213:252,2,135,12|8|2,0:0|0:0|0:0,0:0:0:0:
48,177,77058,1,8,0:0:0:0:
162,104,77558,6,0,P|208:93|299:224,1,225,6|8,0:0|0:0,0:0:0:0:
140,297,79058,1,2,0:0:0:0:
69,242,79391,2,0,L|80:88,1,135,2|6,0:0|0:0,0:0:0:0:
136,40,80225,1,2,0:0:0:0:
215,83,80558,2,0,P|280:116|344:100,1,135,6|8,0:0|0:0,0:0:0:0:
398,266,81725,2,0,P|397:310|376:350,1,90,2|8,0:0|0:0,0:0:0:0:
288,376,82391,1,8,0:0:0:0:
172,306,82891,6,0,B|228:301|228:301|246:290|246:290|304:284,1,135,6|2,0:0|0:0,0:0:0:0:
271,199,83725,2,0,B|213:205|213:205|195:216|195:216|121:224,2,135,8|6|2,0:0|0:0|0:0,0:0:0:0:
328,129,85058,1,8,0:0:0:0:
214,56,85558,6,0,B|156:50|156:50|138:39|138:39|64:31,1,135,6|2,0:0|0:0,0:0:0:0:
49,118,86391,2,0,B|105:124|105:124|123:135|123:135|181:141,2,135,8|6|10,0:0|0:0|0:0,0:0:0:0:
23,203,87725,1,8,0:0:0:0:
121,294,88225,6,0,P|270:278|336:142,1,315,6|0,0:0|0:0,0:0:0:0:
