osu file format v14

[General]
AudioFilename: audio.mp3
AudioLeadIn: 0
PreviewTime: 56058
Countdown: 0
SampleSet: Soft
StackLeniency: 0.7
Mode: 0
LetterboxInBreaks: 0
WidescreenStoryboard: 0

[Editor]
DistanceSpacing: 0.1
BeatDivisor: 4
GridSize: 4
TimelineZoom: 1

[Metadata]
Title:My Hero
TitleUnicode:My Hero
Artist:MAN WITH A MISSION
ArtistUnicode:MAN WITH A MISSION
Creator:toybot
Version:Another
Source:いぬやしき
Tags:inu yashiki inuyashiki [ - Zekks - ] Hazu- Underforest
BeatmapID:1460352
BeatmapSetID:689957

[Difficulty]
HPDrainRate:5.5
CircleSize:4.5
OverallDifficulty:8
ApproachRate:9
SliderMultiplier:1.8
SliderTickRate:1

[Events]
//Background and Video events
0,0,"b8905846.jpg",0,0
Video,180,"pew pew noise.avi"
//Break Periods
//Storyboard Layer 0 (Background)
//Storyboard Layer 1 (Fail)
//Storyboard Layer 2 (Pass)
//Storyboard Layer 3 (Foreground)
//Storyboard Sound Samples

[TimingPoints]
392,333.333333333333,4,3,1,40,1,0
392,-133.333333333333,4,3,1,40,0,0
6391,-111.111111111111,4,3,1,40,0,0
7058,-95.2380952380952,4,3,1,40,0,0
7725,-95.2380952380952,4,2,1,40,0,0
8225,-95.2380952380952,4,2,1,70,0,0
8725,-100,4,2,1,70,0,0
29725,-133.333333333333,4,2,1,50,0,0
39058,-111.111111111111,4,2,1,60,0,0
40391,-111.111111111111,4,2,1,70,0,0
50225,-133.333333333333,4,2,1,65,0,0
50558,-200,4,2,1,60,0,0
54391,-166.666666666667,4,2,1,60,0,0
55058,-107.52688172043,4,2,1,70,0,0
56225,-90.9090909090909,4,2,1,80,0,1
89391,-90.9090909090909,4,2,1,5,0,0

[Colours]
Combo1 : 100,100,100
Combo2 : 255,62,62
Combo3 : 64,128,128
Combo4 : 174,0,0

[HitObjects]
111,132,392,6,0,B|182:116|172:157|270:138,1,135,8|0,0:0|0:0,0:0:0:0:
317,104,836,2,0,L|326:60,1,45.0000017166138
392,125,1058,2,0,P|427:125|477:217,1,135,8|0,0:0|0:0,0:0:0:0:
443,272,1503,2,0,L|451:319,1,45
464,325,1725,6,0,L|314:302,1,135,8|0,0:0|0:0,0:0:0:0:
261,268,2169,2,0,P|253:289|253:311,1,45.0000017166138
279,189,2391,2,0,L|275:158,10,22.5000008583069,8|0|0|0|0|0|0|0|0|0|0,0:0|0:0|0:0|0:0|0:0|0:0|0:0|0:0|0:0|0:0|0:0,0:0:0:0:
208,129,3058,6,0,P|170:124|104:200,1,135,8|0,0:0|0:0,0:0:0:0:
52,236,3503,2,0,L|62:292,1,45
21,357,3725,2,0,B|101:337|84:388|169:363,1,135,8|0,0:0|0:0,0:0:0:0:
232,338,4169,2,0,L|242:269,1,45.0000017166138
311,358,4391,6,0,P|342:329|326:222,1,135,8|0,0:0|0:0,0:0:0:0:
309,176,4836,2,0,L|261:190,1,45.0000017166138
206,139,5058,2,0,L|167:135,10,22.5000008583069,8|0|0|0|0|0|0|0|0|0|0,0:0|0:0|0:0|0:0|0:0|0:0|0:0|0:0|0:0|0:0|0:0,0:0:0:0:
266,177,5725,6,0,B|193:161|204:208|127:189,1,135,10|0,0:0|0:0,0:0:0:0:
112,175,6169,2,0,L|123:219,1,45.0000017166138
270,162,6391,6,0,B|180:141|194:197|113:176,1,161.999995056153,10|0,0:0|0:0,0:0:0:0:
99,164,6836,2,0,L|115:227,1,53.9999983520508
283,149,7058,6,0,B|182:120|193:186|99:164,1,188.999994232178,10|0,0:0|0:0,0:0:0:0:
86,153,7503,2,0,L|103:232,1,62.9999980773926
118,298,7725,5,8,1:2:0:0:
148,77,7891,1,4,1:3:0:0:
122,313,8058,1,4,1:3:0:0:
4,118,8225,6,0,B|101:96|77:177|184:155,1,188.999994232178,6|2,1:2|0:0,0:0:0:0:
290,130,8725,2,0,P|267:168|250:210,1,90,2|0,0:0|0:0,0:0:0:0:
225,82,9058,2,0,L|211:-18,1,90,8|0,0:0|0:0,0:0:0:0:
340,205,9391,1,0,0:0:0:0:
340,205,9725,6,0,B|369:195|369:195|441:215,1,90,2|0,0:0|0:0,0:0:0:0:
431,55,10058,2,0,B|397:73|397:73|296:44,1,135,2|0,0:0|0:0,0:0:0:0:
286,54,10391,1,8,0:0:0:0:
298,141,10558,1,0,0:0:0:0:
310,228,10725,1,0,0:0:0:0:
174,143,10891,6,0,L|76:132,1,90,6|0,0:0|0:0,0:0:0:0:
74,301,11225,1,2,0:0:0:0:
0,259,11391,2,0,P|38:225|78:215,1,90,2|0,0:0|0:0,0:0:0:0:
307,242,11725,2,0,P|247:245|173:159,1,180,12|0,0:0|0:0,0:0:0:0:
321,19,12225,1,8,0:0:0:0:
263,156,12391,6,0,L|249:38,1,90,2|0,0:0|0:0,0:0:0:0:
390,258,12725,2,0,L|379:347,1,90,2|0,0:0|0:0,0:0:0:0:
346,180,13058,1,8,0:2:0:0:
473,232,13225,1,4,0:3:0:0:
444,120,13391,1,4,0:3:0:0:
379,347,13558,6,0,B|283:377|294:307|202:332,1,180,6|2,0:0|0:0,0:0:0:0:
31,208,14058,2,0,P|92:203|134:181,1,90,2|0,0:0|0:0,0:0:0:0:
207,167,14391,1,8,0:0:0:0:
81,294,14558,1,0,0:0:0:0:
63,125,14725,1,0,0:0:0:0:
190,280,14891,6,0,L|203:188,1,90,2|0,0:0|0:0,0:0:0:0:
152,40,15225,1,2,0:0:0:0:
311,62,15391,2,0,P|271:83|227:92,1,90,2|0,0:0|0:0,0:0:0:0:
96,100,15725,1,12,0:0:0:0:
238,8,15891,1,0,0:0:0:0:
77,103,16058,1,8,0:0:0:0:
248,167,16225,6,0,B|302:172|377:114|377:114|359:153,1,180,6|2,0:0|0:0,0:0:0:0:
456,258,16725,2,0,P|441:215|441:170,1,90,2|0,0:0|0:0,0:0:0:0:
289,59,17058,2,0,L|469:82,1,180,12|2,0:0|0:0,0:0:0:0:
248,167,17558,1,8,0:0:0:0:
361,147,17725,6,0,L|349:240,1,90,2|0,0:0|0:0,0:0:0:0:
138,173,18058,2,0,L|169:268,1,90,2|0,0:0|0:0,0:0:0:0:
238,77,18391,1,8,0:0:0:0:
248,167,18558,1,4,0:3:0:0:
258,257,18725,1,4,0:3:0:0:
322,29,18891,6,0,B|229:10|243:75|128:47,1,180,6|2,0:0|0:0,0:0:0:0:
141,224,19391,1,2,0:0:0:0:
296,117,19558,1,0,0:0:0:0:
70,136,19725,2,0,P|41:193|59:317,1,180,8|0,0:0|0:0,0:0:0:0:
141,224,20225,1,0,0:0:0:0:
115,52,20391,6,0,L|5:40,1,90,2|0,0:0|0:0,0:0:0:0:
243,196,20725,2,0,L|123:208,1,90,2|0,0:0|0:0,0:0:0:0:
340,31,21058,1,8,0:0:0:0:
371,228,21225,1,4,0:3:0:0:
214,103,21391,1,4,0:3:0:0:
460,196,21558,6,0,B|480:294|416:274|444:388,1,180,6|2,0:0|0:0,0:0:0:0:
371,228,22058,2,0,L|354:117,1,90,2|0,0:0|0:0,0:0:0:0:
501,52,22391,2,0,P|446:71|344:5,1,180,12|0,0:0|0:0,0:0:0:0:
347,12,22891,1,8,0:0:0:0:
195,150,23058,5,8,0:0:0:0:
302,163,23225,1,0,0:0:0:0:
153,45,23391,1,2,0:0:0:0:
138,290,23558,1,8,0:0:0:0:
260,83,23725,1,8,0:0:0:0:
272,266,23891,1,4,0:3:0:0:
367,86,24058,1,4,0:3:0:0:
417,214,24225,6,0,B|317:233|338:165|240:180,1,180,6|2,0:0|0:0,0:0:0:0:
383,133,24725,2,0,L|480:115,1,90,2|0,0:0|0:0,0:0:0:0:
272,266,25058,2,0,P|247:303|236:346,1,90,8|0,0:0|0:0,0:0:0:0:
409,230,25391,1,0,0:0:0:0:
213,100,25558,6,0,B|139:76|139:76|96:116|39:117,1,180,6|2,0:0|0:0,0:0:0:0:
277,172,26058,2,0,L|374:155,1,90,2|0,0:0|0:0,0:0:0:0:
171,258,26391,1,8,0:0:0:0:
305,78,26558,1,4,0:3:0:0:
248,338,26725,1,4,0:3:0:0:
87,138,26891,6,0,L|77:36,1,90,6|0,0:0|0:0,0:0:0:0:
238,193,27225,1,2,0:0:0:0:
76,151,27391,2,0,P|24:158|-16:182,1,90,2|0,0:0|0:0,0:0:0:0:
250,205,27725,2,0,P|316:213|382:160,1,135,12|0,0:0|0:0,0:0:0:0:
482,91,28058,6,0,L|356:105,1,90,2|8,0:0|0:0,0:0:0:0:
197,276,28391,1,8,0:0:0:0:
297,125,28558,1,0,0:0:0:0:
113,37,28725,2,0,B|144:69|144:69|159:111,1,90,10|0,0:0|0:0,0:0:0:0:
152,189,28975,1,8,0:0:0:0:
152,189,29058,5,8,0:0:0:0:
309,27,29225,1,4,0:3:0:0:
60,122,29391,1,4,0:3:0:0:
249,288,29558,2,0,L|239:210,1,45,4|0,0:3|0:0,0:0:0:0:
216,6,29725,5,6,0:0:0:0:
205,17,30058,2,0,P|157:29|121:32,1,67.5000025749208
269,83,30391,2,0,L|341:97,1,67.5000025749208,2|0,0:0|0:0,0:0:0:0:
428,68,30725,1,0,0:0:0:0:
407,162,30891,1,0,0:0:0:0:
512,252,31058,6,0,P|446:258|365:304,1,135.000005149842,2|0,0:0|0:0,0:0:0:0:
375,302,31725,2,0,L|291:290,1,67.5000025749208,2|0,0:0|0:0,0:0:0:0:
205,250,32058,1,0,0:0:0:0:
270,178,32225,1,0,0:0:0:0:
171,122,32391,6,0,B|109:135|109:135|101:144|101:144|35:159,1,135.000005149842,2|0,0:0|0:0,0:0:0:0:
182,108,33058,2,0,P|235:102|316:161,1,135.000005149842,2|0,0:0|0:0,0:0:0:0:
359,287,33558,1,0,0:0:0:0:
382,190,33725,6,0,P|387:159|397:118,1,67.5000025749208,2|0,0:0|0:0,0:0:0:0:
476,41,34058,2,0,P|485:76|491:113,1,67.5000025749208
388,207,34391,2,0,B|319:194|324:238|237:218,1,135.000005149842,2|0,0:0|0:0,0:0:0:0:
144,65,34891,2,0,L|133:111,1,33.7500012874604,8|0,0:0|0:0,0:0:0:0:
74,145,35058,6,0,L|221:125,1,135.000005149842,6|0,0:0|0:0,0:0:0:0:
305,75,35558,1,0,0:0:0:0:
295,180,35725,2,0,P|292:221|307:276,1,67.5000025749208,2|0,0:0|0:0,0:0:0:0:
389,137,36058,2,0,L|403:67,1,67.5000025749208
384,236,36391,5,2,0:0:0:0:
478,195,36558,2,0,P|503:153|508:120,1,67.5000025749208
385,253,36891,1,0,0:0:0:0:
465,331,37058,2,0,P|411:333|336:370,1,135.000005149842,2|0,0:0|0:0,0:0:0:0:
279,302,37558,1,0,0:0:0:0:
121,356,37725,6,0,P|73:355|33:338,1,67.5000025749208,2|0,0:0|0:0,0:0:0:0:
142,346,38058,2,0,L|156:272,1,67.5000025749208
36,183,38391,2,0,L|48:265,1,67.5000025749208,2|0,0:0|0:0,0:0:0:0:
215,167,38725,2,0,L|197:40,1,101.250003862381
200,66,39058,5,8,0:0:0:0:
280,227,39225,2,0,B|248:251|248:251|206:256,1,80.9999975280763,2|0,0:0|0:0,0:0:0:0:
287,23,39558,2,0,P|348:12|439:97,1,161.999995056153,2|2,0:0|0:0,0:0:0:0:
385,265,40058,1,8,0:0:0:0:
338,107,40225,1,8,0:0:0:0:
294,344,40391,6,0,L|157:364,1,121.499996292114,6|0,0:0|0:0,0:0:0:0:
173,361,40725,1,0,0:0:0:0:
102,127,40891,1,0,0:0:0:0:
20,270,41058,2,0,L|101:280,1,80.9999975280763,8|0,0:0|0:0,0:0:0:0:
225,179,41391,2,0,P|185:187|152:210,1,80.9999975280763
270,371,41725,6,0,P|311:319|303:209,1,161.999995056153,2|0,0:0|0:0,0:0:0:0:
224,275,42225,1,0,0:0:0:0:
393,345,42391,2,0,L|502:326,1,80.9999975280763,8|0,0:0|0:0,0:0:0:0:
316,202,42725,2,0,L|188:179,1,121.499996292114
177,192,43058,6,0,P|161:154|165:114,1,80.9999975280763,2|0,0:0|0:0,0:0:0:0:
314,25,43391,2,0,P|329:62|325:102,1,80.9999975280763
73,93,43725,2,0,P|124:34|202:28,1,161.999995056153,8|0,0:0|0:0,0:0:0:0:
316,202,44225,1,0,0:0:0:0:
389,102,44391,5,2,0:0:0:0:
199,177,44558,1,0,0:0:0:0:
349,305,44725,1,8,0:0:0:0:
316,202,44891,1,8,0:0:0:0:
353,318,45058,5,0,0:0:0:0:
182,175,45225,1,4,0:3:0:0:
396,87,45391,1,4,0:3:0:0:
235,286,45558,1,4,0:3:0:0:
225,47,45725,6,0,B|307:31|298:88|394:66,1,161.999995056153,6|0,0:0|0:0,0:0:0:0:
451,266,46225,1,0,0:0:0:0:
498,105,46391,2,0,P|466:129|428:141,1,80.9999975280763,8|0,0:0|0:0,0:0:0:0:
229,203,46725,2,0,P|268:211|302:233,1,80.9999975280763
401,68,47058,6,0,P|341:67|249:13,1,161.999995056153,2|0,0:0|0:0,0:0:0:0:
83,149,47558,1,0,0:0:0:0:
162,40,47725,2,0,L|181:148,1,80.9999975280763,8|0,0:0|0:0,0:0:0:0:
33,308,48058,1,0,0:0:0:0:
79,134,48225,1,0,0:0:0:0:
151,352,48391,6,0,P|188:367|228:371,1,80.9999975280763,2|0,0:0|0:0,0:0:0:0:
351,210,48725,1,0,0:0:0:0:
211,287,48891,1,0,0:0:0:0:
304,132,49058,2,0,B|312:91|312:91|324:77|324:77|314:26|283:5|244:5,1,161.999995056153,8|0,0:0|0:0,0:0:0:0:
396,132,49558,1,0,0:0:0:0:
412,48,49725,5,8,0:0:0:0:
168,159,49891,2,0,P|156:218|157:251,1,80.9999975280763,2|0,0:0|0:0,0:0:0:0:
345,217,50225,6,0,P|355:250|357:283,1,67.5000025749208,2|0,0:0|0:0,0:0:0:0:
194,316,50558,6,0,P|188:337|186:360,1,45,2|0,0:0|0:0,0:0:0:0:
313,371,50891,1,8,0:0:0:0:
256,242,51058,6,0,L|105:227,1,135,6|0,0:0|0:0,0:0:0:0:
273,231,51725,2,0,P|331:213|398:266,1,135,6|0,0:0|0:0,0:0:0:0:
213,347,52391,2,0,B|207:305|207:305|208:292|208:292|179:255|192:205,1,135,6|0,0:0|0:0,0:0:0:0:
202,361,53058,2,0,P|152:368|91:297,1,135,6|0,0:0|0:0,0:0:0:0:
273,231,53725,6,0,L|373:218,1,90,6|0,0:0|0:0,0:0:0:0:
470,279,54225,1,0,0:0:0:0:
261,219,54391,6,0,L|389:202,1,107.999996704102,6|0,0:0|0:0,0:0:0:0:
465,296,54891,1,0,0:0:0:0:
249,207,55058,6,0,L|402:188,1,125.550003927269,6|0,0:0|0:0,0:0:0:0:
439,155,55391,1,2,0:0:0:0:
315,341,55558,1,2,0:0:0:0:
172,124,55725,6,0,L|250:132,1,41.8500013090897,8|0,1:2|0:0,0:0:0:0:
419,266,55891,2,0,L|340:281,1,41.8500013090897,8|0,1:2|0:0,0:0:0:0:
24,308,56225,6,0,B|128:269|115:359|232:313,1,198.000006042481,6|2,0:0|0:0,0:0:0:0:
376,252,56725,1,2,0:0:0:0:
288,56,56891,1,0,0:0:0:0:
173,238,57058,2,0,P|223:234|306:223,1,99.0000030212403,8|0,0:0|0:0,0:0:0:0:
440,56,57391,2,0,B|360:34|372:96|299:72,1,148.50000453186
215,54,57725,6,0,L|228:166,1,99.0000030212403,2|0,0:0|0:0,0:0:0:0:
368,297,58058,2,0,L|383:199,1,99.0000030212403,2|0,0:0|0:0,0:0:0:0:
198,255,58391,2,0,P|242:235|292:236,1,99.0000030212403,8|0,0:0|0:0,0:0:0:0:
444,350,58724,1,0,0:0:0:0:
207,273,58891,6,0,B|103:249|120:327|15:300,1,198.000006042481,6|2,0:0|0:0,0:0:0:0:
122,93,59391,2,0,L|130:192,1,99.0000030212403,2|0,0:0|0:0,0:0:0:0:
292,342,59725,2,0,L|304:240,1,99.0000030212403,8|0,0:0|0:0,0:0:0:0:
239,144,60058,1,0,0:0:0:0:
299,356,60225,1,8,0:0:0:0:
446,154,60391,6,0,L|322:138,1,99.0000030212403,2|0,0:0|0:0,0:0:0:0:
137,121,60725,2,0,P|196:161|266:145,1,148.50000453186,2|0,0:0|0:0,0:0:0:0:
267,144,61058,1,8,0:0:0:0:
236,339,61225,1,4,0:3:0:0:
96,209,61391,1,4,0:3:0:0:
329,250,61558,6,0,L|432:237,1,99.0000030212403,6|0,0:0|0:0,0:0:0:0:
251,349,61891,1,2,0:0:0:0:
300,143,62058,1,2,0:0:0:0:
425,315,62225,1,0,0:0:0:0:
283,153,62391,2,0,B|249:136|198:138|198:138|167:161|123:170|86:161,1,198.000006042481,8|0,0:0|0:0,0:0:0:0:
259,339,62891,6,0,L|248:241,1,99.0000030212403,2|2,0:0|0:0,0:0:0:0:
300,143,63225,1,0,0:0:0:0:
150,306,63391,1,0,0:0:0:0:
197,102,63558,1,2,0:0:0:0:
273,356,63725,2,0,B|325:358|325:358|371:342,1,99.0000030212403,8|0,0:0|0:0,0:0:0:0:
215,223,64058,1,8,0:0:0:0:
392,345,64225,6,0,B|402:314|415:288|415:288|407:273|407:273|418:242|416:193|387:153,1,198.000006042481,6|2,0:0|0:0,0:0:0:0:
263,45,64725,2,0,L|281:170,1,99.0000030212403,2|0,0:0|0:0,0:0:0:0:
388,4,65058,1,8,0:0:0:0:
140,136,65225,1,0,0:0:0:0:
390,158,65391,1,0,0:0:0:0:
248,28,65558,2,0,L|163:20,1,49.5000015106202,8|0,0:0|0:0,0:0:0:0:
400,173,65725,6,0,L|514:158,1,99.0000030212403,2|0,0:0|0:0,0:0:0:0:
279,138,66058,1,2,0:0:0:0:
410,305,66225,2,0,L|421:245,1,49.5000015106202,8|0,0:0|0:0,0:0:0:0:
444,80,66391,5,8,0:0:0:0:
164,168,66558,1,4,0:3:0:0:
400,320,66725,1,4,0:3:0:0:
204,80,66891,6,0,B|100:56|120:132|8:104,1,198.000006042481,6|2,0:0|0:0,0:0:0:0:
236,224,67391,2,0,P|284:212|332:164,1,99.0000030212403,2|0,0:0|0:0,0:0:0:0:
148,176,67725,2,0,L|132:316,1,99.0000030212403,8|0,0:0|0:0,0:0:0:0:
260,344,68058,1,0,0:0:0:0:
216,104,68225,6,0,P|171:82|122:81,1,99.0000030212403,2|2,0:0|0:0,0:0:0:0:
32,260,68558,1,0,0:0:0:0:
228,120,68725,1,2,0:0:0:0:
40,164,68891,1,0,0:0:0:0:
248,360,69058,1,12,0:0:0:0:
300,80,69225,2,0,P|222:87|128:92,1,148.50000453186,2|0,0:0|0:0,0:0:0:0:
136,100,69558,6,0,P|120:60|176:96,1,148.50000453186,2|0,0:0|0:0,0:0:0:0:
172,176,69891,6,0,L|164:232,1,49.5000015106202,6|0,0:0|0:0,0:0:0:0:
151,327,70058,1,2,0:0:0:0:
76,156,70225,1,2,0:0:0:0:
256,248,70391,2,0,L|368:236,1,99.0000030212403,8|0,0:0|0:0,0:0:0:0:
89,262,70725,1,2,0:0:0:0:
256,146,70891,1,0,0:0:0:0:
256,146,70975,1,0,0:0:0:0:
256,145,71058,6,0,B|268:98|268:98|250:50,1,99.0000030212403,2|0,0:0|0:0,0:0:0:0:
4,176,71391,2,0,B|-8:223|-8:223|9:271,1,99.0000030212403,2|0,0:0|0:0,0:0:0:0:
184,320,71725,1,8,0:0:0:0:
141,38,71891,1,4,0:3:0:0:
187,341,72058,1,4,0:3:0:0:
45,102,72225,6,0,L|161:126,1,99.0000030212403,6|0,0:0|0:0,0:0:0:0:
308,232,72558,1,2,0:0:0:0:
264,76,72725,1,2,0:0:0:0:
184,288,72891,1,0,0:0:0:0:
408,208,73058,2,0,B|411:159|411:159|416:136|416:136|372:76|400:8,1,198.000006042481,8|0,0:0|0:0,0:0:0:0:
317,161,73558,6,0,P|261:159|213:134,1,99.0000030212403,2|0,0:0|0:0,0:0:0:0:
486,59,73891,1,2,0:0:0:0:
405,228,74058,1,2,0:0:0:0:
292,68,74225,1,0,0:0:0:0:
499,171,74391,5,8,0:0:0:0:
230,258,74558,1,4,0:3:0:0:
485,358,74725,1,4,0:3:0:0:
317,161,74891,6,0,B|273:170|229:144|229:144|141:129|116:198,1,198.000006042481,6|2,0:0|0:0,0:0:0:0:
175,351,75391,2,0,P|198:305|186:245,1,99.0000030212403,2|0,0:0|0:0,0:0:0:0:
56,111,75725,2,0,P|33:157|45:217,1,99.0000030212403,12|0,0:0|0:0,0:0:0:0:
164,366,76058,1,2,0:0:0:0:
169,112,76225,6,0,L|36:96,1,99.0000030212403,8|0,0:0|0:0,0:0:0:0:
253,249,76558,1,8,0:0:0:0:
297,29,76725,1,2,0:0:0:0:
143,196,76891,1,8,0:0:0:0:
145,220,76974,1,8,0:0:0:0:
148,245,77057,1,8,0:0:0:0:
402,151,77225,1,4,0:3:0:0:
114,25,77391,1,4,0:3:0:0:
126,346,77558,6,0,B|201:336|201:336|233:304|233:304|331:295,1,198.000006042481,6|2,0:0|0:0,0:0:0:0:
64,273,78058,1,2,0:0:0:0:
49,262,78391,2,0,L|36:144,1,99.0000030212403,8|0,0:0|0:0,0:0:0:0:
244,38,78725,1,0,0:0:0:0:
179,258,78891,1,2,0:0:0:0:
20,68,79058,6,0,B|95:78|95:78|127:110|127:110|225:119,1,198.000006042481,2|2,0:0|0:0,0:0:0:0:
217,129,79725,1,8,0:0:0:0:
381,287,79891,2,0,B|433:292|433:292|482:274,1,99.0000030212403,6|0,0:0|0:0,0:0:0:0:
427,170,80225,1,2,0:0:0:0:
272,354,80391,1,0,0:0:0:0:
211,113,80558,6,0,B|168:104|151:97|151:97|135:106|135:106|95:104|42:119|30:185,1,198.000006042481,6|2,0:0|0:0,0:0:0:0:
154,278,81058,2,0,P|122:230|120:185,1,99.0000030212403,8|0,0:0|0:0,0:0:0:0:
200,32,81391,1,2,0:0:0:0:
28,176,81558,1,0,0:0:0:0:
229,313,81725,6,0,P|164:310|74:342,1,148.50000453186,2|0,0:0|0:0,0:0:0:0:
70,331,82058,2,0,L|81:229,1,99.0000030212403,8|0,0:0|0:0,0:0:0:0:
253,108,82391,1,8,0:0:0:0:
70,221,82558,2,0,P|32:172|69:76,1,148.50000453186,2|0,0:0|0:0,0:0:0:0:
117,45,82891,6,0,L|232:32,1,99.0000030212403,6|0,0:0|0:0,0:0:0:0:
340,240,83225,1,2,0:0:0:0:
320,48,83391,1,2,0:0:0:0:
260,312,83558,1,0,0:0:0:0:
456,188,83725,2,0,B|464:144|464:144|456:56,1,99.0000030212403,8|0,0:0|0:0,0:0:0:0:
268,188,84058,1,8,0:0:0:0:
496,300,84225,6,0,P|472:244|340:232,1,198.000006042481,6|2,0:0|0:0,0:0:0:0:
220,360,84725,1,2,0:0:0:0:
404,300,84891,1,0,0:0:0:0:
240,100,85058,2,0,L|251:209,1,99.0000030212403,8|0,0:0|0:0,0:0:0:0:
308,312,85391,1,8,0:0:0:0:
228,88,85558,6,0,B|120:64|152:140|39:119,1,198.000006042481,6|2,0:0|0:0,0:0:0:0:
156,192,86058,1,2,0:0:0:0:
122,14,86225,1,0,0:0:0:0:
163,211,86391,2,0,L|269:219,1,99.0000030212403,8|0,0:0|0:0,0:0:0:0:
67,274,86725,1,8,0:0:0:0:
292,96,86891,6,0,B|328:82|328:82|341:66|341:66|386:48|445:70|462:121,1,198.000006042481,6|2,0:0|0:0,0:0:0:0:
332,236,87391,1,10,0:0:0:0:
180,148,87558,1,0,0:0:0:0:
396,172,87725,5,8,0:0:0:0:
116,212,87891,1,8,0:0:0:0:
313,317,88058,1,8,0:0:0:0:
199,67,88225,1,6,0:0:0:0:
256,192,88308,12,0,89391,0:0:0:0:
