osu file format v14

[General]
AudioFilename: audio.mp3
AudioLeadIn: 0
PreviewTime: 190708
Countdown: 1
SampleSet: None
StackLeniency: 0.7
Mode: 0
LetterboxInBreaks: 0
WidescreenStoryboard: 1

[Editor]
Bookmarks: 214625
DistanceSpacing: 0.3
BeatDivisor: 1
GridSize: 32
TimelineZoom: 2.6

[Metadata]
Title:My Hero
TitleUnicode:My Hero
Artist:MAN WITH A MISSION
ArtistUnicode:MAN WITH A MISSION
Creator:Veridian
Version:extreme (loose style)
Source:
Tags:
BeatmapID:1883558
BeatmapSetID:902147

[Difficulty]
HPDrainRate:5
CircleSize:3.6
OverallDifficulty:5
ApproachRate:9
SliderMultiplier:2
SliderTickRate:1

[Events]
//Background and Video events
0,0,"oboik.ru_36227.jpg",0,0
//Break Periods
2,94825,98192
2,161658,168858
2,214825,219358
//Storyboard Layer 0 (Background)
//Storyboard Layer 1 (Fail)
//Storyboard Layer 2 (Pass)
//Storyboard Layer 3 (Foreground)
//Storyboard Sound Samples

[TimingPoints]
1459,333.333333333333,4,2,0,100,1,0
36125,-133.333333333333,4,2,0,100,0,0
62625,-90.9090909090909,4,2,0,100,0,1
73125,-90.9090909090909,4,2,0,100,0,0
73292,-90.9090909090909,4,2,0,100,0,1
83958,-100,4,2,0,100,0,0
100125,-133.333333333333,4,2,0,100,0,0
115958,-90.9090909090909,4,2,0,100,0,1
126458,-90.9090909090909,4,2,0,100,0,0
126625,-90.9090909090909,4,2,0,100,0,1
137458,-100,4,2,0,100,0,0
169792,-133.333333333333,4,2,0,100,0,0
180125,-200,4,2,0,100,0,0
201458,-500,4,2,0,100,0,0
219958,-83.3333333333333,4,2,0,100,0,1
233292,-83.3333333333333,4,2,0,100,0,0
233625,-83.3333333333333,4,2,0,100,0,1
241292,-83.3333333333333,4,2,0,100,0,0
246625,-83.3333333333333,4,2,0,100,0,1
251958,-83.3333333333333,4,2,0,100,0,0
252125,-83.3333333333333,4,2,0,100,0,1
254625,-83.3333333333333,4,2,0,100,0,0
254958,-83.3333333333333,4,2,0,100,0,1
262625,-500,4,2,0,100,0,0

[Colours]
Combo1 : 251,175,17
Combo2 : 128,0,128
Combo3 : 128,64,0
Combo4 : 0,64,128

[HitObjects]
256,192,8125,12,0,13792,0:0:0:0:
256,60,14125,5,0,0:0:0:0:
376,192,14292,1,0,0:0:0:0:
304,260,14458,1,0,0:0:0:0:
396,104,14625,6,0,P|392:204|400:320,1,200
288,180,15125,2,0,P|260:152|184:148,1,100
104,312,15458,2,0,P|144:272|232:296,1,150
240,308,15792,2,0,P|272:344|324:356,1,100
512,228,16125,2,0,P|456:224|392:304,1,150
372,272,16458,2,0,L|388:152,1,100
336,64,16792,1,0,0:0:0:0:
476,128,16958,1,0,0:0:0:0:
292,212,17124,1,0,0:0:0:0:
420,28,17292,6,0,P|336:36|200:28,1,200
40,152,17792,2,0,P|60:120|172:136,1,150
172,136,18125,2,0,P|188:184|168:240,1,100
312,368,18458,2,0,P|268:324|288:224,1,150
288,224,18792,2,0,P|336:256|394:254,1,100
492,100,19125,2,0,P|428:96|364:172,1,150
368,164,19458,1,0,0:0:0:0:
276,56,19625,1,0,0:0:0:0:
464,188,19792,1,0,0:0:0:0:
236,292,19958,6,0,B|256:152|256:152|200:204,1,200
312,352,20458,2,0,L|436:336,1,100
144,256,20792,2,0,L|28:240,1,100
20,144,21125,1,0,0:0:0:0:
96,348,21292,2,0,P|120:292|248:280,1,200
248,88,21792,2,0,P|200:152|168:160,1,100
152,60,22125,1,0,0:0:0:0:
304,188,22292,1,0,0:0:0:0:
132,44,22458,1,0,0:0:0:0:
340,88,22625,6,0,P|332:160|340:300,1,200
476,256,23125,2,0,P|484:192|468:136,1,100
292,360,23458,2,0,P|324:308|428:328,1,150
424,324,23792,1,0,0:0:0:0:
256,216,23958,1,0,0:0:0:0:
188,332,24125,5,0,0:0:0:0:
116,136,24292,1,0,0:0:0:0:
348,216,24458,1,0,0:0:0:0:
92,272,24625,1,0,0:0:0:0:
184,44,24792,1,0,0:0:0:0:
224,144,24958,1,0,0:0:0:0:
84,44,25125,1,0,0:0:0:0:
284,16,25292,6,0,P|328:0|412:84,1,150
420,72,25625,1,0,0:0:0:0:
320,112,25792,1,0,0:0:0:0:
504,196,25958,1,0,0:0:0:0:
396,344,26125,2,0,P|400:256|384:156,1,150
384,184,26458,2,0,L|272:208,1,100
120,228,26792,1,0,0:0:0:0:
228,296,26958,5,0,0:0:0:0:
120,128,27125,1,0,0:0:0:0:
24,232,27292,1,0,0:0:0:0:
256,124,27458,1,0,0:0:0:0:
340,80,27625,1,0,0:0:0:0:
256,40,27792,1,0,0:0:0:0:
348,220,27958,5,0,0:0:0:0:
444,132,28125,1,0,0:0:0:0:
240,228,28292,1,0,0:0:0:0:
416,304,28458,2,0,P|464:296|516:296,1,100
260,316,28792,2,0,P|224:256|116:264,1,150
140,260,29125,1,0,0:0:0:0:
76,64,29292,1,0,0:0:0:0:
204,120,29458,5,0,0:0:0:0:
12,196,29624,1,0,0:0:0:0:
192,28,29792,2,0,P|248:32|288:84,1,100
284,176,30125,1,0,0:0:0:0:
368,24,30292,1,0,0:0:0:0:
456,176,30458,1,0,0:0:0:0:
208,232,30625,2,0,P|272:216|384:252,1,150
364,248,30958,5,0,0:0:0:0:
504,88,31125,1,0,0:0:0:0:
440,312,31292,1,0,0:0:0:0:
372,144,31458,1,0,0:0:0:0:
512,248,31625,1,0,0:0:0:0:
372,380,31792,1,0,0:0:0:0:
384,56,31958,6,0,P|372:112|240:112,1,200
116,76,32458,1,0,0:0:0:0:
216,20,32625,1,0,0:0:0:0:
112,192,32792,1,0,0:0:0:0:
11,22,32958,1,0,0:0:0:0:
212,216,33125,1,0,0:0:0:0:
104,288,33292,5,0,0:0:0:0:
212,116,33458,1,0,0:0:0:0:
320,288,33625,1,0,0:0:0:0:
448,176,33792,2,0,P|360:192|320:125,1,150
320,132,34125,2,0,P|356:88|348:28,1,100
116,12,34458,5,0,0:0:0:0:
268,56,34625,1,0,0:0:0:0:
116,228,34792,1,0,0:0:0:0:
168,96,34958,1,0,0:0:0:0:
104,256,35125,1,0,0:0:0:0:
176,76,35292,1,0,0:0:0:0:
244,216,35458,5,0,0:0:0:0:
16,120,35625,1,0,0:0:0:0:
84,56,35792,1,0,0:0:0:0:
108,148,35958,1,0,0:0:0:0:
328,16,36125,6,0,P|320:68|332:196,1,150.000005722046
372,240,36625,1,0,0:0:0:0:
484,188,36792,2,0,P|436:176|404:156,1,75.0000028610231
336,316,37125,2,0,P|376:284|436:292,1,112.500004291535
448,300,37458,6,0,L|440:388,1,75.0000028610231
256,376,37792,2,0,L|240:236,1,112.500004291535
244,248,38125,2,0,L|152:240,1,75.0000028610231
296,168,38458,2,0,L|388:156,1,75.0000028610231
232,72,38792,6,0,P|212:124|147:126,1,112.500004291535
144,120,39125,2,0,P|104:96|59:96,1,75.0000028610231
80,328,39458,2,0,P|72:264|84:176,1,150.000005722046
88,352,39958,1,0,0:0:0:0:
204,336,40125,6,0,P|212:284|200:216,1,112.500004291535
192,208,40458,2,0,L|288:216,1,75.0000028610231
444,276,40792,2,0,L|324:292,1,112.500004291535
312,296,41125,1,0,0:0:0:0:
496,360,41292,1,0,0:0:0:0:
364,172,41458,6,0,P|397:129|451:128,1,112.500004291535
467,140,41792,2,0,P|461:103|467:66,1,75.0000028610231
396,12,42125,1,0,0:0:0:0:
172,64,42292,2,0,P|216:68|328:60,1,150.000005722046
144,44,42792,1,0,0:0:0:0:
120,152,42958,2,0,P|88:120|44:112,1,75.0000028610231
184,240,43292,2,0,P|208:184|296:152,1,150.000005722046
368,200,43792,2,0,L|356:292,1,75.0000028610231
484,360,44125,6,0,L|460:232,1,112.500004291535
460,236,44458,2,0,P|484:184|514:169,1,75.0000028610231
352,68,44792,2,0,P|388:104|468:84,1,112.500004291535
460,96,45125,2,0,L|472:12,1,75.0000028610231
352,176,45458,5,0,0:0:0:0:
256,20,45625,2,0,L|160:32,1,75.0000028610231
192,140,45958,2,0,L|96:152,2,75.0000028610231
100,56,46458,1,0,0:0:0:0:
52,232,46625,1,0,0:0:0:0:
0,80,46792,6,0,P|12:128|8:168,1,75.0000028610231
120,348,47125,2,0,P|128:296|156:232,1,112.500004291535
160,224,47458,2,0,P|208:244|252:248,1,75.0000028610231
224,152,47792,1,0,0:0:0:0:
292,328,47958,1,0,0:0:0:0:
348,136,48125,6,0,P|336:184|348:260,1,112.500004291535
356,256,48458,1,0,0:0:0:0:
448,192,48625,1,0,0:0:0:0:
304,40,48792,2,0,L|444:60,1,112.500004291535
424,44,49125,2,0,P|464:12|494:8,1,75.0000028610231
316,132,49458,6,0,P|304:84|208:44,1,150.000005722046
212,216,49958,2,0,P|210:173|220:116,1,75.0000028610231
124,172,50292,1,0,0:0:0:0:
296,252,50458,1,0,0:0:0:0:
184,304,50625,1,0,0:0:0:0:
404,248,50792,5,0,0:0:0:0:
344,176,50958,1,0,0:0:0:0:
404,332,51125,1,0,0:0:0:0:
476,200,51292,1,0,0:0:0:0:
304,308,51458,1,0,0:0:0:0:
476,380,51625,1,0,0:0:0:0:
344,152,51792,1,0,0:0:0:0:
220,380,51958,1,0,0:0:0:0:
396,224,52125,6,0,P|332:232|256:224,1,112.500004291535
268,220,52458,2,0,P|216:200|180:200,1,75.0000028610231
204,292,52792,1,0,0:0:0:0:
144,124,52958,1,0,0:0:0:0:
80,240,53125,1,0,0:0:0:0:
216,80,53292,2,0,L|64:100,1,150.000005722046
216,0,53792,5,0,0:0:0:0:
280,152,53958,1,0,0:0:0:0:
344,80,54125,1,0,0:0:0:0:
192,188,54292,1,0,0:0:0:0:
360,244,54458,1,0,0:0:0:0:
280,272,54625,6,0,L|432:292,1,150.000005722046
496,124,55125,2,0,P|464:164|384:160,1,112.500004291535
392,164,55458,1,0,0:0:0:0:
212,108,55625,1,0,0:0:0:0:
392,40,55792,1,0,0:0:0:0:
304,216,55958,1,0,0:0:0:0:
208,8,56125,5,0,0:0:0:0:
120,220,56292,1,0,0:0:0:0:
132,240,56625,1,0,0:0:0:0:
144,256,56958,1,0,0:0:0:0:
156,272,57292,1,0,0:0:0:0:
232,316,57458,6,0,P|168:312|56:320,1,150.000005722046
280,196,58125,2,0,P|344:200|456:192,1,150.000005722046
232,316,58792,2,0,P|168:312|56:320,1,150.000005722046
280,196,59459,2,0,P|344:200|456:192,1,150.000005722046
264,108,60125,6,0,P|264:164|108:192,1,225.000008583069
72,140,60792,2,0,L|92:68,1,75.0000028610231
12,212,61125,2,0,L|27:294,1,75.0000028610231
240,308,61458,2,0,P|184:300|116:312,1,112.500004291535
124,320,61792,1,0,0:0:0:0:
240,208,61958,1,0,0:0:0:0:
312,360,62125,1,0,0:0:0:0:
384,252,62292,1,0,0:0:0:0:
124,212,62625,6,0,P|192:196|220:48,1,220.000006713867
380,12,63125,2,0,P|364:88|380:184,1,165.000005035401
384,188,63458,2,0,L|516:172,1,110.000003356934
508,324,63792,2,0,L|324:296,1,165.000005035401
324,296,64125,2,0,P|260:300|216:344,1,110.000003356934
56,84,64458,2,0,P|44:168|145:188,1,165.000005035401
120,196,64792,2,0,P|188:192|232:220,1,110.000003356934
156,288,65125,1,0,0:0:0:0:
332,112,65292,6,0,P|324:180|328:360,1,220.000006713867
444,272,65792,2,0,P|452:212|438:141,1,110.000003356934
268,24,66125,2,0,P|300:68|420:36,1,165.000005035401
416,48,66458,1,0,0:0:0:0:
260,248,66625,1,0,0:0:0:0:
120,100,66792,2,0,P|156:160|136:264,1,165.000005035401
140,268,67125,2,0,L|28:248,1,110.000003356934
336,192,67458,5,0,0:0:0:0:
260,332,67625,1,0,0:0:0:0:
192,148,67792,1,0,0:0:0:0:
380,300,67958,6,0,P|372:224|388:68,1,220.000006713867
276,84,68458,1,0,0:0:0:0:
476,188,68625,1,0,0:0:0:0:
268,304,68792,2,0,P|272:240|264:180,1,110.000003356934
160,248,69125,1,0,0:0:0:0:
43,133,69292,6,0,P|56:242|48:352,1,220.000006713867
160,160,69792,1,0,0:0:0:0:
164,348,69958,1,0,0:0:0:0:
240,92,70125,1,0,0:0:0:0:
43,133,70292,1,0,0:0:0:0:
272,232,70458,1,0,0:0:0:0:
180,8,70625,6,0,P|212:56|372:16,1,220.000006713867
492,160,71125,2,0,L|352:144,1,110.000003356934
276,336,71458,2,0,L|468:312,1,165.000005035401
456,328,71792,1,0,0:0:0:0:
276,240,71958,6,0,P|264:304|112:316,1,220.000006713867
24,160,72458,1,0,0:0:0:0:
192,264,72625,1,0,0:0:0:0:
36,360,72792,1,0,0:0:0:0:
200,124,72958,1,0,0:0:0:0:
360,364,73125,1,0,0:0:0:0:
92,232,73292,6,0,L|348:216,1,220.000006713867
436,168,73792,1,0,0:0:0:0:
360,364,73958,1,0,0:0:0:0:
292,104,74125,1,0,0:0:0:0:
492,268,74292,1,0,0:0:0:0:
248,344,74458,1,0,0:0:0:0:
400,88,74625,6,0,L|160:72,1,220.000006713867
44,144,75125,1,0,0:0:0:0:
168,192,75292,1,0,0:0:0:0:
64,32,75458,1,0,0:0:0:0:
168,284,75625,2,0,P|108:264|85:207,1,110.000003356934
168,376,75958,6,0,P|236:352|268:248,1,165.000005035401
272,248,76292,2,0,L|344:232,1,55.0000016784668
444,216,76458,1,0,0:0:0:0:
324,136,76625,1,0,0:0:0:0:
376,312,76792,1,0,0:0:0:0:
456,100,76958,1,0,0:0:0:0:
216,168,77125,1,0,0:0:0:0:
343,33,77292,6,0,P|283:17|111:41,1,220.000006713867
116,280,77792,1,0,0:0:0:0:
324,168,77958,1,0,0:0:0:0:
41,92,78125,1,0,0:0:0:0:
180,360,78292,1,0,0:0:0:0:
180,172,78458,1,0,0:0:0:0:
40,332,78625,6,0,L|292:312,1,220.000006713867
456,184,79125,1,0,0:0:0:0:
376,376,79292,1,0,0:0:0:0:
348,160,79458,2,0,P|352:232|491:291,1,220.000006713867
244,8,79958,6,0,P|252:72|248:244,1,220.000006713867
156,72,80458,1,0,0:0:0:0:
352,72,80625,1,0,0:0:0:0:
124,200,80792,1,0,0:0:0:0:
44,72,80958,1,0,0:0:0:0:
252,224,81125,1,0,0:0:0:0:
12,216,81292,6,0,P|76:212|144:352,1,220.000006713867
276,128,81792,2,0,P|220:140|152:120,1,110.000003356934
288,332,82125,2,0,P|324:272|420:244,1,165.000005035401
424,252,82458,1,0,0:0:0:0:
380,24,82625,6,0,P|372:80|380:144,1,110.000003356934
488,80,82958,1,0,0:0:0:0:
260,16,83125,1,0,0:0:0:0:
156,168,83292,1,0,0:0:0:0:
180,164,83375,1,0,0:0:0:0:
200,160,83458,1,0,0:0:0:0:
60,72,83625,1,0,0:0:0:0:
148,272,83792,1,0,0:0:0:0:
396,280,83958,6,0,P|392:180|400:64,1,200
288,204,84458,2,0,P|260:232|184:236,1,100
104,72,84791,2,0,P|144:112|232:88,1,150
240,76,85125,2,0,P|272:40|324:28,1,100
512,156,85458,2,0,P|456:160|392:80,1,150
372,112,85791,2,0,L|388:232,1,100
336,320,86125,1,0,0:0:0:0:
476,256,86291,1,0,0:0:0:0:
292,172,86457,1,0,0:0:0:0:
420,356,86625,6,0,P|336:348|200:356,1,200
40,232,87125,2,0,P|60:264|172:248,1,150
172,248,87458,2,0,P|188:200|168:144,1,100
96,84,87792,1,0,0:0:0:0:
264,240,87958,1,0,0:0:0:0:
368,112,88125,5,0,0:0:0:0:
256,16,88292,1,0,0:0:0:0:
408,212,88458,1,0,0:0:0:0:
496,56,88625,1,0,0:0:0:0:
476,52,88708,1,0,0:0:0:0:
456,48,88792,1,0,0:0:0:0:
288,160,88958,1,0,0:0:0:0:
412,308,89125,1,0,0:0:0:0:
200,200,89292,6,0,P|288:192|431:202,1,200
292,288,89792,1,0,0:0:0:0:
192,104,89958,1,0,0:0:0:0:
64,280,90125,2,0,P|84:224|32:132,1,150
36,128,90458,1,0,0:0:0:0:
228,16,90625,6,0,L|208:236,1,200
200,316,91125,1,0,0:0:0:0:
308,156,91292,1,0,0:0:0:0:
132,72,91458,1,0,0:0:0:0:
328,164,91625,1,0,0:0:0:0:
120,64,91792,1,0,0:0:0:0:
348,64,91958,6,0,P|340:116|464:164,1,200
320,256,92458,1,0,0:0:0:0:
420,96,92625,1,0,0:0:0:0:
312,272,92792,1,0,0:0:0:0:
428,80,92958,1,0,0:0:0:0:
512,260,93125,1,0,0:0:0:0:
260,160,93292,6,0,P|276:224|245:370,1,200
144,320,93792,2,0,P|156:252|136:200,1,100
40,76,94042,1,0,0:0:0:0:
32,64,94125,1,0,0:0:0:0:
60,268,94292,1,0,0:0:0:0:
188,108,94458,1,0,0:0:0:0:
84,160,94625,5,0,0:0:0:0:
80,132,98792,5,0,0:0:0:0:
136,52,98958,1,0,0:0:0:0:
232,32,99125,1,0,0:0:0:0:
320,84,99292,1,0,0:0:0:0:
232,32,99625,1,0,0:0:0:0:
136,52,99792,1,0,0:0:0:0:
80,132,99958,1,0,0:0:0:0:
204,280,100125,6,0,P|216:228|196:112,1,150.000005722046
136,328,100792,2,0,L|296:312,1,150.000005722046
400,376,101458,2,0,P|400:320|476:244,1,150.000005722046
496,148,101958,2,0,P|448:160|340:144,1,150.000005722046
460,56,102458,2,0,P|415:62|363:50,1,75.0000028610231
256,116,102792,6,0,L|272:28,2,75.0000028610231
240,212,103292,1,0,0:0:0:0:
176,144,103458,2,0,P|132:124|72:160,1,112.500004291535
68,164,103792,2,0,L|80:272,1,75.0000028610231
236,284,104125,5,0,0:0:0:0:
88,376,104292,1,0,0:0:0:0:
312,232,104458,1,0,0:0:0:0:
160,332,104625,1,0,0:0:0:0:
324,368,104792,5,0,0:0:0:0:
76,238,105042,1,0,0:0:0:0:
324,120,105292,1,0,0:0:0:0:
184,312,105458,6,0,P|200:248|184:168,1,112.500004291535
184,176,105792,1,0,0:0:0:0:
28,112,105958,1,0,0:0:0:0:
200,52,106125,1,0,0:0:0:0:
92,192,106292,1,0,0:0:0:0:
64,12,106458,1,0,0:0:0:0:
272,88,106625,2,0,P|196:80|104:92,1,150.000005722046
324,168,107125,5,0,0:0:0:0:
328,12,107292,1,0,0:0:0:0:
412,104,107458,1,0,0:0:0:0:
232,196,107625,1,0,0:0:0:0:
372,252,107792,1,0,0:0:0:0:
196,308,107958,6,0,P|251:299|317:365,1,150.000005722046
128,352,108458,2,0,L|152:232,1,112.500004291535
156,224,108792,1,0,0:0:0:0:
32,152,108958,1,0,0:0:0:0:
160,88,109125,1,0,0:0:0:0:
56,288,109292,5,0,0:0:0:0:
52,272,109375,1,0,0:0:0:0:
48,252,109458,1,0,0:0:0:0:
60,52,109625,1,0,0:0:0:0:
264,128,109792,1,0,0:0:0:0:
184,208,109958,1,0,0:0:0:0:
260,32,110125,1,0,0:0:0:0:
356,204,110292,1,0,0:0:0:0:
160,108,110458,5,0,0:0:0:0:
388,200,110624,1,0,0:0:0:0:
228,312,110792,6,0,P|280:304|384:312,1,150.000005722046
480,88,111458,2,0,P|428:96|324:88,1,150.000005722046
228,312,112125,2,0,P|280:304|384:312,1,150.000005722046
480,88,112791,2,0,P|428:96|324:88,1,150.000005722046
72,48,113458,6,0,P|124:36|208:168,1,225.000008583069
140,224,114125,2,0,L|44:212,1,75.0000028610231
276,224,114458,2,0,L|372:208,1,75.0000028610231
140,324,114792,2,0,P|188:308|288:332,1,150.000005722046
352,376,115292,1,0,0:0:0:0:
420,184,115458,5,0,0:0:0:0:
512,300,115625,1,0,0:0:0:0:
196,152,115792,1,0,0:0:0:0:
392,172,115958,6,0,P|324:188|296:336,1,220.000006713867
136,372,116458,2,0,P|152:296|136:200,1,165.000005035401
132,196,116791,2,0,L|0:212,1,110.000003356934
8,60,117125,2,0,L|192:88,1,165.000005035401
192,88,117458,2,0,P|256:84|300:40,1,110.000003356934
460,300,117791,2,0,P|472:216|371:196,1,165.000005035401
396,188,118125,2,0,P|328:192|284:164,1,110.000003356934
360,96,118458,1,0,0:0:0:0:
184,272,118625,6,0,P|192:204|188:24,1,220.000006713867
72,112,119125,2,0,P|64:172|78:243,1,110.000003356934
248,360,119458,2,0,P|216:316|96:348,1,165.000005035401
100,336,119791,1,0,0:0:0:0:
256,136,119958,1,0,0:0:0:0:
396,284,120125,2,0,P|360:224|380:120,1,165.000005035401
384,116,120458,1,0,0:0:0:0:
136,64,120625,1,0,0:0:0:0:
180,192,120791,5,0,0:0:0:0:
256,52,120958,1,0,0:0:0:0:
324,236,121125,1,0,0:0:0:0:
136,84,121291,6,0,P|144:160|128:316,1,220.000006713867
240,300,121791,1,0,0:0:0:0:
40,196,121958,1,0,0:0:0:0:
248,80,122125,2,0,P|244:144|252:204,1,110.000003356934
356,136,122458,1,0,0:0:0:0:
473,251,122625,6,0,P|460:142|468:32,1,220.000006713867
356,224,123125,1,0,0:0:0:0:
352,36,123291,1,0,0:0:0:0:
276,292,123458,1,0,0:0:0:0:
473,251,123625,1,0,0:0:0:0:
244,152,123791,1,0,0:0:0:0:
336,376,123958,6,0,P|304:328|144:368,1,220.000006713867
24,224,124458,2,0,L|164:240,1,110.000003356934
240,48,124791,2,0,L|48:72,1,165.000005035401
60,56,125125,1,0,0:0:0:0:
240,144,125291,6,0,P|252:80|404:68,1,220.000006713867
492,224,125791,1,0,0:0:0:0:
324,120,125958,1,0,0:0:0:0:
480,24,126125,1,0,0:0:0:0:
316,260,126291,1,0,0:0:0:0:
156,20,126458,1,0,0:0:0:0:
424,152,126625,6,0,L|168:168,1,220.000006713867
80,216,127125,1,0,0:0:0:0:
156,20,127291,1,0,0:0:0:0:
224,280,127458,1,0,0:0:0:0:
24,116,127625,1,0,0:0:0:0:
268,40,127791,1,0,0:0:0:0:
116,296,127958,6,0,L|356:312,1,220.000006713867
472,240,128458,1,0,0:0:0:0:
348,192,128625,1,0,0:0:0:0:
452,352,128791,1,0,0:0:0:0:
347,100,128958,2,0,P|407:120|430:177,1,110.000003356934
224,264,129292,2,0,P|228:188|212:77,1,165.000005035401
232,80,129625,2,0,P|228:40|232:4,1,55.0000016784668
320,44,129792,5,0,0:0:0:0:
120,108,129958,1,0,0:0:0:0:
344,188,130125,1,0,0:0:0:0:
124,8,130292,1,0,0:0:0:0:
128,264,130458,1,0,0:0:0:0:
232,80,130625,1,0,0:0:0:0:
12,80,130792,5,0,0:0:0:0:
232,248,130958,1,0,0:0:0:0:
340,88,131125,1,0,0:0:0:0:
24,192,131292,1,0,0:0:0:0:
260,364,131458,1,0,0:0:0:0:
168,136,131625,1,0,0:0:0:0:
104,280,131792,1,0,0:0:0:0:
400,328,131958,6,0,P|324:332|168:328,1,220.000006713867
332,220,132458,1,0,0:0:0:0:
408,364,132625,1,0,0:0:0:0:
456,144,132792,2,0,P|440:204|476:264,1,110.000003356934
476,120,133125,1,0,0:0:0:0:
288,332,133292,6,0,P|312:264|272:112,1,220.000006713867
124,48,133792,1,0,0:0:0:0:
176,208,133958,1,0,0:0:0:0:
280,20,134125,1,0,0:0:0:0:
64,152,134292,1,0,0:0:0:0:
196,224,134458,1,0,0:0:0:0:
12,72,134625,6,0,P|24:144|8:304,1,220.000006713867
212,344,135125,2,0,L|100:336,1,110.000003356934
280,160,135458,2,0,L|300:316,1,110.000003356934
176,120,135792,1,0,0:0:0:0:
420,176,135958,1,0,0:0:0:0:
416,208,136042,1,0,0:0:0:0:
412,236,136125,5,0,0:0:0:0:
432,80,136292,1,0,0:0:0:0:
492,328,136458,1,0,0:0:0:0:
293,269,136625,1,0,0:0:0:0:
376,360,136792,1,0,0:0:0:0:
288,152,136958,1,0,0:0:0:0:
192,340,137125,1,0,0:0:0:0:
416,208,137292,1,0,0:0:0:0:
152,64,137458,6,0,P|140:136|160:240,1,150
172,236,137792,2,0,P|104:224|48:240,1,100
244,144,138125,2,0,P|304:160|384:96,1,150
384,96,138458,2,0,L|368:20,1,50
416,220,138625,1,0,0:0:0:0:
496,140,138792,5,0,0:0:0:0:
292,248,138958,1,0,0:0:0:0:
484,336,139125,1,0,0:0:0:0:
368,376,139292,2,0,L|384:296,1,50
308,156,139458,1,0,0:0:0:0:
184,320,139625,2,0,L|200:240,1,50
136,128,139792,2,0,L|126:177,1,50
40,240,139958,1,0,0:0:0:0:
216,68,140125,6,0,P|164:92|64:56,1,150
51,54,140458,2,0,P|59:110|27:166,1,100
268,8,140792,2,0,P|248:76|268:216,1,200
348,120,141292,1,0,0:0:0:0:
224,296,141458,6,0,L|306:308,1,50
160,204,141625,1,0,0:0:0:0:
372,300,141792,1,0,0:0:0:0:
156,376,141958,1,0,0:0:0:0:
320,216,142125,1,0,0:0:0:0:
432,384,142292,1,0,0:0:0:0:
500,240,142458,2,0,L|508:324,1,50
416,124,142625,2,0,L|408:192,1,50
452,40,142792,6,0,P|420:84|309:56,1,150
312,68,143125,1,0,0:0:0:0:
144,4,143292,1,0,0:0:0:0:
168,200,143458,1,0,0:0:0:0:
204,108,143625,2,0,L|124:96,1,50
56,200,143792,1,0,0:0:0:0:
244,288,143958,1,0,0:0:0:0:
156,372,144125,6,0,L|144:308,1,50
244,196,144292,1,0,0:0:0:0:
352,304,144458,2,0,L|336:232,1,50
224,196,144625,1,0,0:0:0:0:
412,56,144792,1,0,0:0:0:0:
340,168,144958,1,0,0:0:0:0:
204,24,145125,1,0,0:0:0:0:
476,144,145292,1,0,0:0:0:0:
282,70,145458,6,0,L|96:54,1,150
108,73,145792,2,0,P|92:112|110:195,1,100
153,300,146125,1,0,0:0:0:0:
255,198,146292,2,0,L|176:204,1,50
53,303,146458,1,0,0:0:0:0:
229,381,146625,2,0,L|150:387,1,50
271,163,146792,5,0,0:0:0:0:
402,340,146958,1,0,0:0:0:0:
495,221,147125,2,0,P|425:236|329:226,1,150
331,227,147458,1,0,0:0:0:0:
413,125,147625,1,0,0:0:0:0:
317,384,147792,1,0,0:0:0:0:
243,279,147958,2,0,P|231:257|247:202,1,50
100,359,148125,6,0,P|112:278|104:189,1,150
95,192,148458,2,0,L|116:58,1,100
315,37,148792,1,0,0:0:0:0:
256,152,148958,1,0,0:0:0:0:
211,59,149125,1,0,0:0:0:0:
364,125,149292,1,0,0:0:0:0:
326,235,149458,5,0,0:0:0:0:
440,204,149625,1,0,0:0:0:0:
219,254,149792,1,0,0:0:0:0:
404,308,149958,1,0,0:0:0:0:
335,380,150125,5,0,0:0:0:0:
262,155,150292,1,0,0:0:0:0:
440,204,150458,1,0,0:0:0:0:
235,358,150625,1,0,0:0:0:0:
315,79,150792,2,0,P|299:140|311:247,1,150
321,248,151125,2,0,P|272:239|199:254,1,100
52,75,151458,2,0,P|71:127|178:105,1,150
174,126,151792,2,0,L|162:51,1,50
99,231,151958,2,0,L|88:308,1,50
160,364,152125,5,0,0:0:0:0:
256,200,152292,1,0,0:0:0:0:
364,368,152458,1,0,0:0:0:0:
260,304,152625,1,0,0:0:0:0:
456,120,152792,5,0,0:0:0:0:
380,268,152958,1,0,0:0:0:0:
264,48,153125,1,0,0:0:0:0:
376,176,153292,1,0,0:0:0:0:
484,36,153458,6,0,P|432:80|344:92,1,150
328,104,153792,2,0,P|280:80|205:91,1,100
120,220,154125,1,0,0:0:0:0:
260,240,154292,1,0,0:0:0:0:
256,216,154375,1,0,0:0:0:0:
252,196,154458,1,0,0:0:0:0:
156,120,154625,1,0,0:0:0:0:
96,320,154792,5,0,0:0:0:0:
4,168,154959,1,0,0:0:0:0:
200,316,155125,1,0,0:0:0:0:
16,372,155292,1,0,0:0:0:0:
176,220,155458,2,0,P|240:224|296:304,1,150
296,312,155792,1,0,0:0:0:0:
416,120,155958,1,0,0:0:0:0:
488,232,156125,6,0,L|376:216,1,100
244,64,156458,2,0,L|360:40,1,100
176,220,156792,2,0,L|16:188,1,150
12,184,157125,1,0,0:0:0:0:
88,84,157292,1,0,0:0:0:0:
188,344,157458,5,0,0:0:0:0:
276,156,157625,2,0,P|264:232|280:300,1,100
72,384,157958,2,0,P|76:316|61:256,1,100
384,132,158292,2,0,P|364:204|372:320,1,150
376,300,158625,2,0,L|456:288,1,50
288,44,158792,5,0,0:0:0:0:
256,192,158958,12,0,161458,0:0:0:0:
256,192,169458,5,0,0:0:0:0:
196,116,169792,2,0,L|206:57,3,50.0000019073487
296,112,170458,2,0,L|306:52,3,50.0000019073487
384,160,171125,2,0,L|394:100,3,50.0000019073487
464,216,171792,1,0,0:0:0:0:
380,264,172125,5,0,0:0:0:0:
440,336,172458,2,0,L|499:346,3,50.0000019073487
356,380,173125,2,0,L|306:371,3,50.0000019073487
196,292,173792,2,0,L|245:300,3,50.0000019073487
412,52,174792,5,0,0:0:0:0:
472,120,175125,2,0,P|480:156|476:192,3,50.0000019073487
328,80,175792,2,0,P|280:88|236:72,3,50.0000019073487
380,160,176458,2,0,P|372:200|344:224,3,50.0000019073487
304,272,177125,1,0,0:0:0:0:
240,208,177458,5,0,0:0:0:0:
172,272,177792,2,0,L|96:264,3,50.0000019073487
320,160,178458,2,0,L|396:152,3,50.0000019073487
188,68,179125,2,0,L|112:60,3,50.0000019073487
256,8,179792,1,0,0:0:0:0:
44,148,180125,6,0,P|24:184|188:212,1,300
236,144,181458,2,0,L|132:128,1,100
280,244,182125,2,0,L|408:228,1,100
432,332,182792,2,0,P|420:268|440:24,1,300
312,148,184125,2,0,P|264:192|204:208,1,100
124,36,184792,2,0,P|169:56|203:92,1,100
128,348,185458,6,0,L|108:140,1,200
288,256,186792,2,0,P|252:284|196:292,1,100
384,184,187458,2,0,P|433:190|472:220,1,100
400,80,188125,2,0,P|376:140|248:152,1,200
232,24,189458,2,0,L|352:8,1,100
152,104,190125,2,0,L|32:88,1,100
108,212,190792,6,0,P|128:152|336:160,1,300
252,308,192125,2,0,P|244:256|220:196,1,100
440,116,192792,2,0,P|423:163|415:212,1,100
508,256,193458,2,0,B|396:208|392:312|200:252,1,300
280,72,194792,2,0,L|304:196,1,100
104,304,195458,2,0,L|124:180,1,100
32,36,196125,5,0,0:0:0:0:
144,108,196292,1,0,0:0:0:0:
20,172,196458,1,0,0:0:0:0:
44,52,196625,1,0,0:0:0:0:
120,108,196792,1,0,0:0:0:0:
40,148,196958,1,0,0:0:0:0:
64,100,197125,1,0,0:0:0:0:
232,20,197458,6,0,P|252:72|220:212,1,200
276,364,198792,2,0,P|272:320|380:284,1,175
388,288,199458,2,0,L|500:276,1,100
328,176,200125,2,0,L|216:164,1,100
400,80,200792,2,0,L|512:68,1,100
200,88,201458,6,0,P|220:132|64:224,1,280
124,152,204125,2,0,L|407:202,1,280
480,352,206792,6,0,P|448:328|368:328,1,120
228,384,208125,2,0,P|252:356|256:272,1,120
256,192,209458,5,0,0:0:0:0:
120,192,210125,1,0,0:0:0:0:
392,192,210792,1,0,0:0:0:0:
256,32,211458,1,0,0:0:0:0:
256,328,212125,5,0,0:0:0:0:
416,40,212792,1,0,0:0:0:0:
64,192,213458,1,0,0:0:0:0:
416,344,214125,1,0,0:0:0:0:
252,4,214625,5,0,0:0:0:0:
56,192,219958,6,0,P|116:192|204:152,1,119.999996337891
424,88,220292,1,0,0:0:0:0:
272,32,220458,2,0,P|296:100|288:240,1,179.999994506836
288,228,220792,2,0,P|268:288|275:363,1,119.999996337891
496,376,221125,2,0,P|500:296|448:172,1,179.999994506836
456,180,221458,6,0,L|476:48,1,119.999996337891
276,28,221792,2,0,L|300:244,1,179.999994506836
300,232,222125,2,0,P|232:184|164:204,1,119.999996337891
112,368,222458,1,0,0:0:0:0:
24,304,222625,6,0,P|92:256|160:276,1,119.999996337891
384,316,222958,1,0,0:0:0:0:
472,52,223125,2,0,P|455:139|471:227,1,179.999994506836
492,260,223458,2,0,L|464:396,1,119.999996337891
264,300,223792,2,0,P|324:292|339:152,1,179.999994506836
352,168,224125,2,0,P|312:132|240:136,1,119.999996337891
56,280,224458,2,0,P|114:281|159:243,1,119.999996337891
168,12,224792,5,0,0:0:0:0:
88,200,224958,1,0,0:0:0:0:
8,8,225125,1,0,0:0:0:0:
288,0,225292,6,0,B|172:0|172:84|56:84,1,239.999992675781
272,96,225792,1,0,0:0:0:0:
4,192,225958,1,0,0:0:0:0:
288,232,226125,2,0,P|236:200|148:200,1,119.999996337891
188,328,226458,1,0,0:0:0:0:
392,112,226625,6,0,P|384:216|396:372,1,239.999992675781
488,240,227125,1,0,0:0:0:0:
296,108,227292,1,0,0:0:0:0:
436,24,227458,1,0,0:0:0:0:
256,228,227625,1,0,0:0:0:0:
76,24,227792,1,0,0:0:0:0:
8,144,227958,6,0,B|124:144|124:228|240:228,1,239.999992675781
232,104,228458,1,0,0:0:0:0:
112,308,228625,1,0,0:0:0:0:
336,168,228792,2,0,P|348:84|316:16,1,119.999996337891
172,12,229125,1,0,0:0:0:0:
316,280,229292,6,0,P|344:200|468:212,1,179.999994506836
460,204,229625,2,0,L|452:300,1,59.9999981689454
220,204,229792,1,0,0:0:0:0:
368,364,229958,5,0,0:0:0:0:
340,372,230042,1,0,0:0:0:0:
312,380,230125,1,0,0:0:0:0:
220,112,230292,1,0,0:0:0:0:
152,336,230458,1,0,0:0:0:0:
332,48,230625,6,0,P|336:156|320:200,1,119.999996337891
212,12,230958,1,0,0:0:0:0:
420,184,231125,2,0,L|212:212,1,179.999994506836
228,232,231458,1,0,0:0:0:0:
84,56,231625,1,0,0:0:0:0:
40,292,231792,1,0,0:0:0:0:
8,164,231958,6,0,P|80:168|133:229,1,119.999996337891
184,332,232292,1,0,0:0:0:0:
256,72,232458,1,0,0:0:0:0:
360,268,232625,1,0,0:0:0:0:
148,104,232792,1,0,0:0:0:0:
388,64,232958,2,0,L|360:268,1,179.999994506836
360,268,233292,1,0,0:0:0:0:
476,172,233625,5,0,0:0:0:0:
236,248,233792,1,0,0:0:0:0:
464,340,233958,1,0,0:0:0:0:
272,128,234125,1,0,0:0:0:0:
160,348,234292,1,0,0:0:0:0:
76,128,234458,1,0,0:0:0:0:
52,368,234625,6,0,P|67:299|36:212,1,119.999996337891
160,48,234958,1,0,0:0:0:0:
256,288,235125,1,0,0:0:0:0:
400,116,235292,1,0,0:0:0:0:
56,252,235458,1,0,0:0:0:0:
368,344,235625,1,0,0:0:0:0:
256,184,235792,1,0,0:0:0:0:
488,368,235958,6,0,P|476:296|500:168,1,179.999994506836
504,176,236292,1,0,0:0:0:0:
328,28,236458,1,0,0:0:0:0:
376,224,236625,1,0,0:0:0:0:
472,12,236792,2,0,B|348:12|348:100|240:100,1,239.999992675781
20,40,237292,6,0,P|80:24|112:140,1,179.999994506836
120,136,237625,1,0,0:0:0:0:
68,324,237792,1,0,0:0:0:0:
272,256,237958,1,0,0:0:0:0:
12,184,238125,1,0,0:0:0:0:
184,360,238292,1,0,0:0:0:0:
228,168,238458,1,0,0:0:0:0:
72,288,238625,6,0,P|144:300|268:272,1,179.999994506836
272,256,238958,1,0,0:0:0:0:
372,376,239125,1,0,0:0:0:0:
452,128,239292,1,0,0:0:0:0:
504,260,239458,1,0,0:0:0:0:
312,132,239625,1,0,0:0:0:0:
456,24,239792,1,0,0:0:0:0:
384,208,239958,1,0,0:0:0:0:
260,56,240125,5,0,0:0:0:0:
172,96,240292,1,0,0:0:0:0:
224,184,240458,1,0,0:0:0:0:
312,132,240625,1,0,0:0:0:0:
188,12,240792,1,0,0:0:0:0:
96,228,240958,1,0,0:0:0:0:
20,96,241125,1,0,0:0:0:0:
208,284,241292,6,0,P|152:256|20:388,1,239.999992675781
296,360,241792,2,0,L|328:212,1,119.999996337891
184,64,242125,2,0,L|220:192,1,119.999996337891
484,136,242458,2,0,P|404:156|317:78,1,179.999994506836
320,80,242792,2,0,P|336:24|408:-8,1,119.999996337891
216,179,243125,2,0,P|136:155|20:191,1,179.999994506836
24,192,243458,1,0,0:0:0:0:
128,256,243625,1,0,0:0:0:0:
20,88,243792,1,0,0:0:0:0:
14,362,243958,6,0,L|278:318,1,239.999992675781
464,360,244458,2,0,P|392:332|356:276,1,119.999996337891
332,116,244792,2,0,P|312:196|264:228,1,119.999996337891
228,132,245125,1,0,0:0:0:0:
432,200,245292,1,0,0:0:0:0:
232,296,245458,5,0,0:0:0:0:
192,36,245625,1,0,0:0:0:0:
224,40,245708,1,0,0:0:0:0:
256,44,245792,1,0,0:0:0:0:
59,107,245958,1,0,0:0:0:0:
91,111,246041,1,0,0:0:0:0:
123,115,246125,1,0,0:0:0:0:
320,192,246292,1,0,0:0:0:0:
96,320,246458,1,0,0:0:0:0:
220,384,246625,6,0,P|228:312|216:132,1,239.999992675781
320,328,247125,1,0,0:0:0:0:
120,228,247292,1,0,0:0:0:0:
276,40,247458,2,0,L|128:52,1,119.999996337891
320,192,247792,1,0,0:0:0:0:
456,175,247958,6,0,L|204:143,1,239.999992675781
32,232,248458,1,0,0:0:0:0:
184,300,248625,1,0,0:0:0:0:
96,116,248792,1,0,0:0:0:0:
64,344,248958,1,0,0:0:0:0:
272,264,249125,1,0,0:0:0:0:
148,188,249292,6,0,B|264:188|264:288|384:288,1,239.999992675781
380,284,249708,1,0,0:0:0:0:
400,280,249792,1,0,0:0:0:0:
360,176,249958,1,0,0:0:0:0:
492,344,250125,5,0,0:0:0:0:
496,320,250208,1,0,0:0:0:0:
500,300,250292,1,0,0:0:0:0:
504,280,250375,1,0,0:0:0:0:
508,260,250458,1,0,0:0:0:0:
460,112,250625,1,0,0:0:0:0:
464,136,250708,1,0,0:0:0:0:
468,156,250792,5,0,0:0:0:0:
512,16,250958,1,0,0:0:0:0:
372,164,251125,1,0,0:0:0:0:
324,44,251292,1,0,0:0:0:0:
508,232,251458,1,0,0:0:0:0:
372,316,251625,1,0,0:0:0:0:
456,92,251792,1,0,0:0:0:0:
472,352,251958,6,0,P|376:336|208:360,1,239.999992675781
108,196,252458,1,0,0:0:0:0:
208,128,252625,1,0,0:0:0:0:
108,304,252792,1,0,0:0:0:0:
4,132,252958,1,0,0:0:0:0:
212,252,253125,1,0,0:0:0:0:
44,368,253292,6,0,P|56:304|24:228,1,119.999996337891
112,56,253625,1,0,0:0:0:0:
212,252,253792,1,0,0:0:0:0:
320,132,253958,1,0,0:0:0:0:
112,172,254125,1,0,0:0:0:0:
376,264,254292,2,0,B|300:264|300:352|180:352,1,179.999994506836
200,348,254625,1,0,0:0:0:0:
280,48,254958,5,0,0:0:0:0:
412,136,255125,1,0,0:0:0:0:
176,88,255292,1,0,0:0:0:0:
376,28,255458,1,0,0:0:0:0:
288,216,255625,1,0,0:0:0:0:
176,88,255792,1,0,0:0:0:0:
412,136,255958,1,0,0:0:0:0:
212,308,256125,5,0,0:0:0:0:
280,92,256292,1,0,0:0:0:0:
392,328,256458,1,0,0:0:0:0:
272,68,256625,1,0,0:0:0:0:
500,192,256792,1,0,0:0:0:0:
296,376,256958,2,0,L|320:220,1,119.999996337891
464,84,257292,6,0,P|420:140|288:136,1,179.999994506836
292,152,257625,1,0,0:0:0:0:
360,48,257792,1,0,0:0:0:0:
232,252,257958,1,0,0:0:0:0:
60,132,258125,2,0,L|200:116,1,119.999996337891
232,252,258458,1,0,0:0:0:0:
52,344,258625,6,0,L|268:372,1,179.999994506836
248,372,258958,1,0,0:0:0:0:
116,248,259125,1,0,0:0:0:0:
368,144,259292,1,0,0:0:0:0:
332,288,259458,1,0,0:0:0:0:
240,120,259625,1,0,0:0:0:0:
488,188,259792,1,0,0:0:0:0:
432,384,259958,6,0,P|424:300|436:248,1,119.999996337891
352,56,260292,1,0,0:0:0:0:
320,252,260458,1,0,0:0:0:0:
472,56,260625,1,0,0:0:0:0:
216,128,260792,1,0,0:0:0:0:
384,172,260958,1,0,0:0:0:0:
236,0,261125,1,0,0:0:0:0:
112,284,261292,6,0,P|120:200|108:148,1,119.999996337891
40,80,261625,1,0,0:0:0:0:
184,356,261792,1,0,0:0:0:0:
256,120,261958,1,0,0:0:0:0:
352,356,262125,1,0,0:0:0:0:
113,165,262292,1,0,0:0:0:0:
12,364,262458,1,0,0:0:0:0:
257,218,262625,6,0,B|257:254|257:254|253:258|253:258|261:258|261:258|257:262|257:262|257:310,1,100
