osu file format v14

[General]
AudioFilename: audio.mp3
AudioLeadIn: 0
PreviewTime: 66652
Countdown: 0
SampleSet: Soft
StackLeniency: 0.3
Mode: 0
LetterboxInBreaks: 0
WidescreenStoryboard: 1

[Editor]
DistanceSpacing: 1.3
BeatDivisor: 4
GridSize: 32
TimelineZoom: 1.6

[Metadata]
Title:Merry-Go-Round (TV Size)
TitleUnicode:Merry-Go-Round (TV Size)
Artist:MAN WITH A MISSION
ArtistUnicode:MAN WITH A MISSION
Creator:Pepekcz
Version:Normal
Source:僕のヒーローアカデミア
Tags:Bakugo- Boku no My Hero Academia bnha mha 5th fifth Season five 2nd second opening intro theme song two japanese rock jrock j-rock anime 緑谷出久 Midoriya Izuku デク Deku 爆豪勝己 Bakugō Katsuki 轟焦凍 Todoroki Shōto Shouto male vocal
BeatmapID:3544377
BeatmapSetID:1568551

[Difficulty]
HPDrainRate:3.5
CircleSize:3.4
OverallDifficulty:4
ApproachRate:5
SliderMultiplier:1.2
SliderTickRate:1

[Events]
//Background and Video events
Video,-70,"video.mp4"
0,0,"89831682.jpg",0,0
//Break Periods
2,18415,25015
//Storyboard Layer 0 (Background)
//Storyboard Layer 1 (Fail)
//Storyboard Layer 2 (Pass)
//Storyboard Layer 3 (Foreground)
//Storyboard Layer 4 (Overlay)
//Storyboard Sound Samples

[TimingPoints]
215,500,4,2,1,50,1,0
2215,-111.111111111111,4,2,2,50,0,0
9215,-111.111111111111,4,2,2,60,0,0
10215,-100,4,2,1,70,0,0
18215,-111.111111111111,4,2,1,50,0,0
34215,-99.9999999999999,4,2,1,60,0,0
50215,-111.111111111111,4,2,2,50,0,0
58215,-99.9999999999999,4,2,1,60,0,0
62215,-99.9999999999999,4,2,1,70,0,0
67215,500,4,2,1,90,1,0
67215,-90.9090909090909,4,2,1,90,0,1
74215,-90.9090909090909,4,2,1,95,0,1
75215,-90.9090909090909,4,2,1,90,0,1
75715,-90.9090909090909,4,2,1,95,0,1
83215,-100,4,2,1,70,0,0
87715,-100,4,2,1,5,0,0

[Colours]
Combo1 : 67,136,156
Combo2 : 74,111,95
Combo3 : 169,37,57
Combo4 : 211,96,51

[HitObjects]
32,352,2215,6,0,P|84:335|136:320,1,107.999996704102,10|10,0:2|0:2,0:0:0:0:
264,336,3215,2,0,L|324:352,1,53.9999983520508,10|2,0:2|0:2,0:0:0:0:
392,332,3715,2,0,P|403:280|420:212,1,107.999996704102,10|10,0:2|0:2,0:0:0:0:
484,104,4715,2,0,L|472:40,1,53.9999983520508,10|2,0:2|0:2,0:0:0:0:
402,21,5215,2,0,L|338:33,1,53.9999983520508,10|2,0:2|0:2,0:0:0:0:
273,49,5715,1,10,0:2:0:0:
132,44,6215,6,0,L|88:32,3,26.9999991760254,10|0|0|0,3:2|3:2|3:2|3:2,0:0:0:0:
68,40,6715,2,0,L|44:148,1,107.999996704102,10|10,3:2|3:2,0:0:0:0:
24,220,7465,1,2,3:2:0:0:
76,280,7715,2,0,P|127:263|179:248,1,107.999996704102,10|10,3:2|3:2,0:0:0:0:
296,168,8715,2,0,P|347:182|399:199,1,107.999996704102,10|10,3:2|3:2,0:0:0:0:
512,284,9715,2,0,L|500:332,3,26.9999991760254,0|0|2|0,3:2|3:2|3:2|3:2,0:0:0:0:
492,348,10215,6,0,P|452:316|380:320,1,120,6|8,1:2|0:2,0:0:0:0:
272,340,11090,2,0,P|226:350|172:364,1,90,6|2,1:2|1:2,0:0:0:0:
108,340,11715,2,0,P|102:306|96:276,1,60,8|2,0:2|1:2,0:0:0:0:
76,248,12090,6,0,P|84:202|96:144,1,90,6|2,1:2|1:2,0:0:0:0:
116,84,12715,1,8,0:2:0:0:
220,32,13090,2,0,P|260:40|324:56,1,90,6|2,1:2|1:2,0:0:0:0:
384,28,13715,2,0,P|415:33|464:44,1,60,10|2,0:2|1:2,0:0:0:0:
492,100,14215,6,0,L|500:140,3,30,6|10|8|8,1:2|0:2|0:3|0:3,0:0:0:0:
508,168,14715,1,14,0:2:0:0:
460,276,15090,2,0,P|416:263|373:252,1,90,6|2,1:2|1:2,0:0:0:0:
312,204,15715,1,8,0:2:0:0:
224,128,16090,6,0,P|155:143|64:168,1,150,6|8,1:2|0:2,0:0:0:0:
20,264,17090,2,0,P|60:275|108:292,1,90,6|2,1:2|1:2,0:0:0:0:
164,344,17715,2,0,L|232:364,1,60,10|2,0:2|1:2,0:0:0:0:
296,336,18215,5,2,0:2:0:0:
296,336,26215,6,0,P|348:318|408:300,1,107.999996704102,4|2,1:2|1:2,0:0:0:0:
460,176,27215,2,0,P|408:158|357:142,1,107.999996704102,2|2,1:2|1:2,0:0:0:0:
244,60,28215,6,0,L|184:76,1,53.9999983520508,2|2,1:2|0:2,0:0:0:0:
120,100,28715,1,2,1:2:0:0:
32,208,29215,2,0,L|48:252,3,26.9999991760254,2|2|2|2,1:2|0:2|0:2|0:2,0:0:0:0:
36,268,29715,2,0,L|64:340,1,53.9999983520508,2|0,1:2|0:0,0:0:0:0:
128,352,30215,6,0,P|172:320|240:316,1,107.999996704102,2|6,1:2|1:2,0:0:0:0:
360,356,31215,2,0,P|350:306|336:248,1,107.999996704102,2|2,1:2|1:2,0:0:0:0:
236,152,32215,2,0,L|248:96,1,53.9999983520508,2|2,1:2|0:2,0:0:0:0:
272,24,32715,1,2,1:2:0:0:
412,28,33215,2,0,L|460:40,3,26.9999991760254,2|2|2|2,1:2|0:2|0:2|0:2,0:0:0:0:
472,44,33715,2,0,L|492:144,1,80.9999975280763,10|4,1:2|0:3,0:0:0:0:
500,160,34215,6,0,P|488:215|476:284,1,120,4|10,1:2|0:2,0:0:0:0:
416,328,34965,1,2,0:2:0:0:
416,328,35215,2,0,P|377:319|336:312,1,60,0|2,1:2|0:2,0:0:0:0:
280,296,35715,2,0,P|250:301|221:308,1,60,10|2,0:2|0:2,0:0:0:0:
152,348,36215,6,0,P|112:324|108:240,1,120,0|10,1:2|0:2,0:0:0:0:
172,116,37215,2,0,P|201:99|244:96,1,60,0|2,1:2|0:2,0:0:0:0:
296,136,37715,2,0,P|325:152|368:156,1,60,10|2,0:2|0:2,0:0:0:0:
424,128,38215,5,0,1:2:0:0:
504,260,38715,2,0,P|495:303|484:364,1,90,10|2,0:2|0:2,0:0:0:0:
452,368,39215,2,0,P|393:356|320:344,1,120,0|8,1:2|0:2,0:0:0:0:
188,292,40215,6,0,P|176:248|180:228,1,60,2|2,1:2|0:2,0:0:0:0:
224,172,40715,2,0,P|244:144|228:60,1,120,10|0,0:2|1:2,0:0:0:0:
160,28,41465,1,0,0:0:0:0:
160,28,41715,2,0,L|96:44,1,60,8|8,0:2|0:2,0:0:0:0:
36,88,42215,6,0,P|52:140|72:212,1,120,4|10,1:2|0:2,0:0:0:0:
96,316,43090,2,0,P|64:336|20:344,2,60,2|2|2,0:2|0:2|0:2,0:0:0:0:
124,288,43715,2,0,P|148:271|177:261,1,60,8|2,0:2|0:2,0:0:0:0:
252,284,44215,6,0,P|310:298|380:320,1,120,0|14,1:2|0:2,0:0:0:0:
436,276,44965,1,2,0:2:0:0:
436,276,45215,2,0,L|452:212,1,60,0|2,1:2|0:2,0:0:0:0:
496,156,45715,2,0,L|480:92,1,60,8|8,0:2|0:2,0:0:0:0:
440,32,46215,6,0,B|376:28|392:68|316:64,1,120,4|8,1:2|0:2,0:0:0:0:
212,40,47090,2,0,P|179:45|136:56,2,60,2|2|2,0:2|0:2|0:2,0:0:0:0:
244,60,47715,2,0,L|232:128,1,60,8|0,0:2|1:2,0:0:0:0:
192,188,48215,6,0,P|200:221|212:272,1,60,10|10,0:2|0:2,0:0:0:0:
224,324,48715,2,0,P|269:333|328:348,1,90,10|2,0:2|1:2,0:0:0:0:
376,296,49340,1,2,1:2:0:0:
376,296,49590,2,0,P|383:251|396:188,1,90,14|8,0:2|0:3,0:0:0:0:
408,132,50215,6,0,P|384:104|308:100,1,107.999996704102,4|10,1:2|0:2,0:0:0:0:
252,140,50965,1,2,0:2:0:0:
252,140,51215,2,0,P|204:156|140:180,1,107.999996704102,10|10,0:2|0:2,0:0:0:0:
28,244,52215,6,0,P|0:192|8:140,1,107.999996704102,10|10,0:2|0:2,0:0:0:0:
128,72,53215,2,0,P|178:53|229:35,1,107.999996704102,10|10,0:2|0:2,0:0:0:0:
368,20,54215,6,0,P|419:37|469:56,1,107.999996704102,10|10,0:2|0:2,0:0:0:0:
504,132,54965,1,2,0:2:0:0:
504,132,55215,2,0,P|489:183|472:244,1,107.999996704102,10|10,0:2|0:2,0:0:0:0:
400,356,56215,6,0,L|340:340,1,53.9999983520508,10|0,0:2|1:2,0:0:0:0:
280,304,56715,2,0,L|208:316,1,53.9999983520508,10|0,0:2|1:2,0:0:0:0:
160,352,57215,2,0,P|104:344|72:292,1,107.999996704102,10|10,0:2|0:2,0:0:0:0:
36,168,58215,6,0,P|20:107|4:48,1,120,2|2,1:2|1:2,0:0:0:0:
76,20,58965,1,2,0:2:0:0:
76,20,59215,2,0,P|103:26|148:40,1,60,2|0,1:2|0:0,0:0:0:0:
204,72,59715,2,0,P|232:63|262:56,1,60,2|0,1:2|0:0,0:0:0:0:
336,28,60215,6,0,P|393:44|456:64,1,120,2|2,1:2|1:2,0:0:0:0:
504,212,61215,2,0,P|446:228|384:248,1,120,2|2,1:2|1:2,0:0:0:0:
256,328,62215,6,0,L|176:304,1,60,2|0,1:2|0:0,0:0:0:0:
160,300,62590,2,0,P|144:264|156:208,1,90,2|0,1:2|1:2,0:0:0:0:
216,172,63215,2,0,P|260:161|320:148,1,90,2|2,1:2|1:2,0:0:0:0:
416,120,63965,5,0,1:2:0:0:
416,120,64215,2,0,P|424:88|420:56,1,60,2|0,1:2|0:0,0:0:0:0:
392,36,64590,2,0,P|347:46|288:60,1,90,2|0,1:2|1:2,0:0:0:0:
228,40,65215,2,0,L|136:20,1,90,2|0,1:2|0:0,0:0:0:0:
100,20,65715,2,0,P|124:56|112:120,1,90,2|0,1:2|0:0,0:0:0:0:
8,364,67215,6,0,P|67:343|160:316,1,132.00000402832,6|10,1:2|0:2,0:0:0:0:
216,340,67965,1,2,0:2:0:0:
216,340,68215,2,0,L|284:356,1,66.0000020141602,2|0,0:2|0:2,0:0:0:0:
352,312,68715,2,0,P|358:276|364:244,1,66.0000020141602,10|2,0:2|0:2,0:0:0:0:
420,180,69215,6,0,L|404:108,1,66.0000020141602,2|2,1:2|0:2,0:0:0:0:
372,36,69715,1,10,0:2:0:0:
244,28,70090,2,0,P|197:40|140:60,1,99.0000030212403,2|2,1:2|1:2,0:0:0:0:
76,100,70715,2,0,L|92:152,3,33.0000010070801,10|10|10|8,0:2|0:2|0:3|0:3,0:0:0:0:
96,172,71215,6,0,P|82:234|72:304,1,132.00000402832,6|10,1:2|0:2,0:0:0:0:
140,356,71965,1,2,0:2:0:0:
140,356,72215,2,0,P|173:344|212:332,1,66.0000020141602,2|0,0:2|0:0,0:0:0:0:
284,304,72715,1,10,0:2:0:0:
444,360,73215,6,0,P|453:323|464:288,1,66.0000020141602,2|2,1:2|0:2,0:0:0:0:
480,212,73715,2,0,P|441:202|404:196,1,66.0000020141602,10|14,0:2|0:2,0:0:0:0:
336,224,74215,1,10,0:2:0:0:
336,224,74465,1,10,0:3:0:0:
260,260,74715,2,0,P|221:251|184:244,1,66.0000020141602,10|10,0:2|0:3,0:0:0:0:
112,224,75215,6,0,P|92:192|116:96,1,132.00000402832,6|14,1:2|0:2,0:0:0:0:
184,60,75965,1,2,0:2:0:0:
184,60,76215,2,0,P|212:44|248:40,1,66.0000020141602,2|0,0:2|0:0,0:0:0:0:
320,80,76715,2,0,P|348:96|384:100,1,66.0000020141602,10|2,0:2|0:2,0:0:0:0:
464,80,77215,6,0,L|476:144,1,66.0000020141602,2|2,1:2|0:2,0:0:0:0:
492,228,77715,1,10,0:2:0:0:
376,356,78215,2,0,P|342:347|308:340,1,66.0000020141602,14|2,0:2|1:2,0:0:0:0:
228,316,78715,2,0,P|195:323|163:331,1,66.0000020141602,14|10,0:2|0:3,0:0:0:0:
84,360,79215,6,0,P|52:324|60:244,1,132.00000402832,6|8,1:2|0:2,0:0:0:0:
104,172,79965,1,2,1:2:0:0:
104,172,80215,2,0,P|112:131|120:100,1,66.0000020141602,14|0,0:2|1:2,0:0:0:0:
176,44,80715,2,0,L|248:60,1,66.0000020141602,8|2,0:2|1:2,0:0:0:0:
316,96,81215,6,0,B|388:104|368:52|448:60,1,132.00000402832,14|8,0:2|0:2,0:0:0:0:
500,120,81965,1,2,1:2:0:0:
500,120,82215,2,0,L|480:220,1,99.0000030212403,14|10,0:2|0:2,0:0:0:0:
396,312,82965,5,14,0:2:0:0:
396,312,83215,2,0,L|272:288,1,120,6|8,1:2|0:2,0:0:0:0:
168,328,84090,2,0,P|124:344|72:324,1,90,2|2,1:2|1:2,0:0:0:0:
48,264,84715,2,0,P|42:233|36:200,1,60,8|2,0:2|1:2,0:0:0:0:
56,172,85090,6,0,P|98:166|152:160,1,90,6|2,1:2|1:2,0:0:0:0:
220,188,85715,1,8,0:2:0:0:
320,248,86090,2,0,P|380:268|424:244,1,90,6|2,1:2|1:2,0:0:0:0:
460,208,86715,2,0,P|466:172|472:144,1,60,10|0,0:2|0:0,0:0:0:0:
440,76,87215,6,0,B|376:80|392:40|316:44,1,120,6|0,1:2|0:0,0:0:0:0:
