osu file format v14

[General]
AudioFilename: audio.mp3
AudioLeadIn: 0
PreviewTime: 66652
Countdown: 0
SampleSet: Soft
StackLeniency: 0.3
Mode: 0
LetterboxInBreaks: 0
WidescreenStoryboard: 1

[Editor]
DistanceSpacing: 0.3
BeatDivisor: 8
GridSize: 32
TimelineZoom: 1.6

[Metadata]
Title:Merry-Go-Round (TV Size)
TitleUnicode:Merry-Go-Round (TV Size)
Artist:MAN WITH A MISSION
ArtistUnicode:MAN WITH A MISSION
Creator:Pepekcz
Version:Expert
Source:僕のヒーローアカデミア
Tags:Bakugo- Boku no My Hero Academia bnha mha 5th fifth Season five 2nd second opening intro theme song two japanese rock jrock j-rock anime 緑谷出久 Midoriya Izuku デク Deku 爆豪勝己 Bakugō Katsuki 轟焦凍 Todoroki Shōto Shouto male vocal
BeatmapID:3542150
BeatmapSetID:1568551

[Difficulty]
HPDrainRate:5
CircleSize:4.2
OverallDifficulty:8.8
ApproachRate:9.2
SliderMultiplier:3
SliderTickRate:1

[Events]
//Background and Video events
Video,-70,"video.mp4"
0,0,"89831682.jpg",0,0
//Break Periods
//Storyboard Layer 0 (Background)
//Storyboard Layer 1 (Fail)
//Storyboard Layer 2 (Pass)
//Storyboard Layer 3 (Foreground)
//Storyboard Layer 4 (Overlay)
//Storyboard Sound Samples

[TimingPoints]
215,500,4,2,1,50,1,0
2215,-333.333333333332,4,2,2,50,0,0
2715,-111.111111111111,4,2,2,50,0,0
4215,-166.666666666666,4,2,2,50,0,0
7215,-111.111111111111,4,2,2,50,0,0
9215,-111.111111111111,4,2,2,60,0,0
10215,-100,4,2,1,70,0,0
18215,-200,4,2,1,50,0,0
26215,-142.857142857143,4,2,1,50,0,0
33840,-125,4,2,1,50,0,0
34215,-111.111111111111,4,2,1,60,0,0
48215,-100,4,2,1,60,0,0
50215,-125,4,2,2,50,0,0
50965,-166.666666666667,4,2,2,50,0,0
58215,-125,4,2,1,60,0,0
59715,-200,4,2,1,60,0,0
60215,-125,4,2,1,60,0,0
60715,-200,4,2,1,60,0,0
62215,-111.111111111111,4,2,1,70,0,0
67215,500,4,2,1,90,1,0
67215,-71.4285714285714,4,2,1,90,0,1
67715,-83.3333333333333,4,2,1,90,0,1
71215,-71.4285714285714,4,2,1,90,0,1
71715,-83.3333333333333,4,2,1,90,0,1
74215,-83.3333333333333,4,2,1,95,0,1
75215,-71.4285714285714,4,2,1,90,0,1
75715,-83.3333333333333,4,2,1,95,0,1
79402,-83.3333333333333,4,2,1,5,0,1
79465,-83.3333333333333,4,2,1,95,0,1
80402,-83.3333333333333,4,2,1,5,0,1
80465,-83.3333333333333,4,2,1,95,0,1
81402,-83.3333333333333,4,2,1,5,0,1
81465,-83.3333333333333,4,2,1,95,0,1
82215,-71.4285714285714,4,2,1,95,0,1
82965,-83.3333333333333,4,2,1,95,0,1
83215,-100,4,2,1,70,0,0
87215,-125,4,2,1,70,0,0
87715,-100,4,2,1,5,0,0

[Colours]
Combo1 : 67,136,156
Combo2 : 74,111,95
Combo3 : 169,37,57
Combo4 : 211,96,51

[HitObjects]
256,192,215,12,0,1965,0:0:0:0:
217,70,2215,6,0,P|259:80|296:92,1,67.4999979400635,10|0,0:2|0:0,0:0:0:0:
371,77,2715,2,0,P|281:107|170:152,1,202.499993820191,10|0,0:2|0:0,0:0:0:0:
109,179,3215,5,10,0:2:0:0:
96,173,3465,1,2,0:2:0:0:
19,93,3715,6,0,P|62:146|87:289,1,202.499993820191,10|0,0:2|0:0,0:0:0:0:
51,360,4215,6,0,P|97:345|165:325,1,89.9999972534181,10|2,0:2|0:2,0:0:0:0:
278,346,4715,2,0,P|321:359|363:373,1,89.9999972534181,10|2,0:2|0:2,0:0:0:0:
423,303,5215,1,10,0:2:0:0:
431,299,5465,1,2,0:2:0:0:
512,210,5715,6,0,P|453:186|367:162,1,134.999995880127,10|0,0:2|0:0,0:0:0:0:
286,170,6215,5,10,3:2:0:0:
291,182,6340,1,0,3:2:0:0:
296,194,6465,1,0,3:2:0:0:
300,206,6590,1,0,3:2:0:0:
243,270,6715,5,10,3:2:0:0:
234,289,6840,1,0,3:2:0:0:
226,308,6965,1,0,3:2:0:0:
220,328,7090,1,0,3:2:0:0:
341,373,7215,6,0,P|336:342|314:307,1,67.4999979400635,10|0,3:2|3:2,0:0:0:0:
446,254,7465,2,0,P|428:282|422:315,1,67.4999979400635,2|0,3:2|3:2,0:0:0:0:
377,188,7715,1,10,3:2:0:0:
391,173,7840,1,0,3:2:0:0:
410,166,7965,1,0,3:2:0:0:
430,166,8090,1,0,3:2:0:0:
448,174,8215,6,0,P|465:179|487:186,7,33.7499989700318,10|0|0|0|2|0|0|0,3:2|3:2|3:2|3:2|3:2|3:2|3:2|3:2,0:0:0:0:
471,86,8715,2,0,P|486:77|507:66,7,33.7499989700318,10|0|0|0|2|0|0|0,3:2|3:2|3:2|3:2|3:2|3:2|3:2|3:2,0:0:0:0:
372,50,9215,2,0,P|377:33|384:11,7,33.7499989700318,10|0|0|0|0|0|2|0,3:2|3:2|3:2|3:2|3:2|3:2|3:2|3:2,0:0:0:0:
289,125,9715,5,0,3:2:0:0:
279,129,9777,1,0,3:2:0:0:
269,133,9840,1,0,3:2:0:0:
144,71,9965,2,0,L|98:55,3,33.7499989700318,2|0|0|0,3:2|3:2|3:2|3:2,0:0:0:0:
34,55,10215,6,0,P|54:141|89:299,1,225,6|0,1:2|1:2,0:0:0:0:
54,348,10715,1,8,0:2:0:0:
54,348,10965,5,2,1:2:0:0:
168,291,11090,2,0,B|252:275|232:335|316:319,1,150,6|0,1:2|0:0,0:0:0:0:
428,248,11465,2,0,P|456:282|459:322,1,75,2|0,1:2|0:0,0:0:0:0:
375,379,11715,1,8,0:2:0:0:
375,379,11965,5,2,1:2:0:0:
292,252,12090,2,0,P|311:176|333:94,1,150,6|0,1:2|0:0,0:0:0:0:
427,55,12465,2,0,P|395:51|364:20,1,75,2|0,1:2|0:0,0:0:0:0:
501,127,12715,1,8,0:2:0:0:
501,127,12965,5,2,1:2:0:0:
416,232,13090,2,0,B|365:219|365:219|336:187|336:187|282:173,1,150,6|0,1:2|0:0,0:0:0:0:
158,205,13465,2,0,P|147:165|136:128,1,75,2|0,1:2|0:0,0:0:0:0:
222,120,13715,2,0,P|232:80|244:43,1,75,10|0,0:2|0:0,0:0:0:0:
60,120,13965,2,0,P|49:80|38:43,1,75,2|0,1:2|0:0,0:0:0:0:
137,17,14215,5,6,1:2:0:0:
222,120,14340,1,10,0:2:0:0:
158,205,14465,1,8,0:3:0:0:
206,269,14590,1,8,0:3:0:0:
131,368,14715,1,14,0:2:0:0:
131,368,14965,5,2,1:2:0:0:
206,269,15090,2,0,P|284:260|342:307,1,150,6|0,1:2|0:0,0:0:0:0:
456,375,15465,2,0,P|467:335|480:293,1,75,2|0,1:2|0:0,0:0:0:0:
411,206,15715,1,8,0:2:0:0:
411,206,15965,5,2,1:2:0:0:
338,327,16090,2,0,B|287:314|287:314|258:282|258:282|204:268,1,150,6|0,1:2|0:0,0:0:0:0:
73,312,16465,2,0,P|36:298|22:252,1,75,2|0,1:2|0:0,0:0:0:0:
108,169,16715,1,8,0:2:0:0:
108,169,16965,5,2,1:2:0:0:
21,60,17090,2,0,P|114:30|171:17,1,150,6|0,1:2|0:0,0:0:0:0:
282,141,17465,6,0,P|302:169|348:186,1,75,2|0,1:2|0:0,0:0:0:0:
228,93,17715,2,0,P|193:96|156:127,1,75,10|0,0:2|0:0,0:0:0:0:
294,70,17965,2,0,P|308:38|299:-9,1,75,2|0,1:2|0:0,0:0:0:0:
375,115,18215,6,0,L|416:129,1,37.5,2|2,0:2|0:2,0:0:0:0:
372,105,18465,2,0,L|413:119,1,37.5,2|2,0:2|0:2,0:0:0:0:
478,75,18715,5,2,0:2:0:0:
471,61,19215,5,2,0:2:0:0:
464,47,19715,6,0,P|484:129|503:208,1,150,2|2,0:2|0:2,0:0:0:0:
429,318,20465,6,0,P|455:325|479:333,1,37.5,2|0,0:2|0:0,0:0:0:0:
476,259,20715,2,0,P|425:275|359:301,1,112.5,2|2,0:2|0:2,0:0:0:0:
300,343,21215,6,0,P|277:337|256:318,1,37.5,2|2,0:2|0:2,0:0:0:0:
207,366,21465,2,0,P|194:345|193:317,1,37.5,2|2,0:2|0:2,0:0:0:0:
120,335,21715,1,2,0:2:0:0:
114,325,21840,2,0,P|125:284|192:242,1,112.5,2|2,0:2|0:2,0:0:0:0:
271,236,22340,2,0,L|316:248,2,37.5,2|2|2,0:2|0:2|0:2,0:0:0:0:
222,161,22715,5,2,0:2:0:0:
208,167,23215,5,2,0:2:0:0:
194,173,23715,6,0,P|122:151|49:132,1,150,2|2,0:2|0:2,0:0:0:0:
19,8,24465,6,0,P|42:17|58:36,1,37.5,2|0,0:2|0:0,0:0:0:0:
0,75,24715,2,0,P|58:58|118:44,1,112.5,2|2,0:2|0:2,0:0:0:0:
207,83,25215,6,0,P|225:87|257:97,1,37.5,2|2,0:2|0:2,0:0:0:0:
302,39,25465,2,0,P|320:33|338:29,1,37.5,2|2,0:2|0:2,0:0:0:0:
421,68,25715,5,2,0:2:0:0:
427,58,25840,2,0,P|441:103|452:141,1,75,2|0,0:2|0:0,0:0:0:0:
462,225,26215,6,0,P|491:236|518:233,1,52.4999983978272,4|2,1:2|0:2,0:0:0:0:
377,193,26465,2,0,P|350:192|326:202,1,52.4999983978272,2|2,0:2|0:2,0:0:0:0:
436,140,26715,6,0,P|413:233|387:352,1,209.999993591309,2|2,1:2|1:2,0:0:0:0:
136,335,27715,6,0,P|228:344|232:242,1,209.999993591309,2|2,1:2|1:2,0:0:0:0:
84,196,28465,6,0,P|76:170|69:145,1,52.4999983978272,2|0,0:2|0:0,0:0:0:0:
140,113,28715,2,0,P|119:186|96:281,1,157.499995193482,2|2,1:2|0:2,0:0:0:0:
50,372,29215,6,0,P|81:358|106:349,1,52.4999983978272,2|2,1:2|0:2,0:0:0:0:
214,350,29465,2,0,P|238:359|262:370,1,52.4999983978272,2|2,0:2|0:2,0:0:0:0:
361,318,29715,5,2,1:2:0:0:
369,323,29840,2,0,P|355:272|337:209,1,104.999996795654,2|0,0:2|0:0,0:0:0:0:
342,133,30215,5,2,1:2:0:0:
351,138,30340,1,2,0:2:0:0:
250,95,30465,5,2,0:2:0:0:
241,100,30590,1,2,0:2:0:0:
314,32,30715,6,0,P|290:134|270:237,1,209.999993591309,6|2,1:2|1:2,0:0:0:0:
460,342,31715,6,0,B|492:289|462:231|437:262|399:207|434:139,1,209.999993591309,2|2,1:2|1:2,0:0:0:0:
504,47,32465,6,0,P|475:26|455:22,1,52.4999983978272,2|0,0:2|0:0,0:0:0:0:
386,57,32715,2,0,P|366:73|341:81,1,52.4999983978272,2|2,1:2|0:2,0:0:0:0:
271,41,32965,2,0,P|242:20|222:16,1,52.4999983978272,2|2,0:2|0:2,0:0:0:0:
133,65,33215,6,0,P|123:35|112:5,1,52.4999983978272,2|2,1:2|0:2,0:0:0:0:
206,104,33465,2,0,P|196:128|189:153,1,52.4999983978272,2|2,0:2|0:2,0:0:0:0:
108,206,33715,5,10,1:2:0:0:
172,262,33840,2,0,B|215:252|215:252|237:227|237:227|284:217,1,120,6|4,0:3|0:3,0:0:0:0:
397,277,34215,6,0,P|420:239|418:212,1,67.4999979400635,4|0,1:2|0:0,0:0:0:0:
365,110,34465,2,0,P|342:148|344:175,1,67.4999979400635,2|0,0:2|0:0,0:0:0:0:
461,62,34715,6,0,P|398:40|325:20,1,134.999995880127,10|2,0:2|0:2,0:0:0:0:
256,75,35090,1,2,0:2:0:0:
169,36,35215,2,0,B|150:64|150:64|159:99,1,67.4999979400635,0|2,1:2|0:2,0:0:0:0:
206,188,35465,5,2,0:2:0:0:
215,197,35590,1,2,0:2:0:0:
286,214,35715,2,0,P|222:234|155:262,1,134.999995880127,10|2,0:2|0:2,0:0:0:0:
60,182,36090,5,0,0:0:0:0:
67,170,36215,2,0,P|126:188|134:269,1,134.999995880127,0|2,1:2|0:2,0:0:0:0:
53,329,36590,5,2,0:2:0:0:
125,370,36715,2,0,P|223:339|323:312,1,202.499993820191,10|2,0:2|0:2,0:0:0:0:
407,345,37215,2,0,P|443:359|476:373,1,67.4999979400635,0|2,1:2|0:2,0:0:0:0:
489,268,37465,5,2,0:2:0:0:
484,255,37590,1,2,0:2:0:0:
424,198,37715,2,0,P|451:178|492:173,1,67.4999979400635,10|0,0:2|0:0,0:0:0:0:
366,249,37965,2,0,P|333:243|306:223,1,67.4999979400635,2|0,0:2|0:0,0:0:0:0:
207,292,38215,6,0,P|149:304|125:374,1,134.999995880127,0|2,1:2|0:2,0:0:0:0:
290,372,38715,5,10,0:2:0:0:
300,363,38840,2,0,P|289:321|281:293,1,67.4999979400635,2|0,0:2|0:0,0:0:0:0:
306,223,39090,2,0,P|317:181|325:153,1,67.4999979400635,2|0,0:2|1:2,0:0:0:0:
267,100,39340,2,0,P|256:58|248:30,1,67.4999979400635,2|0,0:2|0:0,0:0:0:0:
376,40,39590,5,2,0:2:0:0:
384,50,39715,2,0,P|459:55|489:7,1,134.999995880127,8|0,0:2|0:0,0:0:0:0:
474,157,40215,6,0,P|489:188|483:234,1,67.4999979400635,2|0,1:2|0:0,0:0:0:0:
365,245,40465,2,0,P|384:216|427:198,1,67.4999979400635,2|0,0:2|0:0,0:0:0:0:
499,294,40715,2,0,P|464:291|427:263,1,67.4999979400635,10|0,0:2|0:0,0:0:0:0:
341,329,40965,5,2,0:2:0:0:
347,317,41090,2,0,P|315:328|270:345,1,67.4999979400635,2|0,0:2|1:2,0:0:0:0:
217,303,41340,2,0,P|144:284|62:262,1,134.999995880127,2|2,0:2|0:2,0:0:0:0:
22,308,41715,1,8,0:2:0:0:
22,308,41965,6,0,P|28:326|37:357,2,33.7499989700318,8|8|8,0:2|0:2|0:2,0:0:0:0:
3,222,42215,6,0,P|10:199|48:161,1,67.4999979400635,4|0,1:2|0:0,0:0:0:0:
0,88,42465,2,0,P|21:76|74:76,1,67.4999979400635,2|0,0:2|0:0,0:0:0:0:
164,156,42715,6,0,B|236:168|216:108|297:120,1,134.999995880127,10|2,0:2|0:2,0:0:0:0:
408,160,43090,2,0,P|429:133|429:96,1,67.4999979400635,2|0,0:2|1:2,0:0:0:0:
357,3,43340,2,0,P|336:29|334:62,1,67.4999979400635,2|0,0:2|0:0,0:0:0:0:
482,19,43590,6,0,P|497:81|515:162,1,134.999995880127,2|0,0:2|0:0,0:0:0:0:
428,255,43965,1,2,0:2:0:0:
439,261,44090,1,0,0:0:0:0:
512,281,44215,2,0,P|447:301|371:330,1,134.999995880127,0|2,1:2|0:2,0:0:0:0:
235,264,44715,6,0,P|205:243|166:240,1,67.4999979400635,14|0,0:2|0:0,0:0:0:0:
52,312,44965,2,0,P|85:306|111:286,1,67.4999979400635,2|2,0:2|0:2,0:0:0:0:
33,160,45215,1,0,1:2:0:0:
45,166,45340,1,2,0:2:0:0:
122,87,45465,6,0,P|89:78|56:70,1,67.4999979400635,2|2,0:2|0:2,0:0:0:0:
184,160,45715,2,0,P|151:167|118:176,1,67.4999979400635,8|2,0:2|0:2,0:0:0:0:
228,68,45965,5,8,0:2:0:0:
294,119,46090,1,8,0:2:0:0:
377,48,46215,6,0,P|440:50|483:122,1,134.999995880127,4|2,1:2|0:2,0:0:0:0:
356,253,46715,6,0,P|420:272|485:292,1,134.999995880127,8|2,0:2|0:2,0:0:0:0:
423,195,47090,2,0,P|408:149|393:131,1,67.4999979400635,2|0,0:2|1:2,0:0:0:0:
377,48,47340,2,0,P|333:26|310:23,1,67.4999979400635,2|0,0:2|0:0,0:0:0:0:
235,66,47590,5,2,0:2:0:0:
230,78,47715,1,8,0:2:0:0:
60,48,47965,6,0,P|54:26|48:6,2,33.7499989700318,0|0|0,1:2|1:2|1:2,0:0:0:0:
31,135,48215,6,0,P|22:170|13:220,1,75,10|0,0:2|0:0,0:0:0:0:
78,345,48465,2,0,P|70:308|62:271,1,75,10|0,0:2|0:0,0:0:0:0:
148,188,48715,2,0,P|180:164|236:161,1,75,10|0,0:2|0:0,0:0:0:0:
299,223,48965,5,2,1:2:0:0:
394,173,49090,2,0,B|366:149|366:149|318:153,1,75,2|0,1:2|0:0,0:0:0:0:
304,234,49340,2,0,B|333:258|333:258|371:254,1,75,2|0,1:2|0:0,0:0:0:0:
457,253,49590,1,14,0:2:0:0:
457,253,49840,5,8,0:2:0:0:
394,173,49965,1,8,0:3:0:0:
437,113,50090,1,8,0:3:0:0:
399,34,50215,6,0,P|461:36|488:187,1,240,4|10,1:2|0:2,0:0:0:0:
374,289,50965,5,2,0:2:0:0:
370,280,51215,2,0,P|413:291|464:308,1,89.9999972534181,10|0,0:2|0:0,0:0:0:0:
284,332,51715,2,0,P|221:348|142:372,1,134.999995880127,10|0,0:2|1:2,0:0:0:0:
67,354,52215,6,0,P|90:291|12:216,1,179.999994506836,10|10,0:2|0:2,0:0:0:0:
264,97,53215,6,0,P|197:150|216:234,1,179.999994506836,10|10,0:2|0:2,0:0:0:0:
446,69,54215,6,0,P|367:45|260:19,1,179.999994506836,10|10,0:2|0:2,0:0:0:0:
131,122,54965,5,2,0:2:0:0:
138,127,55215,2,0,P|179:102|185:55,1,89.9999972534181,10|0,0:2|0:0,0:0:0:0:
49,110,55715,2,0,P|71:175|91:244,1,134.999995880127,10|0,0:2|0:0,0:0:0:0:
55,349,56215,6,0,P|84:320|141:313,1,89.9999972534181,10|0,0:2|1:2,0:0:0:0:
214,330,56590,1,0,0:0:0:0:
218,337,56715,2,0,P|247:366|304:373,1,89.9999972534181,10|0,0:2|1:2,0:0:0:0:
436,336,57215,6,0,B|418:274|418:274|424:222|424:222|404:153,1,179.999994506836,10|10,0:2|0:2,0:0:0:0:
306,149,58215,6,0,P|384:142|398:46,1,180,2|0,1:2|0:0,0:0:0:0:
319,24,58715,6,0,P|283:35|253:46,1,60,2|0,1:2|0:0,0:0:0:0:
183,96,58965,2,0,P|219:107|249:118,1,60,2|0,0:2|0:0,0:0:0:0:
97,49,59215,6,0,P|118:123|153:241,1,180,2|0,1:2|0:0,0:0:0:0:
203,289,59715,6,0,P|162:326|94:325,1,112.5,2|0,1:2|0:0,0:0:0:0:
259,231,60215,6,0,B|307:216|351:241|332:261|375:294|426:273,1,180,2|0,1:2|0:0,0:0:0:0:
505,229,60715,6,0,P|482:198|412:181,1,112.5,2|0,1:2|0:0,0:0:0:0:
439,97,61215,6,0,P|400:91|339:128,1,112.5,2|0,1:2|0:0,0:0:0:0:
299,48,61715,6,0,P|267:71|251:141,1,112.5,2|0,1:2|0:0,0:0:0:0:
325,237,62215,6,0,P|270:219|184:192,1,134.999995880127,2|0,1:2|0:0,0:0:0:0:
109,162,62590,2,0,P|161:193|164:278,1,134.999995880127,2|0,1:2|0:0,0:0:0:0:
78,301,62965,2,0,P|85:267|95:234,1,67.4999979400635,0|0,1:2|0:0,0:0:0:0:
27,168,63215,6,0,P|13:100|-2:28,1,134.999995880127,2|0,1:2|0:0,0:0:0:0:
75,3,63590,2,0,P|89:68|102:135,1,134.999995880127,2|0,1:2|0:0,0:0:0:0:
185,151,63965,2,0,P|178:117|171:84,1,67.4999979400635,0|0,1:2|0:0,0:0:0:0:
255,25,64215,6,0,B|291:21|322:33|311:45|346:69|381:56,1,134.999995880127,2|0,1:2|0:0,0:0:0:0:
503,18,64590,2,0,P|491:62|470:157,1,134.999995880127,2|0,1:2|0:0,0:0:0:0:
430,263,64965,2,0,P|464:284|500:285,1,67.4999979400635,0|0,1:2|0:0,0:0:0:0:
350,213,65215,6,0,P|316:217|289:236,3,67.4999979400635,2|0|0|0,1:2|0:0|0:0|0:0,0:0:0:0:
198,321,65715,6,0,P|189:288|171:228,1,89.999997253418,2|0,1:2|0:0,0:0:0:0:
279,334,65965,6,0,P|270:366|264:389,2,44.999998626709
267,378,67215,6,0,P|247:295|212:173,1,209.999993591309,6|0,1:2|0:0,0:0:0:0:
290,34,67590,1,0,1:2:0:0:
154,80,67715,1,10,0:2:0:0:
275,145,67840,1,2,0:2:0:0:
408,108,67965,2,0,P|450:121|494:139,1,89.9999972534181,2|0,0:2|1:2,0:0:0:0:
375,196,68215,1,2,0:2:0:0:
491,257,68340,6,0,P|409:283|318:320,1,179.999994506836,8|0,0:2|0:0,0:0:0:0:
85,208,68715,6,0,P|135:223|158:264,1,89.9999972534181,10|0,0:2|0:0,0:0:0:0:
224,197,68965,2,0,P|248:242|236:288,1,89.9999972534181,2|0,0:2|1:2,0:0:0:0:
48,361,69215,6,0,P|31:286|-1:172,1,179.999994506836,2|2,1:2|0:2,0:0:0:0:
78,46,69590,5,0,1:2:0:0:
22,104,69715,2,0,B|57:132|57:132|113:123,1,89.9999972534181,10|0,0:2|0:0,0:0:0:0:
222,11,69965,5,2,0:2:0:0:
278,69,70090,2,0,B|243:97|243:97|187:88,1,89.9999972534181,2|0,1:2|0:0,0:0:0:0:
380,80,70340,5,8,0:2:0:0:
454,23,70465,2,0,P|472:73|489:125,1,89.9999972534181,2|8,1:2|0:2,0:0:0:0:
364,218,70715,5,10,0:2:0:0:
492,290,70840,1,10,0:2:0:0:
406,156,70965,5,10,0:3:0:0:
286,240,71090,1,8,0:3:0:0:
387,330,71215,6,0,P|361:243|324:126,1,209.999993591309,6|0,1:2|0:0,0:0:0:0:
202,15,71590,1,0,1:2:0:0:
149,139,71715,6,0,P|183:166|241:164,1,89.9999972534181,10|2,0:2|0:2,0:0:0:0:
96,67,71965,1,2,0:2:0:0:
12,9,72090,1,2,1:2:0:0:
77,157,72215,5,2,0:2:0:0:
211,90,72340,2,0,B|260:74|302:104|286:120|326:151|386:130,1,179.999994506836,8|0,0:2|0:0,0:0:0:0:
492,48,72715,6,0,B|519:85|519:85|506:129,1,89.9999972534181,10|8,0:2|0:3,0:0:0:0:
391,212,72965,2,0,B|364:175|364:175|376:132,1,89.9999972534181,2|0,0:2|1:2,0:0:0:0:
480,293,73215,2,0,P|435:305|392:319,1,89.9999972534181,2|0,1:2|0:0,0:0:0:0:
264,212,73465,5,2,0:2:0:0:
331,271,73590,1,0,1:2:0:0:
163,354,73715,2,0,P|180:305|194:265,1,89.9999972534181,10|0,0:2|0:0,0:0:0:0:
45,189,73965,2,0,P|59:231|74:273,1,89.9999972534181,14|0,0:2|0:0,0:0:0:0:
162,116,74215,6,0,P|124:89|77:90,1,89.9999972534181,10|0,0:2|0:0,0:0:0:0:
264,212,74465,2,0,P|308:210|344:184,1,89.9999972534181,10|8,0:3|0:3,0:0:0:0:
487,101,74715,5,10,0:2:0:0:
416,251,74840,1,2,0:2:0:0:
336,102,74965,5,10,0:3:0:0:
414,162,75090,1,8,0:2:0:0:
295,280,75215,6,0,B|239:304|188:268|213:244|158:208|93:234,1,209.999993591309,6|0,1:2|0:0,0:0:0:0:
12,317,75590,1,0,1:2:0:0:
113,374,75715,1,14,0:2:0:0:
185,284,75840,1,2,0:2:0:0:
41,161,75965,2,0,P|18:199|19:243,1,89.9999972534181,2|0,0:2|1:2,0:0:0:0:
144,162,76215,5,2,0:2:0:0:
80,76,76340,2,0,B|138:64|138:64|179:23|179:23|258:8,1,179.999994506836,8|0,0:2|0:0,0:0:0:0:
339,110,76715,6,0,P|326:147|310:205,1,89.9999972534181,10|0,0:2|0:0,0:0:0:0:
457,258,76965,2,0,P|444:214|430:172,1,89.9999972534181,2|0,0:2|1:2,0:0:0:0:
413,43,77215,6,0,B|449:17|449:17|502:32,1,89.9999972534181,2|0,1:2|0:0,0:0:0:0:
339,110,77465,2,0,B|295:122|295:122|259:96,1,89.9999972534181,2|0,0:2|1:2,0:0:0:0:
116,24,77715,6,0,P|147:113|176:200,1,179.999994506836,10|2,0:2|0:2,0:0:0:0:
131,326,78090,1,0,1:2:0:0:
28,249,78215,6,0,P|62:217|118:212,1,89.9999972534181,14|0,0:2|0:0,0:0:0:0:
268,319,78465,2,0,P|224:310|192:279,1,89.9999972534181,2|8,1:2|0:2,0:0:0:0:
301,217,78715,5,14,0:2:0:0:
434,292,78840,1,8,0:2:0:0:
497,147,78965,1,10,0:3:0:0:
405,206,79090,1,4,0:3:0:0:
345,76,79215,6,0,P|415:58|498:38,1,134.999995880127,6|0,1:2|0:0,0:0:0:0:
484,32,79465,2,0,P|444:40|397:54,1,89.9999972534181,0|0,1:2|0:0,0:0:0:0:
288,125,79715,6,0,B|239:141|197:111|213:95|173:64|113:85,1,179.999994506836,8|2,0:2|1:2,0:0:0:0:
41,220,80090,1,0,1:2:0:0:
0,111,80215,6,0,P|62:138|136:172,1,134.999995880127,14|0,0:2|0:0,0:0:0:0:
135,159,80465,2,0,P|180:145|233:132,1,89.9999972534181,0|2,1:2|0:2,0:0:0:0:
369,122,80715,6,0,P|345:189|312:304,1,179.999994506836,8|2,0:2|1:2,0:0:0:0:
410,369,81090,1,0,1:2:0:0:
507,304,81215,6,0,P|468:255|393:252,1,134.999995880127,14|0,0:2|0:0,0:0:0:0:
389,258,81465,2,0,P|337:295|296:286,1,89.9999972534181,0|0,1:2|0:0,0:0:0:0:
199,214,81715,6,0,P|265:265|249:378,1,179.999994506836,8|2,0:2|1:2,0:0:0:0:
154,312,82090,1,0,1:2:0:0:
106,155,82215,6,0,B|162:131|213:167|188:191|243:227|308:201,1,209.999993591309,14|0,0:2|0:0,0:0:0:0:
411,161,82590,6,0,B|490:125|468:41|468:41|468:88|420:112,1,209.999993591309,10|0,0:2|0:0,0:0:0:0:
338,46,82965,6,0,P|293:53|235:67,1,89.9999972534181,14|0,0:2|0:0,0:0:0:0:
106,155,83215,6,0,B|25:118|47:32|47:32|47:80|96:104,1,225,6|0,1:2|1:2,0:0:0:0:
122,34,83715,1,8,0:2:0:0:
122,34,83965,5,2,1:2:0:0:
13,113,84090,2,0,P|38:188|64:276,1,150,2|0,1:2|0:0,0:0:0:0:
181,345,84465,2,0,P|152:315|116:311,1,75,2|0,1:2|0:0,0:0:0:0:
27,368,84715,1,8,0:2:0:0:
27,368,84965,5,2,1:2:0:0:
120,310,85090,2,0,B|172:296|172:296|201:264|201:264|252:251,1,150,6|0,1:2|0:0,0:0:0:0:
338,316,85465,2,0,P|390:333|417:345,1,75,2|0,1:2|0:0,0:0:0:0:
508,268,85715,1,8,0:2:0:0:
508,268,85965,5,2,1:2:0:0:
408,341,86090,2,0,P|386:263|364:181,1,150,6|0,1:2|0:0,0:0:0:0:
309,59,86465,6,0,P|274:43|241:26,1,75,2|0,1:2|0:0,0:0:0:0:
362,121,86715,2,0,P|365:158|367:195,1,75,10|0,0:2|0:0,0:0:0:0:
401,52,86965,2,0,P|431:30|462:9,1,75,2|0,1:2|0:0,0:0:0:0:
282,129,87215,6,0,B|224:163|160:119|194:87|122:41|58:77,1,240,6|0,1:2|0:0,0:0:0:0:
