osu file format v14

[General]
AudioFilename: audio.mp3
AudioLeadIn: 0
PreviewTime: 66652
Countdown: 0
SampleSet: Soft
StackLeniency: 0.3
Mode: 0
LetterboxInBreaks: 0
WidescreenStoryboard: 1

[Editor]
DistanceSpacing: 1
BeatDivisor: 4
GridSize: 32
TimelineZoom: 1.6

[Metadata]
Title:Merry-Go-Round (TV Size)
TitleUnicode:Merry-Go-Round (TV Size)
Artist:MAN WITH A MISSION
ArtistUnicode:MAN WITH A MISSION
Creator:Pepekcz
Version:Bakugo-'s Extra
Source:僕のヒーローアカデミア
Tags:Bakugo- Boku no My Hero Academia bnha mha 5th fifth Season five 2nd second opening intro theme song two japanese rock jrock j-rock anime 緑谷出久 Midoriya Izuku デク Deku 爆豪勝己 Bakugō Katsuki 轟焦凍 Todoroki Shōto Shouto male vocal
BeatmapID:3557599
BeatmapSetID:1568551

[Difficulty]
HPDrainRate:5
CircleSize:5
OverallDifficulty:8.8
ApproachRate:9
SliderMultiplier:3
SliderTickRate:1

[Events]
//Background and Video events
Video,-70,"video.mp4"
0,0,"89344418.jpg",0,0
//Break Periods
//Storyboard Layer 0 (Background)
//Storyboard Layer 1 (Fail)
//Storyboard Layer 2 (Pass)
//Storyboard Layer 3 (Foreground)
//Storyboard Layer 4 (Overlay)
//Storyboard Sound Samples

[TimingPoints]
215,500,4,2,1,50,1,0
2215,-333.333333333332,4,2,2,50,0,0
6215,-200,4,2,2,50,0,0
9215,-111.111111111111,4,2,2,60,0,0
10215,-100,4,2,1,70,0,0
18215,-200,4,2,1,50,0,0
26215,-142.857142857143,4,2,1,50,0,0
33840,-125,4,2,1,50,0,0
34215,-111.111111111111,4,2,1,60,0,0
48215,-100,4,2,1,60,0,0
50215,-125,4,2,2,50,0,0
50965,-166.666666666667,4,2,2,50,0,0
58215,-125,4,2,1,60,0,0
59715,-200,4,2,1,60,0,0
60215,-125,4,2,1,60,0,0
60715,-200,4,2,1,60,0,0
62215,-111.111111111111,4,2,1,70,0,0
67215,500,4,2,1,90,1,0
67215,-71.4285714285714,4,2,1,90,0,1
67715,-83.3333333333333,4,2,1,90,0,1
71215,-71.4285714285714,4,2,1,90,0,1
71715,-83.3333333333333,4,2,1,90,0,1
74215,-83.3333333333333,4,2,1,95,0,1
75215,-71.4285714285714,4,2,1,90,0,1
75715,-83.3333333333333,4,2,1,90,0,1
78465,-83.3333333333333,4,2,1,95,0,1
82215,-71.4285714285714,4,2,1,95,0,1
82965,-83.3333333333333,4,2,1,95,0,1
83215,-100,4,2,1,70,0,0
87215,-125,4,2,1,70,0,0
87715,-100,4,2,1,5,0,0

[Colours]
Combo1 : 120,122,99
Combo2 : 219,79,26
Combo3 : 200,147,98
Combo4 : 197,27,11

[HitObjects]
62,72,2215,5,10,0:2:0:0:
78,65,2715,1,10,0:2:0:0:
94,57,3215,1,10,0:2:0:0:
110,50,3715,1,10,0:2:0:0:
176,166,4215,5,10,0:2:0:0:
161,155,4715,1,10,0:2:0:0:
147,145,5215,1,10,0:2:0:0:
132,135,5715,1,10,0:2:0:0:
249,84,6215,6,0,L|259:32,1,37.5,10|0,3:2|3:2,0:0:0:0:
328,84,6465,1,0,3:2:0:0:
332,98,6590,1,0,3:2:0:0:
336,112,6715,1,10,3:2:0:0:
394,24,6965,1,0,3:2:0:0:
400,37,7090,1,0,3:2:0:0:
460,128,7215,6,0,L|452:187,1,37.5,10|0,3:2|3:2,0:0:0:0:
372,195,7465,2,0,L|380:254,1,37.5,2|0,3:2|3:2,0:0:0:0:
507,309,7715,2,0,L|413:296,1,75,10|0,3:2|3:2,0:0:0:0:
340,324,8090,1,0,3:2:0:0:
318,338,8215,6,0,L|266:328,1,37.5,10|0,3:2|3:2,0:0:0:0:
221,279,8465,1,2,3:2:0:0:
206,283,8590,1,0,3:2:0:0:
191,286,8715,1,10,3:2:0:0:
178,278,8840,1,0,3:2:0:0:
166,268,8965,1,2,3:2:0:0:
155,257,9090,1,0,3:2:0:0:
218,133,9215,6,0,L|199:224,1,67.4999979400635,10|0,3:2|3:2,0:0:0:0:
273,75,9465,2,0,L|361:45,1,67.4999979400635,0|2,3:2|3:2,0:0:0:0:
201,53,9715,2,0,L|131:-8,1,67.4999979400635,0|0,3:2|3:2,0:0:0:0:
301,154,9965,1,2,3:2:0:0:
312,172,10090,1,0,3:2:0:0:
327,193,10215,6,0,B|345:205|395:204|395:204|221:227,1,225,6|0,1:2|1:2,0:0:0:0:
241,224,10715,1,8,0:2:0:0:
110,307,10965,1,2,1:2:0:0:
96,280,11090,2,0,B|92:230|92:230|107:207|107:207|101:123,1,150,6|0,1:2|0:0,0:0:0:0:
76,39,11465,2,0,B|115:31|115:31|153:51,1,75,2|0,1:2|0:0,0:0:0:0:
19,119,11715,1,8,0:2:0:0:
210,151,11965,5,2,1:2:0:0:
233,132,12090,2,0,P|303:98|391:104,1,150,6|0,1:2|0:0,0:0:0:0:
346,238,12465,2,0,P|326:204|320:164,1,75,2|0,1:2|0:0,0:0:0:0:
430,288,12715,1,8,0:2:0:0:
271,307,12965,5,2,1:2:0:0:
194,277,13090,2,0,B|155:258|108:277|134:295|89:318|42:280,1,150,6|0,1:2|0:0,0:0:0:0:
88,206,13465,2,0,P|91:163|75:127,1,75,2|0,1:2|0:0,0:0:0:0:
267,103,13715,2,0,P|228:121|205:153,1,75,10|0,0:2|0:0,0:0:0:0:
87,14,13965,2,0,P|122:38|161:42,1,75,2|0,1:2|0:0,0:0:0:0:
340,47,14215,5,6,1:2:0:0:
439,14,14340,1,10,0:2:0:0:
507,85,14465,1,8,0:3:0:0:
417,103,14590,1,8,0:3:0:0:
366,52,14715,6,0,L|456:42,1,75,14|0,0:2|0:0,0:0:0:0:
454,163,14965,1,2,1:2:0:0:
369,196,15090,2,0,L|197:165,1,150,6|0,1:2|0:0,0:0:0:0:
166,110,15465,2,0,P|140:136|132:177,1,75,2|0,1:2|0:0,0:0:0:0:
255,88,15715,1,8,0:2:0:0:
34,80,15965,5,2,1:2:0:0:
46,108,16090,2,0,B|74:132|74:132|17:266,1,150,6|0,1:2|0:0,0:0:0:0:
84,340,16465,2,0,B|121:331|121:331|157:352,1,75,2|0,1:2|0:0,0:0:0:0:
4,302,16715,1,8,0:2:0:0:
209,258,16965,5,2,1:2:0:0:
278,304,17090,2,0,L|441:278,1,150,6|0,1:2|0:0,0:0:0:0:
474,120,17465,2,0,L|451:206,1,75,2|0,1:2|0:0,0:0:0:0:
355,45,17715,2,0,L|406:117,1,75,10|0,0:2|0:0,0:0:0:0:
224,109,17965,2,0,L|312:116,1,75,2|0,1:2|0:0,0:0:0:0:
166,50,18215,5,2,0:2:0:0:
139,70,18340,1,2,0:2:0:0:
128,102,18465,1,2,0:2:0:0:
139,133,18590,1,2,0:2:0:0:
160,158,18715,1,2,0:2:0:0:
160,158,19215,1,2,0:2:0:0:
160,158,19715,6,0,L|171:283,1,112.5,2|0,0:2|0:0,0:0:0:0:
169,270,20215,1,2,0:2:0:0:
67,236,20465,1,2,0:2:0:0:
261,190,20715,1,2,0:2:0:0:
191,360,20965,1,2,0:2:0:0:
191,360,21090,1,2,0:2:0:0:
191,360,21215,2,0,P|215:342|238:333,1,37.5,2|2,0:2|0:2,0:0:0:0:
358,365,21465,2,0,P|341:355|327:343,1,37.5,2|2,0:2|0:2,0:0:0:0:
266,273,21715,2,0,P|321:241|383:238,1,112.5,2|0,0:2|0:0,0:0:0:0:
408,302,22215,5,2,0:2:0:0:
443,290,22340,1,2,0:2:0:0:
462,257,22465,1,2,0:2:0:0:
452,220,22590,1,2,0:2:0:0:
424,194,22715,1,2,0:2:0:0:
424,194,23215,1,2,0:2:0:0:
424,194,23715,2,0,L|412:77,1,112.5,2|0,0:2|0:0,0:0:0:0:
412,82,24215,1,2,0:2:0:0:
501,115,24465,1,2,0:2:0:0:
317,153,24715,6,0,L|250:133,1,37.5,2|0,0:2|0:0,0:0:0:0:
210,63,24965,1,2,0:2:0:0:
187,54,25090,2,0,L|120:74,1,37.5,2|2,0:2|0:2,0:0:0:0:
39,129,25340,2,0,L|106:149,1,37.5,2|2,0:2|0:2,0:0:0:0:
156,249,25590,1,2,0:2:0:0:
163,265,25715,2,0,L|181:126,1,112.5,2|0,0:2|0:0,0:0:0:0:
74,212,26215,6,0,P|53:236|46:269,1,52.4999983978272,4|2,1:2|0:2,0:0:0:0:
107,312,26465,2,0,P|106:343|122:373,1,52.4999983978272,2|2,0:2|0:2,0:0:0:0:
199,333,26715,2,0,L|437:298,1,209.999993591309,2|2,1:2|1:2,0:0:0:0:
356,145,27715,2,0,B|415:145|441:96|441:96|415:145|436:212,1,209.999993591309,2|2,1:2|1:2,0:0:0:0:
248,193,28465,1,2,0:2:0:0:
272,27,28715,2,0,P|329:37|360:75,1,104.999996795654,2|2,1:2|0:2,0:0:0:0:
221,124,29090,1,2,0:2:0:0:
168,62,29215,2,0,L|95:51,1,52.4999983978272,2|2,1:2|0:2,0:0:0:0:
60,123,29465,2,0,L|8:130,1,52.4999983978272,2|2,0:2|0:2,0:0:0:0:
115,200,29715,1,2,1:2:0:0:
132,217,29840,2,0,L|105:334,1,104.999996795654,2|0,0:2|0:0,0:0:0:0:
201,313,30215,5,2,1:2:0:0:
246,287,30340,1,2,0:2:0:0:
296,299,30465,1,2,0:2:0:0:
316,347,30590,1,2,0:2:0:0:
249,372,30715,6,0,L|312:164,1,209.999993591309,6|2,1:2|1:2,0:0:0:0:
494,63,31715,6,0,B|422:74|407:131|445:125|427:200|371:211,1,209.999993591309,2|2,1:2|1:2,0:0:0:0:
169,64,32465,1,2,0:2:0:0:
234,22,32590,1,0,0:0:0:0:
277,80,32715,2,0,L|335:66,1,52.4999983978272,2|2,1:2|0:2,0:0:0:0:
226,151,32965,2,0,L|168:137,1,52.4999983978272,2|2,0:2|0:2,0:0:0:0:
315,182,33215,6,0,P|330:210|330:245,1,52.4999983978272,2|2,1:2|0:2,0:0:0:0:
215,278,33465,2,0,P|231:251|262:233,1,52.4999983978272,2|2,0:2|0:2,0:0:0:0:
339,320,33715,1,10,1:2:0:0:
346,338,33840,1,6,0:3:0:0:
226,151,34215,6,0,P|224:119|208:78,1,67.4999979400635,4|0,1:2|0:0,0:0:0:0:
109,144,34465,2,0,P|97:175|95:209,1,67.4999979400635,2|0,0:2|0:0,0:0:0:0:
186,267,34715,6,0,L|336:247,1,134.999995880127,10|2,0:2|0:2,0:0:0:0:
298,349,35090,1,2,0:2:0:0:
173,349,35215,2,0,L|90:335,1,67.4999979400635,0|2,1:2|0:2,0:0:0:0:
25,271,35465,5,2,0:2:0:0:
94,208,35590,1,2,0:2:0:0:
25,136,35715,2,0,L|5:47,1,67.4999979400635,10|0,0:2|0:0,0:0:0:0:
120,5,35965,2,0,L|100:94,1,67.4999979400635,2|0,0:2|0:0,0:0:0:0:
177,140,36215,1,0,1:2:0:0:
177,140,36465,5,2,0:2:0:0:
232,80,36590,1,2,0:2:0:0:
265,158,36715,2,0,L|434:140,1,134.999995880127,10|0,0:2|0:0,0:0:0:0:
460,82,37090,2,0,B|505:128|505:128|458:206,1,134.999995880127,2|2,0:2|0:2,0:0:0:0:
391,235,37465,1,2,0:2:0:0:
482,304,37590,1,2,0:2:0:0:
370,344,37715,2,0,L|274:331,1,67.4999979400635,10|0,0:2|0:0,0:0:0:0:
248,255,37965,2,0,L|152:268,1,67.4999979400635,2|0,0:2|0:0,0:0:0:0:
92,341,38215,1,0,1:2:0:0:
92,341,38465,5,2,0:2:0:0:
40,270,38590,1,0,0:0:0:0:
118,222,38715,2,0,L|126:136,1,67.4999979400635,10|2,0:2|0:2,0:0:0:0:
36,108,38965,2,0,P|66:83|97:73,1,67.4999979400635,0|2,0:0|0:2,0:0:0:0:
187,18,39215,2,0,P|217:43|248:53,1,67.4999979400635,0|2,1:2|0:2,0:0:0:0:
316,115,39465,1,0,0:0:0:0:
419,83,39590,1,2,0:2:0:0:
429,182,39715,2,0,B|411:241|411:241|417:261|417:261|394:337,1,134.999995880127,8|0,0:2|0:0,0:0:0:0:
294,330,40090,1,0,0:0:0:0:
224,263,40215,6,0,P|196:247|148:236,1,67.4999979400635,2|0,1:2|0:0,0:0:0:0:
176,161,40465,2,0,P|144:166|100:189,1,67.4999979400635,2|0,0:2|0:0,0:0:0:0:
67,118,40715,2,0,P|45:142|26:188,1,67.4999979400635,10|0,0:2|0:0,0:0:0:0:
11,268,40965,1,2,0:2:0:0:
91,314,41090,2,0,L|179:301,1,67.4999979400635,2|0,0:2|1:2,0:0:0:0:
231,349,41340,2,0,L|402:371,1,134.999995880127,2|2,0:2|0:2,0:0:0:0:
462,319,41715,1,8,0:2:0:0:
400,216,41965,5,8,0:2:0:0:
401,206,42027,1,8,0:2:0:0:
403,196,42090,1,8,0:2:0:0:
431,124,42215,2,0,B|396:103|358:120|377:134|346:152|299:124,1,134.999995880127,4|2,1:2|0:2,0:0:0:0:
212,71,42590,1,0,0:0:0:0:
283,18,42715,2,0,P|320:29|342:61,1,67.4999979400635,10|0,0:2|0:0,0:0:0:0:
212,147,42965,1,2,0:2:0:0:
139,105,43090,6,0,L|65:91,1,67.4999979400635,2|0,0:2|1:2,0:0:0:0:
11,190,43340,2,0,L|85:176,1,67.4999979400635,2|0,0:2|0:0,0:0:0:0:
213,163,43590,2,0,L|241:325,1,134.999995880127,2|0,0:2|0:0,0:0:0:0:
315,353,43965,1,2,0:2:0:0:
402,298,44090,1,0,0:0:0:0:
311,237,44215,6,0,L|288:103,1,134.999995880127,0|2,1:2|0:2,0:0:0:0:
384,47,44590,1,0,0:0:0:0:
251,30,44715,2,0,L|185:20,1,67.4999979400635,14|0,0:2|0:0,0:0:0:0:
43,54,44965,1,2,0:2:0:0:
104,96,45090,1,2,0:2:0:0:
213,163,45215,1,0,1:2:0:0:
133,198,45340,1,2,0:2:0:0:
41,197,45465,6,0,L|29:279,1,67.4999979400635,2|2,0:2|0:2,0:0:0:0:
84,344,45715,1,8,0:2:0:0:
162,286,45840,1,2,0:2:0:0:
239,378,45965,1,8,0:2:0:0:
232,265,46090,1,8,0:2:0:0:
315,310,46215,6,0,L|460:287,1,134.999995880127,4|2,1:2|0:2,0:0:0:0:
512,246,46590,1,0,0:0:0:0:
467,187,46715,2,0,P|441:167|400:148,1,67.4999979400635,8|0,0:2|0:0,0:0:0:0:
484,104,46965,1,2,0:2:0:0:
414,68,47090,2,0,P|381:69|337:81,1,67.4999979400635,2|0,0:2|1:2,0:0:0:0:
282,212,47340,2,0,P|297:182|309:138,1,67.4999979400635,2|0,0:2|0:0,0:0:0:0:
219,22,47590,2,0,P|236:50|268:82,1,67.4999979400635,2|8,0:2|0:2,0:0:0:0:
174,99,47840,1,0,0:0:0:0:
88,20,47965,1,0,1:2:0:0:
87,33,48027,1,0,1:2:0:0:
87,46,48090,1,0,1:2:0:0:
23,163,48215,6,0,P|58:139|97:119,1,75,10|0,0:2|0:0,0:0:0:0:
168,267,48465,2,0,P|129:248|92:224,1,75,10|0,0:2|0:0,0:0:0:0:
174,99,48715,2,0,P|177:141|175:185,1,75,10|0,0:2|0:0,0:0:0:0:
87,33,48965,1,2,1:2:0:0:
219,22,49090,2,0,L|313:13,1,75,2|0,1:2|0:0,0:0:0:0:
455,110,49340,2,0,L|380:102,1,75,2|0,1:2|0:0,0:0:0:0:
288,127,49590,2,0,B|325:168|325:168|276:276,1,150,14|8,0:2|0:2,0:0:0:0:
325,333,49965,1,8,0:3:0:0:
234,374,50090,1,8,0:3:0:0:
189,289,50215,1,4,1:2:0:0:
189,289,50715,6,0,L|54:275,1,120,10|2,0:2|0:2,0:0:0:0:
85,143,51215,2,0,B|129:160|138:211|138:211|129:160|176:110,1,179.999994506836,10|10,0:2|0:2,0:0:0:0:
284,46,52215,2,0,P|244:22|199:20,1,89.9999972534181,10|0,0:2|0:0,0:0:0:0:
372,120,52715,2,0,L|391:21,1,89.9999972534181,10|0,0:2|0:0,0:0:0:0:
273,134,53215,2,0,P|272:180|292:220,1,89.9999972534181,10|0,0:2|0:0,0:0:0:0:
372,120,53715,2,0,P|412:97|437:59,1,89.9999972534181,10|0,0:2|0:0,0:0:0:0:
483,159,54215,2,0,L|455:314,1,134.999995880127,10|0,0:2|0:0,0:0:0:0:
498,352,54715,6,0,P|449:362|405:344,1,89.9999972534181,10|2,0:2|0:2,0:0:0:0:
332,265,55215,2,0,P|283:255|239:273,1,89.9999972534181,10|0,0:2|0:0,0:0:0:0:
175,363,55715,2,0,P|143:317|152:235,1,134.999995880127,10|0,0:2|0:0,0:0:0:0:
184,214,56215,6,0,P|150:174|106:153,1,89.9999972534181,10|0,0:2|1:2,0:0:0:0:
244,24,56715,2,0,P|210:64|166:85,1,89.9999972534181,10|0,0:2|1:2,0:0:0:0:
282,224,57215,6,0,P|309:189|348:167,1,89.9999972534181,10|0,0:2|0:0,0:0:0:0:
342,35,57716,2,0,P|369:70|408:92,1,89.9999972534181,10|0,0:2|0:0,0:0:0:0:
249,119,58215,5,2,1:2:0:0:
282,224,58465,1,0,0:0:0:0:
335,181,58590,1,0,0:0:0:0:
368,243,58715,2,0,L|489:229,1,120,2|2,1:2|0:2,0:0:0:0:
334,333,59215,2,0,L|214:319,1,120,2|0,1:2|0:0,0:0:0:0:
110,339,59715,2,0,B|123:303|123:303|102:271,1,75,2|0,1:2|0:0,0:0:0:0:
25,157,60215,6,0,P|84:127|141:120,1,120,2|0,1:2|0:0,0:0:0:0:
244,230,60715,2,0,P|197:223|157:198,1,75,2|0,1:2|0:0,0:0:0:0:
236,58,61215,6,0,L|249:143,1,75,2|0,1:2|0:0,0:0:0:0:
346,242,61715,2,0,L|359:157,1,75,2|0,1:2|0:0,0:0:0:0:
469,62,62215,6,0,P|418:32|329:41,1,134.999995880127,2|0,1:2|0:0,0:0:0:0:
236,58,62590,2,0,P|169:62|111:30,1,134.999995880127,2|0,1:2|0:0,0:0:0:0:
111,30,62965,1,0,1:2:0:0:
62,132,63215,6,0,L|78:283,1,134.999995880127,2|0,1:2|0:0,0:0:0:0:
161,362,63590,2,0,L|177:211,1,134.999995880127,2|0,1:2|0:0,0:0:0:0:
175,227,63965,1,0,1:2:0:0:
279,172,64215,6,0,B|346:161|346:161|382:227,1,134.999995880127,2|0,1:2|0:0,0:0:0:0:
359,304,64590,2,0,B|426:315|426:315|462:249,1,134.999995880127,2|0,1:2|0:0,0:0:0:0:
458,256,64965,1,0,1:2:0:0:
360,44,65215,5,2,1:2:0:0:
429,30,65340,1,0,0:0:0:0:
440,99,65465,1,0,0:0:0:0:
373,111,65590,1,0,0:0:0:0:
403,73,65715,6,0,B|363:48|301:79|320:105|264:134|209:87,1,202.499993820191,2|0,1:2|0:0,0:0:0:0:
216,92,66215,1,0,0:0:0:0:
105,94,66715,5,2,0:2:0:0:
166,173,66840,1,2,0:2:0:0:
75,246,66965,2,0,L|65:160,1,67.4999979400635,2|2,0:2|0:2,0:0:0:0:
41,331,67215,6,0,B|118:326|118:326|153:291|153:291|253:286,1,209.999993591309,6|0,1:2|0:0,0:0:0:0:
337,355,67590,1,0,1:2:0:0:
471,293,67715,1,10,0:2:0:0:
372,221,67840,1,2,0:2:0:0:
468,151,67965,2,0,L|490:56,1,89.9999972534181,2|0,0:2|1:2,0:0:0:0:
384,56,68215,6,0,B|317:45|269:117|312:131|260:195|158:170,1,269.999991760254,2|0,0:2|0:0,0:0:0:0:
167,13,68715,2,0,P|193:41|204:96,1,89.9999972534181,10|0,0:2|0:0,0:0:0:0:
67,178,68965,2,0,P|78:141|120:104,1,89.9999972534181,2|0,0:2|1:2,0:0:0:0:
168,251,69215,6,0,B|190:245|206:215|206:215|165:351,1,179.999994506836,2|2,1:2|0:2,0:0:0:0:
337,355,69590,1,0,1:2:0:0:
266,276,69715,2,0,L|364:260,1,89.9999972534181,10|0,0:2|0:0,0:0:0:0:
509,292,69965,1,2,0:2:0:0:
434,357,70090,2,0,B|413:311|413:311|440:265,1,89.9999972534181,2|0,1:2|0:0,0:0:0:0:
485,166,70340,1,8,0:2:0:0:
407,125,70465,2,0,B|365:107|365:107|326:133,1,89.9999972534181,2|8,1:2|0:2,0:0:0:0:
207,68,70715,5,10,0:2:0:0:
293,22,70840,1,10,0:2:0:0:
205,157,70965,1,10,0:3:0:0:
135,10,71090,1,8,0:3:0:0:
207,68,71215,6,0,B|161:105|74:75|74:75|101:100|113:137,1,209.999993591309,6|0,1:2|0:0,0:0:0:0:
29,236,71590,1,0,1:2:0:0:
82,297,71715,6,0,P|127:282|173:277,1,89.9999972534181,10|2,0:2|0:2,0:0:0:0:
226,342,71965,1,2,0:2:0:0:
130,201,72090,1,2,1:2:0:0:
255,244,72215,1,2,0:2:0:0:
370,150,72340,2,0,L|251:131,1,89.9999972534181,8|0,0:2|0:0,0:0:0:0:
412,267,72590,1,0,0:0:0:0:
472,155,72715,6,0,L|493:53,1,89.9999972534181,10|8,0:2|0:3,0:0:0:0:
431,356,72965,2,0,L|412:267,1,89.9999972534181,2|0,0:2|1:2,0:0:0:0:
322,315,73215,2,0,P|289:285|237:262,1,89.9999972534181,2|0,1:2|0:0,0:0:0:0:
82,297,73465,1,2,0:2:0:0:
200,350,73590,1,0,1:2:0:0:
135,212,73715,2,0,P|120:160|90:123,1,89.9999972534181,10|0,0:2|0:0,0:0:0:0:
262,143,73965,2,0,P|277:91|307:54,1,89.9999972534181,14|0,0:2|0:0,0:0:0:0:
141,31,74215,5,10,0:2:0:0:
157,50,74340,1,0,0:0:0:0:
161,149,74465,5,10,0:3:0:0:
175,122,74590,1,8,0:3:0:0:
58,76,74715,5,10,0:2:0:0:
135,212,74840,1,2,0:2:0:0:
11,294,74965,2,0,L|30:195,1,89.9999972534181,10|8,0:3|0:2,0:0:0:0:
121,241,75215,6,0,B|181:250|204:314|165:318|203:371|279:374,1,209.999993591309,6|0,1:2|0:0,0:0:0:0:
396,315,75590,1,0,1:2:0:0:
305,198,75715,1,14,0:2:0:0:
260,299,75840,1,2,0:2:0:0:
410,227,75965,2,0,P|426:196|428:127,1,89.9999972534181,2|0,0:2|1:2,0:0:0:0:
398,45,76215,6,0,B|324:58|324:58|308:77|308:77|213:94,1,179.999994506836,2|0,0:2|0:0,0:0:0:0:
135,46,76590,1,0,0:0:0:0:
43,170,76715,6,0,P|59:129|53:78,1,89.9999972534181,10|0,0:2|0:0,0:0:0:0:
174,226,76965,2,0,P|157:184|161:139,1,89.9999972534181,2|0,0:2|1:2,0:0:0:0:
45,253,77215,6,0,B|92:246|92:246|124:283,1,89.9999972534181,2|0,1:2|0:0,0:0:0:0:
213,343,77465,2,0,B|260:350|260:350|292:313,1,89.9999972534181,2|0,0:2|1:2,0:0:0:0:
397,169,77715,2,0,L|376:265,1,89.9999972534181,10|0,0:2|0:0,0:0:0:0:
482,190,77965,1,2,0:2:0:0:
388,88,78090,1,0,1:2:0:0:
282,161,78215,6,0,P|242:141|187:133,1,89.9999972534181,14|0,0:2|0:0,0:0:0:0:
83,11,78465,2,0,P|85:55|106:107,1,89.9999972534181,2|8,1:2|0:2,0:0:0:0:
45,253,78715,2,0,P|82:228|116:184,1,89.9999972534181,14|8,0:2|0:2,0:0:0:0:
210,204,78965,1,10,0:3:0:0:
115,326,79090,1,4,0:3:0:0:
216,277,79215,6,0,L|312:267,1,89.9999972534181,6|0,1:2|0:0,0:0:0:0:
462,348,79465,2,0,L|366:338,1,89.9999972534181,0|0,1:2|0:0,0:0:0:0:
392,259,79715,2,0,L|424:61,1,179.999994506836,8|2,0:2|1:2,0:0:0:0:
339,28,80090,1,0,1:2:0:0:
280,87,80215,6,0,P|242:63|215:17,1,89.9999972534181,14|0,0:2|0:0,0:0:0:0:
141,99,80465,2,0,P|103:123|76:169,1,89.9999972534181,0|2,1:2|0:2,0:0:0:0:
315,253,80715,2,0,P|236:192|138:178,1,179.999994506836,8|2,0:2|1:2,0:0:0:0:
29,231,81090,5,0,1:2:0:0:
86,300,81215,2,0,L|181:287,1,89.9999972534181,14|0,0:2|0:0,0:0:0:0:
242,350,81465,2,0,L|337:363,1,89.9999972534181,0|0,1:2|0:0,0:0:0:0:
441,361,81715,6,0,B|425:298|425:298|433:274|433:274|412:184,1,179.999994506836,8|2,0:2|1:2,0:0:0:0:
454,106,82090,1,0,1:2:0:0:
337,85,82215,6,0,B|280:80|247:133|274:142|234:195|152:171,1,209.999993591309,14|0,0:2|0:0,0:0:0:0:
172,73,82590,2,0,B|228:81|248:140|219:142|246:203|332:198,1,209.999993591309,10|0,0:2|0:0,0:0:0:0:
261,31,82965,1,14,0:2:0:0:
185,265,83215,6,0,P|129:237|24:245,1,150,6|0,1:2|0:0,0:0:0:0:
101,306,83590,1,0,1:2:0:0:
109,324,83715,1,8,0:2:0:0:
277,338,83965,5,2,1:2:0:0:
351,342,84090,2,0,B|334:282|334:282|339:261|339:261|317:189,1,150,2|0,1:2|0:0,0:0:0:0:
373,105,84465,2,0,B|354:67|354:67|374:31,1,75,2|0,1:2|0:0,0:0:0:0:
463,113,84715,1,8,0:2:0:0:
263,82,84965,5,2,1:2:0:0:
194,40,85090,2,0,L|23:16,1,150,6|0,1:2|0:0,0:0:0:0:
19,144,85465,2,0,L|107:128,1,75,2|0,1:2|0:0,0:0:0:0:
178,172,85715,1,8,0:2:0:0:
87,257,85965,5,2,1:2:0:0:
144,327,86090,2,0,B|200:323|200:323|214:305|214:305|289:298,1,150,6|0,1:2|0:0,0:0:0:0:
381,342,86465,6,0,P|401:304|402:249,1,75,2|0,1:2|0:0,0:0:0:0:
486,114,86715,2,0,P|443:115|394:142,1,75,10|0,0:2|0:0,0:0:0:0:
242,131,86965,2,0,P|264:167|312:195,1,75,2|0,1:2|0:0,0:0:0:0:
249,51,87215,6,0,B|181:43|130:105|175:118|121:172|32:146,1,240,6|0,1:2|0:0,0:0:0:0:
