osu file format v14

[General]
AudioFilename: audio.mp3
AudioLeadIn: 0
PreviewTime: 79804
Countdown: 0
SampleSet: Soft
StackLeniency: 0.2
Mode: 0
LetterboxInBreaks: 0
WidescreenStoryboard: 0

[Editor]
Bookmarks: 8254,15454,22654,37054,51454,65854,80254,94654,109054
DistanceSpacing: 1.1
BeatDivisor: 8
GridSize: 32
TimelineZoom: 2.7

[Metadata]
Title:Kaze no Uta
TitleUnicode:風の唄
Artist:MAMI
ArtistUnicode:MAMI
Creator:newton-
Version:newqua's Insane
Source:ニュートンと林檎の樹
Tags:xidorn -aqua atalanta newton to ringo no ki newrin newton and the apple tree project laplacian song of wind
BeatmapID:1674862
BeatmapSetID:797473

[Difficulty]
HPDrainRate:6
CircleSize:4
OverallDifficulty:8
ApproachRate:9
SliderMultiplier:1.6
SliderTickRate:1

[Events]
//Background and Video events
0,0,"(4) ask -aqua for gds and mods.jpg",0,0
//Break Periods
//Storyboard Layer 0 (Background)
//Storyboard Layer 1 (Fail)
//Storyboard Layer 2 (Pass)
//Storyboard Layer 3 (Foreground)
//Storyboard Sound Samples

[TimingPoints]
8254,300,6,2,1,40,1,0
8254,-200,6,2,1,40,0,0
15454,-133.333333333333,6,2,1,50,0,0
22654,-100,6,2,2,60,0,0
24454,-100,6,2,3,60,0,0
25579,-100,6,2,1,5,0,0
25654,-100,6,2,1,60,0,0
25879,-100,6,2,1,5,0,0
25954,-100,6,2,1,60,0,0
26179,-100,6,2,1,5,0,0
26254,-100,6,2,2,60,0,0
29179,-100,6,2,1,5,0,0
29254,-100,6,2,1,60,0,0
29479,-100,6,2,1,5,0,0
29554,-100,6,2,1,60,0,0
29779,-100,6,2,1,5,0,0
29854,-100,6,2,3,60,0,0
33379,-100,6,2,3,5,0,0
33454,-200,6,2,1,40,0,0
36979,-200,6,2,1,5,0,0
37054,-111.111111111111,6,2,4,40,0,0
44179,-111.111111111111,6,2,4,5,0,0
44254,-111.111111111111,6,2,4,40,0,0
48754,-384.615384615385,6,2,4,40,0,0
48829,-384.615384615385,6,2,4,40,0,0
49354,-111.111111111111,6,2,4,40,0,0
49654,-100,6,2,4,40,0,0
49879,-100,6,2,4,5,0,0
49954,-100,6,2,4,40,0,0
50179,-100,6,2,4,5,0,0
50254,-100,6,2,4,40,0,0
50479,-100,6,2,4,5,0,0
50554,-166.666666666667,6,2,2,60,0,0
50629,-166.666666666667,6,2,1,5,0,0
50779,-166.666666666667,6,2,1,5,0,0
50854,-83.3333333333333,6,2,2,60,0,0
51079,-83.3333333333333,6,2,1,5,0,0
51154,-111.111111111111,6,2,2,60,0,0
51379,-111.111111111111,6,2,1,5,0,0
51454,-100,6,2,3,60,0,0
54754,-125,6,2,3,60,0,0
55054,-100,6,2,3,60,0,0
58354,-125,6,2,1,60,0,0
58579,-125,6,2,1,5,0,0
58654,-100,6,2,2,60,0,0
64954,-250,6,2,2,60,0,0
65179,-250,6,2,2,5,0,0
65254,-166.666666666667,6,2,1,60,0,0
65479,-166.666666666667,6,2,1,5,0,0
65554,-125,6,2,1,60,0,0
65779,-125,6,2,1,5,0,0
65854,-133.333333333333,6,2,3,60,0,0
66454,-105.263157894737,6,2,3,60,0,0
66754,-105.263157894737,6,2,4,60,0,0
67054,-105.263157894737,6,2,2,60,0,0
69079,-105.263157894737,6,2,2,5,0,0
69154,-105.263157894737,6,2,2,60,0,0
69454,-133.333333333333,6,2,3,60,0,0
70054,-105.263157894737,6,2,3,60,0,0
70354,-105.263157894737,6,2,4,60,0,0
70654,-105.263157894737,6,2,2,60,0,0
72679,-105.263157894737,6,2,2,5,0,0
72754,-105.263157894737,6,2,2,60,0,0
73054,-133.333333333333,6,2,2,60,0,0
73654,-105.263157894737,6,2,2,60,0,0
73954,-105.263157894737,6,2,4,60,0,0
74254,-105.263157894737,6,2,2,60,0,0
75754,-95.2380952380954,6,2,2,60,0,0
76054,-86.9565217391304,6,2,2,60,0,0
76354,-80,6,2,2,60,0,0
76654,-133.333333333333,6,2,2,40,0,0
76879,-133.333333333333,6,2,2,5,0,0
76954,-111.111111111111,6,2,2,45,0,0
77179,-111.111111111111,6,2,2,5,0,0
77254,-95.2380952380952,6,2,2,50,0,0
77479,-95.2380952380952,6,2,2,5,0,0
77554,-83.3333333333333,6,2,2,55,0,0
77779,-83.3333333333333,6,2,2,5,0,0
77854,-74.0740740740741,6,2,2,60,0,0
78079,-74.0740740740741,6,2,2,5,0,0
78154,-66.6666666666667,6,2,2,80,0,0
78454,-60.6060606060606,6,2,2,80,0,0
78754,-60.6060606060606,6,2,2,60,0,0
79954,-60.6060606060606,6,2,1,60,0,0
80254,-83.3333333333333,6,2,2,90,0,1
81904,-83.3333333333333,6,2,1,90,0,1
82054,-83.3333333333333,6,2,2,90,0,1
83179,-83.3333333333333,6,2,2,5,0,1
83254,-83.3333333333333,6,2,1,90,0,1
83479,-83.3333333333333,6,2,1,5,0,1
83554,-83.3333333333333,6,2,1,90,0,1
83854,-83.3333333333333,6,2,3,90,0,1
85504,-83.3333333333333,6,2,1,90,0,1
85654,-83.3333333333333,6,2,2,90,0,1
86779,-83.3333333333333,6,2,2,5,0,1
86854,-83.3333333333333,6,2,2,90,0,1
89104,-83.3333333333333,6,2,1,90,0,1
89254,-83.3333333333333,6,2,2,90,0,1
90379,-83.3333333333333,6,2,2,5,0,1
90454,-83.3333333333333,6,2,1,90,0,1
90679,-83.3333333333333,6,2,1,5,0,1
90754,-83.3333333333333,6,2,1,90,0,1
91054,-83.3333333333333,6,2,3,90,0,1
91804,-83.3333333333333,6,2,1,90,0,1
91954,-83.3333333333333,6,2,3,90,0,1
92854,-83.3333333333333,6,2,3,100,0,1
94054,-83.3333333333333,6,2,1,60,0,1
94354,-83.3333333333333,6,2,1,60,0,0
94654,-83.3333333333333,6,2,2,90,0,1
96304,-83.3333333333333,6,2,1,90,0,1
96454,-83.3333333333333,6,2,2,90,0,1
97579,-83.3333333333333,6,2,2,5,0,1
97654,-83.3333333333333,6,2,2,90,0,1
97879,-83.3333333333333,6,2,2,5,0,1
97954,-83.3333333333333,6,2,2,90,0,1
99904,-83.3333333333333,6,2,1,90,0,1
100054,-83.3333333333333,6,2,2,90,0,1
101179,-83.3333333333333,6,2,2,5,0,1
101254,-83.3333333333333,6,2,1,90,0,1
101479,-83.3333333333333,6,2,1,5,0,1
101554,-83.3333333333333,6,2,1,90,0,1
101854,-83.3333333333333,6,2,3,90,0,1
103504,-83.3333333333333,6,2,1,90,0,1
103654,-83.3333333333333,6,2,2,90,0,1
104779,-83.3333333333333,6,2,2,5,0,1
104854,-83.3333333333333,6,2,2,90,0,1
105079,-83.3333333333333,6,2,2,5,0,1
105154,-83.3333333333333,6,2,2,90,0,1
105379,-83.3333333333333,6,2,2,5,0,1
105454,-83.3333333333333,6,2,2,90,0,1
107104,-83.3333333333333,6,2,1,90,0,1
107254,-83.3333333333333,6,2,2,90,0,1
108154,-83.3333333333333,6,2,2,100,0,1
109054,-100,6,2,2,60,0,0
111979,-100,6,2,2,5,0,0
112054,-100,6,2,1,60,0,0
112279,-100,6,2,2,5,0,0
112354,-100,6,2,1,60,0,0
112654,-100,6,2,3,60,0,0
115579,-100,6,2,3,5,0,0
115654,-100,6,2,1,60,0,0
115879,-100,6,2,2,5,0,0
115954,-100,6,2,1,60,0,0
116254,-100,6,2,2,60,0,0
120754,-100,6,2,3,60,0,0
121654,-125,6,2,2,60,0,0
122554,333.333333333333,6,2,4,60,1,0
122554,-200,6,2,4,60,0,0
122887,363.636363636364,6,2,4,60,1,0
123250,375,6,2,4,60,1,0
123625,375,6,2,4,60,1,0

[Colours]
Combo1 : 0,106,157
Combo2 : 128,0,0
Combo3 : 116,44,22
Combo4 : 0,128,128

[HitObjects]
126,43,8254,6,0,P|115:81|122:120,1,80,2|0,0:0|0:0,0:0:0:0:
190,162,8703,1,0,0:0:0:0:
190,162,9004,2,0,L|269:155,1,80,0|0,0:0|0:0,0:0:0:0:
232,79,9454,2,0,L|193:83,1,40,0|0,0:0|0:0,0:0:0:0:
82,116,9754,2,0,L|121:119,1,40,0|0,0:0|0:0,0:0:0:0:
187,240,10054,6,0,L|267:234,1,80,2|0,0:0|0:0,0:0:0:0:
336,196,10504,1,0,0:0:0:0:
337,196,10804,2,0,P|345:234|335:273,1,80,0|0,0:0|0:0,0:0:0:0:
269,154,11254,2,0,P|281:137|297:126,1,40,0|0,0:0|0:0,0:0:0:0:
377,192,11554,2,0,L|337:195,1,40,0|0,0:0|0:0,0:0:0:0:
175,51,11854,6,0,L|255:57,1,80,2|0,0:0|0:0,0:0:0:0:
296,126,12304,1,0,0:0:0:0:
296,126,12604,2,0,L|376:120,1,80,0|0,0:0|0:0,0:0:0:0:
256,196,13054,2,0,L|216:193,1,40,0|0,0:0|0:0,0:0:0:0:
176,263,13354,2,0,L|136:266,1,40,0|0,0:0|0:0,0:0:0:0:
216,193,13654,6,0,P|249:231|255:269,1,80,2|0,0:0|0:0,0:0:0:0:
218,329,14104,1,0,0:0:0:0:
218,329,14404,2,0,P|256:337|294:327,1,80,0|0,0:0|0:0,0:0:0:0:
176,263,14854,2,0,L|136:266,1,40,0|0,0:0|0:0,0:0:0:0:
94,199,15154,2,0,L|54:196,1,40,0|0,0:0|0:0,0:0:0:0:
255,259,15454,6,0,L|382:247,1,120.000004577637,6|8,0:0|0:0,0:0:0:0:
468,268,15904,2,0,P|447:212|470:147,1,120.000004577637,2|8,0:0|0:0,0:0:0:0:
454,163,16354,2,0,P|426:172|397:171,1,60.0000022888184,2|0,0:0|0:0,0:0:0:0:
271,115,16654,2,0,P|299:106|329:108,1,60.0000022888184,8|0,0:0|0:0,0:0:0:0:
462,171,16954,1,8,0:0:0:0:
356,33,17254,6,0,P|296:28|236:45,1,120.000004577637,2|8,0:0|0:0,0:0:0:0:
179,113,17704,2,0,L|190:240,1,120.000004577637,2|8,0:0|0:0,0:0:0:0:
251,353,18154,2,0,L|257:294,1,60.0000022888184,0|2,0:0|0:0,0:0:0:0:
183,172,18454,2,0,L|189:232,1,60.0000022888184,8|0,0:0|0:0,0:0:0:0:
259,361,18754,1,8,0:0:0:0:
78,246,19054,6,0,P|131:220|188:231,1,120.000004577637,2|8,0:0|0:0,0:0:0:0:
15,310,19504,2,0,P|-10:256|0:199,1,120.000004577637,2|8,0:0|0:0,0:0:0:0:
88,97,19954,2,0,P|90:126|80:155,1,60.0000022888184,2|0,0:0|0:0,0:0:0:0:
0,114,20254,2,0,P|-1:84|7:56,1,60.0000022888184,8|0,0:0|0:0,0:0:0:0:
88,162,20554,1,8,0:0:0:0:
168,263,20854,6,0,L|295:251,1,120.000004577637,2|8,0:0|0:0,0:0:0:0:
240,173,21304,2,0,L|121:184,1,120.000004577637,2|12,0:0|0:0,0:0:0:0:
128,346,21754,2,0,P|156:355|185:353,1,60.0000022888184,2|2,0:0|0:0,0:0:0:0:
334,349,22054,2,0,P|306:340|277:342,1,60.0000022888184,8|0,0:0|0:0,0:0:0:0:
120,354,22354,1,8,0:0:0:0:
240,173,22654,6,0,B|281:163|315:189|315:189|347:213|393:204,1,160,6|0,0:0|0:0,0:0:0:0:
453,141,23104,1,2,0:0:0:0:
375,39,23254,2,0,L|368:118,1,80,2|0,0:0|0:0,0:0:0:0:
263,258,23554,2,0,B|191:251|191:251|175:258|175:258|106:252,1,160,8|0,0:0|0:0,0:0:0:0:
240,173,24004,1,2,0:0:0:0:
286,342,24154,2,0,P|324:322|345:289,1,80,2|0,0:0|0:0,0:0:0:0:
427,183,24454,6,0,B|406:220|423:260|423:260|437:297|418:338,1,160,12|0,0:0|0:0,0:0:0:0:
343,292,24904,1,2,0:0:0:0:
502,227,25054,2,0,P|514:188|508:148,1,80,8|0,0:0|0:0,0:0:0:0:
347,176,25354,2,0,L|426:182,1,80,10|0,0:0|0:0,0:0:0:0:
439,94,25654,2,0,L|359:87,1,80,10|0,0:0|0:0,0:0:0:0:
277,120,25954,2,0,P|272:80|284:43,1,80,10|0,0:0|0:0,0:0:0:0:
266,209,26254,6,0,B|225:219|191:193|191:193|159:169|113:178,1,160,14|0,0:0|0:0,0:0:0:0:
52,241,26704,1,2,0:0:0:0:
131,344,26854,2,0,L|137:264,1,80,2|0,0:0|0:0,0:0:0:0:
90,91,27154,2,0,B|105:74|125:72|125:72|157:114|139:160|104:186,1,160,8|0,0:0|0:0,0:0:0:0:
27,154,27604,1,2,0:0:0:0:
210,48,27754,2,0,P|249:43|287:54,1,80,2|0,0:0|0:0,0:0:0:0:
349,183,28054,6,0,B|355:111|355:111|364:96|364:96|371:28,1,160,12|0,0:0|0:0,0:0:0:0:
433,155,28504,1,2,0:0:0:0:
287,54,28654,2,0,P|249:43|210:48,1,80,8|0,0:0|0:0,0:0:0:0:
81,156,28954,2,0,P|119:167|159:162,1,80,10|0,0:0|0:0,0:0:0:0:
242,130,29254,2,0,P|247:170|236:208,1,80,10|0,0:0|0:0,0:0:0:0:
128,80,29554,2,0,P|123:40|134:2,1,80,10|0,0:0|0:0,0:0:0:0:
363,60,29854,6,0,B|324:75|287:53|287:53|252:33|209:47,1,160,14|0,0:0|0:0,0:0:0:0:
128,80,30304,1,2,0:0:0:0:
236,207,30454,2,0,P|247:170|242:130,1,80,2|0,0:0|0:0,0:0:0:0:
116,292,30754,2,0,B|184:286|184:286|204:293|204:293|275:287,1,160,8|0,0:0|0:0,0:0:0:0:
354,248,31204,1,2,0:0:0:0:
243,131,31354,2,0,P|231:168|236:208,1,80,2|0,0:0|0:0,0:0:0:0:
348,337,31654,6,0,B|366:351|386:350|386:350|410:303|384:261|345:241,1,160,8|0,0:0|0:0,0:0:0:0:
275,287,32104,1,2,0:0:0:0:
436,207,32254,2,0,L|430:128,1,80,2|0,0:0|0:0,0:0:0:0:
302,74,32554,2,0,B|343:84|377:58|377:58|409:34|455:43,1,160,8|0,0:0|0:0,0:0:0:0:
430,128,33004,1,2,0:0:0:0:
223,112,33154,2,0,P|214:73|223:34,1,80,8|0,0:0|0:0,0:0:0:0:
296,162,33454,1,4,0:0:0:0:
256,192,33529,12,0,36154,0:0:0:0:
230,42,36754,6,0,P|281:53|304:48,1,60,0|0,0:0|0:0,0:0:0:0:
324,36,37054,6,0,P|284:67|181:46,1,143.999995605469,2|0,0:0|0:0,0:0:0:0:
111,24,37654,1,0,0:0:0:0:
33,72,37954,2,0,L|46:231,1,143.999995605469,2|0,0:0|0:0,0:0:0:0:
95,293,38404,1,2,0:0:0:0:
36,207,38554,1,2,0:0:0:0:
186,294,38854,6,0,L|345:281,1,143.999995605469,2|0,0:0|0:0,0:0:0:0:
410,237,39454,1,0,0:0:0:0:
494,274,39754,2,0,B|510:234|494:202|494:202|478:170|494:130,1,143.999995605469,2|0,0:0|0:0,0:0:0:0:
512,44,40204,1,2,0:0:0:0:
484,142,40354,1,2,0:0:0:0:
413,12,40654,6,0,L|269:0,2,143.999995605469,2|0|0,0:0|0:0|0:0,0:0:0:0:
387,101,41554,2,0,L|243:89,1,143.999995605469,2|0,0:0|0:0,0:0:0:0:
180,22,42004,1,2,0:0:0:0:
89,31,42154,2,0,L|-6:39,1,71.9999978027344,2|0,0:0|0:0,0:0:0:0:
45,196,42454,6,0,P|58:162|57:127,1,71.9999978027344,2|0,0:0|0:0,0:0:0:0:
111,263,42754,2,0,P|123:296|122:332,1,71.9999978027344,0|0,0:0|0:0,0:0:0:0:
46,384,43054,1,0,0:0:0:0:
53,188,43354,6,0,P|65:154|64:118,1,71.9999978027344,2|0,0:0|0:0,0:0:0:0:
119,255,43654,2,0,P|131:288|130:324,1,71.9999978027344,0|2,0:0|0:0,0:0:0:0:
54,376,43954,1,2,0:0:0:0:
350,349,44254,6,0,P|290:313|222:328,1,143.999995605469,2|0,0:0|0:0,0:0:0:0:
130,343,44854,1,0,0:0:0:0:
41,292,45154,2,0,L|53:148,1,143.999995605469,2|0,0:0|0:0,0:0:0:0:
19,63,45604,1,2,0:0:0:0:
60,156,45754,1,2,0:0:0:0:
99,14,46054,6,0,B|139:6|139:6|195:22|195:22|243:14,1,143.999995605469,2|0,0:0|0:0,0:0:0:0:
330,0,46654,1,0,0:0:0:0:
401,56,46954,2,0,P|416:125|380:185,1,143.999995605469,2|0,0:0|0:0,0:0:0:0:
300,231,47554,1,2,0:0:0:0:
297,86,47704,1,2,0:0:0:0:
379,278,47854,6,0,B|417:383|417:383|432:355,1,143.999995605469,2|0,0:0|0:0,0:0:0:0:
475,272,48304,1,2,0:0:0:0:
300,324,48454,2,0,L|204:315,1,71.9999978027344,2|0,0:0|0:0,0:0:0:0:
380,185,48754,6,0,L|458:177,1,72.7999995556641,2|0,0:0|0:0,0:0:0:0:
478,174,49354,1,2,0:0:0:0:
289,94,49654,6,0,P|239:80|170:115,1,120,2|0,0:0|0:0,0:0:0:0:
359,154,49954,2,0,P|396:117|400:40,1,120,2|0,0:0|0:0,0:0:0:0:
272,184,50254,2,0,P|284:234|349:276,1,120,2|0,0:0|0:0,0:0:0:0:
166,202,50554,6,0,L|94:195,1,71.9999978027344,10|0,0:0|0:0,0:0:0:0:
181,178,50854,6,0,L|28:178,1,143.999995605469,2|0,0:0|0:0,0:0:0:0:
174,150,51154,6,0,L|37:161,1,107.999996704102,2|0,0:0|0:0,0:0:0:0:
132,59,51454,6,0,B|200:64|200:64|218:75|218:75|289:81,1,160,6|0,0:0|0:0,0:0:0:0:
376,90,51904,1,2,0:0:0:0:
320,240,52054,2,0,L|326:161,1,80,2|0,0:0|0:0,0:0:0:0:
191,295,52354,2,0,B|232:285|266:311|266:311|298:335|344:326,1,160,8|2,0:0|0:0,0:0:0:0:
320,240,52804,1,0,0:0:0:0:
212,381,52954,2,0,P|173:382|130:361,1,80,2|0,0:0|0:0,0:0:0:0:
174,219,53254,6,0,B|201:181|201:181|191:294,1,160,10|0,0:0|0:0,0:0:0:0:
136,366,53704,1,2,0:0:0:0:
20,287,53854,2,0,L|99:281,1,80,2|0,0:0|0:0,0:0:0:0:
247,220,54154,2,0,B|239:200|221:190|221:190|175:216|174:265|191:293,1,160,8|2,0:0|0:0,0:0:0:0:
282,305,54604,1,0,0:0:0:0:
361,206,54754,6,0,P|373:242|336:230,1,96,2|0,0:0|0:0,0:0:0:0:
298,145,55054,6,0,P|349:126|449:180,1,160,10|0,0:0|0:0,0:0:0:0:
247,220,55504,1,2,0:0:0:0:
179,57,55654,2,0,L|258:63,1,80,8|0,0:0|0:0,0:0:0:0:
89,168,55954,2,0,B|109:127|94:90|94:90|77:50|98:14,1,160,8|2,0:0|0:0,0:0:0:0:
179,57,56404,1,2,0:0:0:0:
8,122,56554,2,0,P|0:161|4:201,1,80,8|0,0:0|0:0,0:0:0:0:
247,162,56854,6,0,B|175:169|175:169|159:162|159:162|90:168,1,160,10|0,0:0|0:0,0:0:0:0:
3,200,57304,1,2,0:0:0:0:
115,330,57454,2,0,P|124:291|120:252,1,80,8|0,0:0|0:0,0:0:0:0:
8,122,57754,2,0,P|0:161|3:200,1,80,8|0,0:0|0:0,0:0:0:0:
89,168,58054,2,0,P|128:163|167:172,1,80,8|0,0:0|0:0,0:0:0:0:
129,283,58354,6,0,P|91:276|119:250,1,96,2|0,0:0|0:0,0:0:0:0:
211,252,58654,6,0,B|252:242|286:268|286:268|318:292|364:283,1,160,6|0,0:0|0:0,0:0:0:0:
425,220,59104,1,2,0:0:0:0:
346,117,59254,2,0,L|340:196,1,80,2|0,0:0|0:0,0:0:0:0:
383,27,59554,2,0,B|314:33|314:33|300:43|300:43|228:49,1,160,8|2,0:0|0:0,0:0:0:0:
101,59,60004,1,0,0:0:0:0:
170,117,60154,2,0,L|176:196,1,80,2|0,0:0|0:0,0:0:0:0:
45,250,60454,6,0,B|90:242|122:266|122:266|156:292|197:282,1,160,10|0,0:0|0:0,0:0:0:0:
259,221,60904,1,2,0:0:0:0:
320,283,61054,2,0,L|314:362,1,80,2|0,0:0|0:0,0:0:0:0:
405,265,61354,2,0,B|425:237|415:184|366:168|366:168|349:180|344:201,1,160,8|2,0:0|0:0,0:0:0:0:
320,283,61804,1,0,0:0:0:0:
197,156,61954,1,2,0:0:0:0:
344,200,62104,1,2,0:0:0:0:
172,238,62254,6,0,P|116:182|127:108,1,160,10|0,0:0|0:0,0:0:0:0:
197,156,62704,1,2,0:0:0:0:
148,321,62854,2,0,L|68:314,1,80,8|0,0:0|0:0,0:0:0:0:
173,239,63154,2,0,B|242:233|242:233|258:239|258:239|330:232,1,160,8|0,0:0|0:0,0:0:0:0:
418,221,63604,1,2,0:0:0:0:
391,381,63754,2,0,L|384:301,1,80,8|0,0:0|0:0,0:0:0:0:
364,152,64054,6,0,B|399:135|440:152|453:203|453:203|439:218|418:221,1,160,10|0,0:0|0:0,0:0:0:0:
330,232,64504,1,2,0:0:0:0:
230,76,64654,2,0,L|309:82,1,80,8|0,0:0|0:0,0:0:0:0:
411,147,64954,6,0,L|364:152,1,48,8|0,0:0|0:0,0:0:0:0:
330,232,65254,6,0,L|254:225,1,71.9999978027344,2|0,0:0|0:0,0:0:0:0:
224,305,65554,6,0,L|120:314,1,96,2|0,0:0|0:0,0:0:0:0:
420,253,65854,6,0,P|386:159|313:140,1,180.000006866455,6|0,0:0|0:0,0:0:0:0:
470,331,66454,2,0,P|499:299|512:256,1,75.9999979705811,2|0,0:0|0:0,0:0:0:0:
344,259,66754,2,0,L|439:250,1,75.9999979705811,2|0,0:0|0:0,0:0:0:0:
187,314,67054,2,0,L|263:321,1,75.9999979705811
117,243,67354,1,2,0:0:0:0:
275,128,67654,6,0,L|426:114,1,151.999995941162,2|0,0:0|0:0,0:0:0:0:
512,149,68104,1,0,0:0:0:0:
403,25,68254,2,0,P|440:23|476:35,1,75.9999979705811,2|0,0:0|0:0,0:0:0:0:
419,190,68554,2,0,L|425:114,1,75.9999979705811,2|0,0:0|0:0,0:0:0:0:
498,241,68854,2,0,L|504:316,1,75.9999979705811,4|0,0:0|0:0,0:0:0:0:
441,383,69154,1,8,0:0:0:0:
272,246,69454,6,0,B|232:225|188:249|188:249|144:273|99:249,1,180.000006866455,6|0,0:0|0:0,0:0:0:0:
322,324,70054,2,0,P|348:296|362:261,1,75.9999979705811,2|0,0:0|0:0,0:0:0:0:
238,179,70354,2,0,P|248:215|271:245,1,75.9999979705811,2|0,0:0|0:0,0:0:0:0:
405,178,70654,2,0,P|368:168|330:173,1,75.9999979705811,0|0,0:0|0:0,0:0:0:0:
271,245,70954,1,2,0:0:0:0:
378,88,71254,6,0,P|451:98|494:157,1,151.999995941162,2|0,0:0|0:0,0:0:0:0:
405,178,71704,1,0,0:0:0:0:
366,77,71854,2,0,L|372:1,1,75.9999979705811,2|0,0:0|0:0,0:0:0:0:
413,170,72154,2,0,L|406:245,1,75.9999979705811,8|0,0:0|0:0,0:0:0:0:
332,383,72454,2,0,L|339:308,1,75.9999979705811,8|0,0:0|0:0,0:0:0:0:
406,245,72754,1,8,0:0:0:0:
230,307,73054,6,0,B|175:314|175:314|111:298|111:298|53:306,1,180.000006866455,6|0,0:0|0:0,0:0:0:0:
245,215,73654,2,0,P|279:229|307:255,1,75.9999979705811,2|0,0:0|0:0,0:0:0:0:
193,138,73954,2,0,P|227:123|265:122,1,75.9999979705811,2|0,0:0|0:0,0:0:0:0:
102,122,74254,2,0,P|116:87|142:59,1,75.9999979705811,0|0,0:0|0:0,0:0:0:0:
133,209,74554,1,2,0:0:0:0:
436,118,74854,6,0,L|285:132,1,151.999995941162,2|0,0:0|0:0,0:0:0:0:
245,215,75304,1,0,0:0:0:0:
308,362,75454,6,0,L|302:287,1,75.9999979705811,2|0,0:0|0:0,0:0:0:0:
252,131,75754,6,0,L|244:214,1,83.9999974365235,8|0,0:0|0:0,0:0:0:0:
193,369,76054,6,0,L|184:271,1,92.0000017547608,8|0,0:0|0:0,0:0:0:0:
132,122,76354,6,0,L|121:239,1,100,8|0,0:0|0:0,0:0:0:0:
309,59,76654,6,0,P|331:85|342:145,1,90.0000034332277,10|0,0:0|0:0,0:0:0:0:
341,77,76954,6,0,P|358:115|340:183,1,107.999996704102,10|0,0:0|0:0,0:0:0:0:
368,103,77254,6,0,P|375:149|329:211,1,125.999996154785,10|0,0:0|0:0,0:0:0:0:
176,30,77554,6,0,P|245:31|290:85,1,143.999995605469,10|0,0:0|0:0,0:0:0:0:
208,11,77854,6,0,P|275:30|298:122,1,162.000000617981,10|0,0:0|0:0,0:0:0:0:
244,2,78154,6,0,P|303:38|294:142,1,180.000006866455,10|0,0:0|0:0,0:0:0:0:
512,190,78454,6,0,P|448:161|401:309,1,264.0000025177,10|2,0:0|0:0,0:0:0:0:
512,80,78904,1,8,0:0:0:0:
512,313,79054,1,8,0:0:0:0:
450,244,79204,1,2,0:0:0:0:
309,300,79354,5,8,0:0:0:0:
438,135,79654,1,2,0:0:0:0:
452,384,79804,1,8,0:0:0:0:
370,197,79954,1,2,0:0:0:0:
512,80,80104,1,2,0:0:0:0:
309,300,80254,6,0,B|262:318|219:282|219:282|174:245|125:268,1,191.999994140625,6|0,0:0|0:0,0:0:0:0:
161,346,80704,1,2,0:0:0:0:
277,218,80854,2,0,L|269:123,1,95.9999970703126,8|2,0:0|0:0,0:0:0:0:
45,247,81154,2,0,P|49:294|77:332,1,95.9999970703126,8|0,0:0|0:0,0:0:0:0:
103,183,81454,2,0,P|60:162|13:167,1,95.9999970703126,8|2,0:0|0:0,0:0:0:0:
130,265,81754,1,2,0:0:0:0:
161,119,81904,1,2,0:0:0:0:
277,218,82054,6,0,B|364:226|364:226|383:218|383:218|466:225,1,191.999994140625,8|2,0:0|0:0,0:0:0:0:
400,303,82504,1,2,0:0:0:0:
350,141,82654,2,0,L|358:45,1,95.9999970703126,8|2,0:0|0:0,0:0:0:0:
458,129,82954,2,0,L|466:225,1,95.9999970703126,8|2,0:0|0:0,0:0:0:0:
400,303,83254,2,0,P|355:320|309:311,1,95.9999970703126,2|0,0:0|0:0,0:0:0:0:
254,133,83554,2,0,L|350:141,1,95.9999970703126,2|0,0:0|0:0,0:0:0:0:
400,303,83854,6,0,L|208:319,1,191.999994140625,6|2,0:0|0:0,0:0:0:0:
122,327,84304,1,2,0:0:0:0:
200,223,84454,2,0,L|208:318,1,95.9999970703126,8|0,0:0|0:0,0:0:0:0:
148,152,84754,2,0,P|192:134|239:143,1,95.9999970703126,8|2,0:0|0:0,0:0:0:0:
77,204,85054,2,0,P|59:159|68:112,1,95.9999970703126,8|0,0:0|0:0,0:0:0:0:
296,231,85354,2,0,L|200:222,1,95.9999970703126,2|2,0:0|0:0,0:0:0:0:
62,24,85654,6,0,B|109:6|152:42|152:42|197:79|246:56,1,191.999994140625,12|0,0:0|0:0,0:0:0:0:
319,22,86104,1,2,0:0:0:0:
390,72,86254,2,0,L|381:167,1,95.9999970703126,2|0,0:0|0:0,0:0:0:0:
369,280,86554,2,0,B|323:248|323:248|459:260,1,191.999994140625,8|8,0:0|0:0,0:0:0:0:
444,345,87004,1,0,0:0:0:0:
380,167,87154,2,0,L|285:158,1,95.9999970703126,2|2,0:0|0:0,0:0:0:0:
199,289,87454,6,0,B|231:252|207:199|207:199|183:148|213:108,1,191.999994140625,10|0,0:0|0:0,0:0:0:0:
284,157,87904,1,2,0:0:0:0:
127,240,88054,2,0,L|32:231,1,95.9999970703126,8|2,0:0|0:0,0:0:0:0:
194,377,88354,2,0,P|241:369|278:326,1,95.9999970703126,8|0,0:0|0:0,0:0:0:0:
127,240,88654,1,8,0:0:0:0:
122,328,88804,1,2,0:0:0:0:
273,335,88954,2,0,L|368:326,1,95.9999970703126,2|2,0:0|0:0,0:0:0:0:
430,188,89254,6,0,B|437:275|437:275|448:293|448:293|456:376,1,191.999994140625,8|0,0:0|0:0,0:0:0:0:
368,326,89704,1,2,0:0:0:0:
356,142,89854,2,0,P|389:108|435:100,1,95.9999970703126,8|0,0:0|0:0,0:0:0:0:
354,230,90154,2,0,P|308:218|278:182,1,95.9999970703126,8|0,0:0|0:0,0:0:0:0:
365,46,90454,2,0,L|356:141,1,95.9999970703126,2|0,0:0|0:0,0:0:0:0:
199,222,90754,2,0,L|190:126,1,95.9999970703126,2|0,0:0|0:0,0:0:0:0:
51,268,91054,6,0,B|94:247|139:284|139:284|182:320|229:302,1,191.999994140625,6|0,0:0|0:0,0:0:0:0:
199,222,91504,1,2,0:0:0:0:
80,348,91654,2,0,P|33:352|-9:328,1,95.9999970703126,8|2,0:0|0:0,0:0:0:0:
43,172,91954,2,0,L|51:268,1,95.9999970703126,8|0,0:0|0:0,0:0:0:0:
13,91,92254,2,0,P|60:87|102:111,1,95.9999970703126,2|0,0:0|0:0,0:0:0:0:
146,259,92554,2,0,L|50:267,1,95.9999970703126,2|0,0:0|0:0,0:0:0:0:
215,208,92854,5,10,0:0:0:0:
223,293,93004,1,2,0:0:0:0:
363,195,93154,5,10,0:0:0:0:
207,123,93304,1,2,0:0:0:0:
293,244,93454,5,10,0:0:0:0:
433,146,93604,1,2,0:0:0:0:
215,208,93754,1,10,0:0:0:0:
215,208,94054,5,2,0:0:0:0:
293,244,94204,1,2,0:0:0:0:
363,195,94354,1,2,0:0:0:0:
355,109,94504,1,2,0:0:0:0:
223,293,94654,6,0,P|151:265|152:150,1,191.999994140625,6|0,0:0|0:0,0:0:0:0:
215,208,95104,1,2,0:0:0:0:
99,342,95254,2,0,L|4:350,1,95.9999970703126,8|0,0:0|0:0,0:0:0:0:
223,293,95554,2,0,L|318:301,1,95.9999970703126,8|0,0:0|0:0,0:0:0:0:
391,357,95854,1,8,0:0:0:0:
318,301,96004,1,2,0:0:0:0:
329,209,96154,1,2,0:0:0:0:
414,172,96304,1,2,0:0:0:0:
245,245,96454,6,0,B|204:265|156:241|156:241|108:217|60:241,1,191.999994140625,8|2,0:0|0:0,0:0:0:0:
0,311,96904,1,0,0:0:0:0:
204,162,97054,2,0,P|221:112|206:58,1,95.9999970703126,8|0,0:0|0:0,0:0:0:0:
260,336,97354,2,0,P|307:312|334:263,1,95.9999970703126,8|0,0:0|0:0,0:0:0:0:
120,200,97654,2,0,P|154:239|209:253,1,95.9999970703126,10|0,0:0|0:0,0:0:0:0:
129,108,97954,2,0,P|77:118|37:158,1,95.9999970703126,10|0,0:0|0:0,0:0:0:0:
245,245,98254,6,0,B|301:253|301:253|381:237|381:237|437:245,1,191.999994140625,14|2,0:0|0:0,0:0:0:0:
512,294,98704,1,2,0:0:0:0:
328,154,98854,2,0,B|376:146|376:146|424:154,1,95.9999970703126,8|0,0:0|0:0,0:0:0:0:
347,338,99154,2,0,B|299:346|299:346|251:338,1,95.9999970703126,8|0,0:0|0:0,0:0:0:0:
169,300,99454,1,8,0:0:0:0:
252,338,99604,1,2,0:0:0:0:
245,245,99754,1,2,0:0:0:0:
160,204,99904,1,2,0:0:0:0:
337,246,100054,6,0,P|397:214|401:98,1,191.999994140625,8|0,0:0|0:0,0:0:0:0:
328,154,100504,1,2,0:0:0:0:
394,319,100654,2,0,L|489:327,1,95.9999970703126,8|0,0:0|0:0,0:0:0:0:
245,245,100954,2,0,L|150:253,1,95.9999970703126,8|0,0:0|0:0,0:0:0:0:
411,192,101254,2,0,P|418:145|402:100,1,95.9999970703126,2|0,0:0|0:0,0:0:0:0:
245,245,101554,2,0,P|237:291|253:336,1,95.9999970703126,2|2,0:0|0:0,0:0:0:0:
238,153,101854,6,0,B|184:145|184:145|104:161|104:161|48:153,1,191.999994140625,6|0,0:0|0:0,0:0:0:0:
0,76,102304,1,2,0:0:0:0:
82,238,102454,2,0,P|89:284|73:329,1,95.9999970703126,8|0,0:0|0:0,0:0:0:0:
216,62,102754,2,0,P|275:68|320:193,1,191.999994140625,8|8,0:0|0:0,0:0:0:0:
238,153,103204,1,2,0:0:0:0:
379,36,103354,2,0,L|474:44,1,95.9999970703126,2|2,0:0|0:0,0:0:0:0:
303,88,103654,6,0,L|107:105,1,191.999994140625,8|0,0:0|0:0,0:0:0:0:
33,57,104104,1,2,0:0:0:0:
0,143,104254,2,0,L|8:238,1,95.9999970703126,8|0,0:0|0:0,0:0:0:0:
201,339,104554,6,0,P|158:284|89:283,1,143.999995605469,8|0,0:0|0:0,0:0:0:0:
284,297,104854,2,0,P|353:287|389:227,1,143.999995605469,10|0,0:0|0:0,0:0:0:0:
223,95,105154,2,0,P|197:159|231:221,1,143.999995605469,10|0,0:0|0:0,0:0:0:0:
475,151,105454,6,0,B|434:131|386:155|386:155|338:179|290:155,1,191.999994140625,14|0,0:0|0:0,0:0:0:0:
223,95,105904,1,2,0:0:0:0:
436,235,106054,2,0,P|443:281|427:326,1,95.9999970703126,8|0,0:0|0:0,0:0:0:0:
190,315,106354,2,0,P|261:255|353:273,1,191.999994140625,8|8,0:0|0:0,0:0:0:0:
441,335,106804,1,2,0:0:0:0:
288,217,106954,2,0,L|279:121,1,95.9999970703126,2|2,0:0|0:0,0:0:0:0:
452,43,107254,6,0,L|435:234,1,191.999994140625,8|0,0:0|0:0,0:0:0:0:
369,298,107704,1,2,0:0:0:0:
298,249,107854,2,0,P|253:232|206:240,1,95.9999970703126,8|0,0:0|0:0,0:0:0:0:
0,374,108154,2,0,P|80:380|139:293,1,191.999994140625,10|10,0:0|0:0,0:0:0:0:
118,199,108604,1,2,0:0:0:0:
273,306,108754,2,0,L|368:297,1,95.9999970703126,10|2,0:0|0:0,0:0:0:0:
375,140,109054,6,0,B|368:212|368:212|375:228|375:228|369:297,1,160,6|0,0:0|0:0,0:0:0:0:
283,266,109504,1,2,0:0:0:0:
197,234,109654,2,0,L|117:240,1,80,2|0,0:0|0:0,0:0:0:0:
32,132,109954,2,0,B|53:168|36:208|36:208|21:245|41:286,1,160,8|2,0:0|0:0,0:0:0:0:
120,330,110404,1,0,0:0:0:0:
197,234,110554,2,0,L|117:240,1,80,2|0,0:0|0:0,0:0:0:0:
251,160,110854,6,0,B|284:159|326:184|325:237|325:237|308:248|287:245,1,160,8|2,0:0|0:0,0:0:0:0:
197,234,111304,1,2,0:0:0:0:
216,75,111454,2,0,P|254:68|293:78,1,80,8|0,0:0|0:0,0:0:0:0:
197,234,111754,2,0,L|117:227,1,80,8|0,0:0|0:0,0:0:0:0:
252,160,112054,2,0,L|331:166,1,80,10|0,0:0|0:0,0:0:0:0:
216,75,112354,2,0,L|136:68,1,80,10|0,0:0|0:0,0:0:0:0:
40,212,112654,6,0,B|108:218|108:218|123:227|123:227|195:233,1,160,6|0,0:0|0:0,0:0:0:0:
252,160,113104,1,2,0:0:0:0:
287,245,113254,2,0,L|280:324,1,80,2|0,0:0|0:0,0:0:0:0:
375,227,113554,2,0,P|329:164|252:159,1,160,8|2,0:0|0:0,0:0:0:0:
287,245,114004,1,0,0:0:0:0:
465,210,114154,2,0,L|458:130,1,80,2|0,0:0|0:0,0:0:0:0:
327,76,114454,6,0,B|372:85|404:61|404:61|438:35|479:45,1,160,8|0,0:0|0:0,0:0:0:0:
458,130,114904,1,2,0:0:0:0:
257,22,115054,2,0,P|240:58|241:97,1,80,8|0,0:0|0:0,0:0:0:0:
335,156,115354,2,0,L|328:76,1,80,8|0,0:0|0:0,0:0:0:0:
154,76,115654,2,0,L|148:156,1,80,10|0,0:0|0:0,0:0:0:0:
241,97,115954,2,0,P|241:57|225:21,1,80,10|0,0:0|0:0,0:0:0:0:
59,135,116254,6,0,P|75:210|143:247,1,160,6|0,0:0|0:0,0:0:0:0:
224,203,116704,1,2,0:0:0:0:
154,76,116854,2,0,L|148:156,1,80,8|0,0:0|0:0,0:0:0:0:
220,295,117154,2,0,B|292:302|292:302|308:295|308:295|377:301,1,160,8|0,0:0|0:0,0:0:0:0:
465,310,117604,1,2,0:0:0:0:
436,151,117754,2,0,L|429:230,1,80,8|0,0:0|0:0,0:0:0:0:
308,97,118054,6,0,B|349:107|383:81|383:81|415:57|460:66,1,160,8|0,0:0|0:0,0:0:0:0:
436,151,118504,1,2,0:0:0:0:
331,11,118654,2,0,L|251:17,1,80,8|0,0:0|0:0,0:0:0:0:
102,77,118954,2,0,B|89:93|89:114|89:114|135:141|178:117|194:89,1,160,8|0,0:0|0:0,0:0:0:0:
251,17,119404,1,2,0:0:0:0:
194,89,119554,2,0,L|200:168,1,80,8|0,0:0|0:0,0:0:0:0:
267,295,119854,6,0,B|272:222|272:222|282:208|282:208|288:139,1,160,12|0,0:0|0:0,0:0:0:0:
200,168,120304,1,2,0:0:0:0:
355,265,120454,2,0,L|434:258,1,80,8|0,0:0|0:0,0:0:0:0:
491,191,120754,2,0,B|511:150|496:113|496:113|479:73|500:37,2,160,12|0|8,0:0|0:0|0:0,0:0:0:0:
434,258,121654,6,0,P|437:316|499:339,2,128,12|0|8,0:0|0:0|0:0,0:0:0:0:
491,191,122554,6,0,P|479:151|460:177,1,80,10|2,0:0|0:0,0:0:0:0:
434,258,123250,1,0,0:0:0:0:
434,258,123625,1,2,0:0:0:0:
256,192,123718,12,2,126625,0:0:0:0:
