osu file format v14

[General]
AudioFilename: audio.mp3
AudioLeadIn: 0
PreviewTime: 79804
Countdown: 0
SampleSet: Soft
StackLeniency: 0.2
Mode: 0
LetterboxInBreaks: 0
WidescreenStoryboard: 0

[Editor]
Bookmarks: 8254,15454,22654,37054,51454,65854,79879,80254,109054
DistanceSpacing: 1
BeatDivisor: 4
GridSize: 4
TimelineZoom: 2.5

[Metadata]
Title:Kaze no Uta
TitleUnicode:風の唄
Artist:MAMI
ArtistUnicode:MAMI
Creator:newton-
Version:Newton
Source:ニュートンと林檎の樹
Tags:xidorn -aqua atalanta newton to ringo no ki newrin newton and the apple tree project laplacian song of wind
BeatmapID:1674863
BeatmapSetID:797473

[Difficulty]
HPDrainRate:6
CircleSize:4.2
OverallDifficulty:8.5
ApproachRate:9.3
SliderMultiplier:2
SliderTickRate:1

[Events]
//Background and Video events
0,0,"(5) despacito.jpg",0,0
//Break Periods
//Storyboard Layer 0 (Background)
//Storyboard Layer 1 (Fail)
//Storyboard Layer 2 (Pass)
//Storyboard Layer 3 (Foreground)
//Storyboard Sound Samples

[TimingPoints]
8254,300,6,2,1,40,1,0
8254,-125,6,2,1,40,0,0
15454,-125,6,2,1,50,0,0
22654,-100,6,2,2,60,0,0
24454,-100,6,2,3,60,0,0
25579,-100,6,2,1,5,0,0
25654,-100,6,2,1,60,0,0
25879,-100,6,2,1,5,0,0
25954,-100,6,2,1,60,0,0
26179,-100,6,2,1,5,0,0
26254,-100,6,2,2,60,0,0
29179,-100,6,2,1,5,0,0
29254,-100,6,2,1,60,0,0
29479,-100,6,2,1,5,0,0
29554,-100,6,2,1,60,0,0
29779,-100,6,2,1,5,0,0
29854,-100,6,2,3,60,0,0
33379,-100,6,2,3,5,0,0
33454,-1000,6,2,1,40,0,0
36454,-125,6,2,1,40,0,0
36754,-200,6,2,1,40,0,0
36979,-200,6,2,1,5,0,0
37054,-125,6,2,4,40,0,0
43954,-250,6,2,4,40,0,0
44179,-250,6,2,4,5,0,0
44254,-125,6,2,4,40,0,0
49954,-166.666666666667,6,2,4,40,0,0
50254,-250,6,2,4,40,0,0
50554,-66.6666666666667,6,2,2,60,0,0
50629,-66.6666666666667,6,2,1,5,0,0
50854,-100,6,2,2,60,0,0
51079,-100,6,2,1,5,0,0
51154,-200,6,2,2,60,0,0
51379,-200,6,2,1,5,0,0
51454,-100,6,2,3,60,0,0
58354,-200,6,2,1,60,0,0
58579,-200,6,2,1,5,0,0
58654,-100,6,2,2,60,0,0
65179,-100,6,2,2,5,0,0
65254,-200,6,2,1,60,0,0
65479,-200,6,2,1,5,0,0
65554,-400,6,2,1,60,0,0
65779,-400,6,2,1,5,0,0
65854,-100,6,2,3,60,0,0
66754,-100,6,2,4,60,0,0
67054,-100,6,2,2,60,0,0
69079,-100,6,2,2,5,0,0
69154,-100,6,2,2,60,0,0
69454,-100,6,2,3,60,0,0
70354,-100,6,2,4,60,0,0
70654,-100,6,2,2,60,0,0
72679,-100,6,2,2,5,0,0
72754,-100,6,2,2,60,0,0
73954,-100,6,2,4,60,0,0
74254,-100,6,2,2,60,0,0
76654,-500,6,2,2,40,0,0
76879,-500,6,2,2,5,0,0
76954,-250,6,2,2,45,0,0
77179,-250,6,2,2,5,0,0
77254,-166.666666666667,6,2,2,50,0,0
77479,-166.666666666667,6,2,2,5,0,0
77554,-125,6,2,2,55,0,0
77779,-125,6,2,2,5,0,0
77854,-100,6,2,2,60,0,0
78079,-100,6,2,2,5,0,0
78154,-50,6,2,2,80,0,0
78754,-50,6,2,2,60,0,0
79954,-50,6,2,1,60,0,0
80254,-83.3333333333333,6,2,2,90,0,1
81904,-83.3333333333333,6,2,1,90,0,1
82054,-83.3333333333333,6,2,2,90,0,1
83179,-83.3333333333333,6,2,2,5,0,1
83254,-83.3333333333333,6,2,1,90,0,1
83479,-83.3333333333333,6,2,1,5,0,1
83554,-83.3333333333333,6,2,1,90,0,1
83854,-83.3333333333333,6,2,3,90,0,1
85504,-83.3333333333333,6,2,1,90,0,1
85654,-83.3333333333333,6,2,2,90,0,1
86779,-83.3333333333333,6,2,2,5,0,1
86854,-83.3333333333333,6,2,2,90,0,1
89104,-83.3333333333333,6,2,1,90,0,1
89254,-83.3333333333333,6,2,2,90,0,1
90379,-83.3333333333333,6,2,2,5,0,1
90454,-83.3333333333333,6,2,1,90,0,1
90679,-83.3333333333333,6,2,1,5,0,1
90754,-83.3333333333333,6,2,1,90,0,1
91054,-83.3333333333333,6,2,3,90,0,1
91804,-83.3333333333333,6,2,1,90,0,1
91954,-83.3333333333333,6,2,3,90,0,1
92854,-83.3333333333333,6,2,3,100,0,1
94054,-83.3333333333333,6,2,1,60,0,1
94354,-83.3333333333333,6,2,1,60,0,0
94654,-83.3333333333333,6,2,2,90,0,1
96304,-83.3333333333333,6,2,1,90,0,1
96454,-83.3333333333333,6,2,2,90,0,1
97579,-83.3333333333333,6,2,2,5,0,1
97654,-83.3333333333333,6,2,2,90,0,1
97879,-83.3333333333333,6,2,2,5,0,1
97954,-83.3333333333333,6,2,2,90,0,1
99904,-83.3333333333333,6,2,1,90,0,1
100054,-83.3333333333333,6,2,2,90,0,1
101179,-83.3333333333333,6,2,2,5,0,1
101254,-83.3333333333333,6,2,1,90,0,1
101479,-83.3333333333333,6,2,1,5,0,1
101554,-83.3333333333333,6,2,1,90,0,1
101854,-83.3333333333333,6,2,3,90,0,1
103504,-83.3333333333333,6,2,1,90,0,1
103654,-83.3333333333333,6,2,2,90,0,1
104779,-83.3333333333333,6,2,2,5,0,1
104854,-83.3333333333333,6,2,2,90,0,1
105079,-83.3333333333333,6,2,2,5,0,1
105154,-83.3333333333333,6,2,2,90,0,1
107104,-83.3333333333333,6,2,1,90,0,1
107254,-83.3333333333333,6,2,2,90,0,1
108154,-83.3333333333333,6,2,2,100,0,1
109054,-100,6,2,2,60,0,0
111979,-100,6,2,2,5,0,0
112054,-100,6,2,1,60,0,0
112279,-100,6,2,2,5,0,0
112354,-100,6,2,1,60,0,0
112654,-100,6,2,3,60,0,0
115579,-100,6,2,3,5,0,0
115654,-100,6,2,1,60,0,0
115879,-100,6,2,2,5,0,0
115954,-100,6,2,1,60,0,0
116254,-100,6,2,2,60,0,0
120754,-125,6,2,3,60,0,0
121654,-166.666666666667,6,2,2,60,0,0
122554,333.333333333333,6,2,4,60,1,0
122554,-250,6,2,4,60,0,0
122887,363.636363636364,6,2,4,60,1,0
122887,-250,6,2,4,60,0,0
123250,375,6,2,4,60,1,0
123250,-250,6,2,4,60,0,0
123625,375,6,2,4,60,1,0
124375,-100,6,2,4,50,0,0
124750,-100,6,2,4,40,0,0
125125,-100,6,2,4,30,0,0
125500,-100,6,2,4,20,0,0
125875,-100,6,2,4,10,0,0
126250,-100,6,2,4,5,0,0
126625,-100,6,2,4,30,0,0

[Colours]
Combo1 : 110,110,110
Combo2 : 0,128,128
Combo3 : 0,106,157
Combo4 : 217,108,0
Combo5 : 251,82,0
Combo6 : 177,177,177

[HitObjects]
98,202,8254,6,0,B|134:192|172:221|172:221|206:248|259:239,1,160,2|0,0:0|0:0,0:0:0:0:
116,355,8704,2,0,P|105:316|117:276,1,80,0|0,0:0|0:0,0:0:0:0:
229,164,9004,2,0,B|253:124|236:81|202:61|202:61|183:72|173:101,1,160,0|0,0:0|0:0,0:0:0:0:
173,221,9454,2,0,P|207:240|246:241,1,80,0|0,0:0|0:0,0:0:0:0:
306,187,9754,2,0,P|344:189|378:209,1,80,0|0,0:0|0:0,0:0:0:0:
372,319,10054,6,0,B|381:296|415:280|415:280|364:303|322:264,1,160,2|0,0:0|0:0,0:0:0:0:
378,209,10504,2,0,P|389:171|382:133,1,80,0|0,0:0|0:0,0:0:0:0:
248,92,10804,2,0,B|291:100|325:73|325:73|363:44|399:54,1,160,0|0,0:0|0:0,0:0:0:0:
266,14,11254,2,0,P|226:16|192:36,1,80,0|0,0:0|0:0,0:0:0:0:
173,113,11554,2,0,P|138:132|99:134,1,80,0|0,0:0|0:0,0:0:0:0:
28,21,11854,70,0,B|46:52|28:96|28:96|11:136|30:176,1,160,2|0,0:0|0:0,0:0:0:0:
173,113,12304,2,0,P|133:114|99:134,1,80,0|0,0:0|0:0,0:0:0:0:
30,257,12604,2,0,B|104:263|104:263|113:260|113:260|188:266,1,160,0|0,0:0|0:0,0:0:0:0:
257,227,13054,2,0,P|267:266|257:304,1,80,0|0,0:0|0:0,0:0:0:0:
189,342,13354,2,0,P|215:370|253:381,1,80,0|0,0:0|0:0,0:0:0:0:
342,328,13654,6,0,B|358:314|362:293|362:293|332:268|285:267|256:303,1,160,2|0,0:0|0:0,0:0:0:0:
437,319,14104,2,0,P|440:281|424:243,1,80,0|0,0:0|0:0,0:0:0:0:
294,191,14404,2,0,B|336:202|372:178|372:178|413:153|447:166,1,160,0|0,0:0|0:0,0:0:0:0:
317,37,14854,2,0,L|324:124,1,80,0|0,0:0|0:0,0:0:0:0:
220,162,15154,2,0,L|213:241,1,80,0|0,0:0|0:0,0:0:0:0:
65,296,15454,70,0,B|108:301|138:269|138:269|158:310|195:319,1,160,6|8,0:0|0:0,0:0:0:0:
213,241,15904,1,2,0:0:0:0:
119,373,16054,1,2,0:0:0:0:
79,216,16204,2,0,P|75:177|92:142,1,80,8|2,0:0|0:0,0:0:0:0:
293,233,16504,1,0,0:0:0:0:
293,233,16654,2,0,L|214:240,1,80,8|0,0:0|0:0,0:0:0:0:
92,141,16954,2,0,L|171:148,1,80,8|0,0:0|0:0,0:0:0:0:
363,273,17254,6,0,B|381:238|364:194|364:194|348:153|367:114,1,160,2|8,0:0|0:0,0:0:0:0:
293,233,17704,1,2,0:0:0:0:
435,157,17854,1,2,0:0:0:0:
292,310,18004,2,0,P|284:271|292:233,1,80,8|0,0:0|0:0,0:0:0:0:
435,157,18304,1,2,0:0:0:0:
435,157,18454,2,0,P|443:118|435:79,1,80,8|0,0:0|0:0,0:0:0:0:
286,124,18754,2,0,L|365:117,1,80,8|0,0:0|0:0,0:0:0:0:
292,232,19054,70,0,B|252:208|209:225|189:259|189:259|200:278|229:288,1,160,2|8,0:0|0:0,0:0:0:0:
301,320,19504,1,2,0:0:0:0:
149,336,19654,1,2,0:0:0:0:
292,231,19804,2,0,P|335:237|372:268,1,80,8|2,0:0|0:0,0:0:0:0:
220,284,20104,1,0,0:0:0:0:
220,284,20254,2,0,P|202:244|211:196,1,80,8|0,0:0|0:0,0:0:0:0:
427,208,20554,2,0,P|444:247|435:295,1,80,8|0,0:0|0:0,0:0:0:0:
292,231,20854,6,0,B|298:157|298:157|295:148|295:148|301:73,1,160,2|8,0:0|0:0,0:0:0:0:
375,135,21304,1,2,0:0:0:0:
216,121,21454,1,2,0:0:0:0:
427,207,21604,2,0,P|453:178|463:140,1,80,12|2,0:0|0:0,0:0:0:0:
381,55,21904,1,2,0:0:0:0:
381,55,22054,2,0,L|374:134,1,80,8|0,0:0|0:0,0:0:0:0:
338,216,22354,2,0,L|345:295,1,80,8|0,0:0|0:0,0:0:0:0:
190,330,22654,6,0,B|245:316|282:355|282:355|317:393|374:380,1,200,6|0,0:0|0:0,0:0:0:0:
345,295,23104,1,2,0:0:0:0:
112,376,23254,2,0,P|99:329|113:282,1,100,2|0,0:0|0:0,0:0:0:0:
215,161,23554,2,0,B|250:112|250:112|238:251,1,200,8|0,0:0|0:0,0:0:0:0:
190,330,24004,1,2,0:0:0:0:
35,234,24154,2,0,P|69:198|117:186,1,100,2|0,0:0|0:0,0:0:0:0:
238,251,24454,6,0,B|301:256|301:256|364:225|364:225|440:232,1,200,12|0,0:0|0:0,0:0:0:0:
381,314,24904,1,2,0:0:0:0:
351,138,25054,2,0,L|450:146,1,100,8|0,0:0|0:0,0:0:0:0:
366,49,25354,2,0,B|328:39|295:64|295:64|264:90|215:78,1,150,10|0,0:0|0:0,0:0:0:0:
134,72,25654,2,0,B|100:116|122:166|122:166|149:169|166:147,1,150,10|0,0:0|0:0,0:0:0:0:
233,205,25954,2,0,P|171:249|99:256,1,150,10|0,0:0|0:0,0:0:0:0:
10,119,26254,70,0,B|41:169|18:214|18:214|-5:263|26:310,1,200,14|0,0:0|0:0,0:0:0:0:
99,256,26704,1,2,0:0:0:0:
207,353,26854,2,0,L|108:345,1,100,2|0,0:0|0:0,0:0:0:0:
231,268,27154,2,0,B|285:285|294:338|294:338|335:300|386:317,1,200,8|0,0:0|0:0,0:0:0:0:
472,345,27604,1,2,0:0:0:0:
463,158,27754,2,0,L|454:257,1,100,2|0,0:0|0:0,0:0:0:0:
305,122,28054,6,0,B|360:136|397:97|397:97|432:59|489:72,1,200,12|0,0:0|0:0,0:0:0:0:
463,158,28504,1,2,0:0:0:0:
329,34,28654,2,0,P|279:35|238:62,1,100,8|0,0:0|0:0,0:0:0:0:
138,164,28954,2,0,B|109:139|109:139|220:148,1,150,10|0,0:0|0:0,0:0:0:0:
305,122,29254,2,0,B|319:173|282:213|282:213|275:238|288:267,1,150,10|0,0:0|0:0,0:0:0:0:
269,353,29554,2,0,B|308:362|339:336|339:336|372:311|410:321,1,150,10|0,0:0|0:0,0:0:0:0:
495,368,29854,70,0,B|500:305|500:305|469:242|469:242|476:166,1,200,14|0,0:0|0:0,0:0:0:0:
409,321,30304,1,2,0:0:0:0:
413,110,30454,2,0,P|455:86|504:89,1,100,2|0,0:0|0:0,0:0:0:0:
347,172,30754,2,0,B|309:130|327:79|327:79|314:23|263:9,1,200,8|0,0:0|0:0,0:0:0:0:
86,49,31204,1,2,0:0:0:0:
143,113,31354,2,0,P|192:117|236:94,1,100,2|0,0:0|0:0,0:0:0:0:
413,110,31654,6,0,P|427:193|346:171,1,200,8|0,0:0|0:0,0:0:0:0:
325,83,32104,1,2,0:0:0:0:
280,235,32254,2,0,L|288:334,1,100,2|0,0:0|0:0,0:0:0:0:
459,276,32554,2,0,P|362:288|280:235,1,200,8|0,0:0|0:0,0:0:0:0:
176,88,33004,1,2,0:0:0:0:
155,177,33154,2,0,B|196:184|226:162|226:162|258:138|297:146,1,150,8|0,0:0|0:0,0:0:0:0:
384,188,33454,6,0,P|391:124|364:77,1,120,4|0,0:0|0:0,0:0:0:0:
297,145,36154,1,0,0:0:0:0:
297,145,36454,2,0,L|289:232,1,80,0|0,0:0|0:0,0:0:0:0:
215,218,36754,6,0,L|294:224,1,75,0|0,0:0|0:0,0:0:0:0:
421,264,37054,70,0,B|379:257|345:284|345:284|307:313|271:303,2,160,2|0|0,0:0|0:0|0:0,0:0:0:0:
211,248,37954,2,0,P|233:182|289:223,1,160,2|0,0:0|0:0,0:0:0:0:
272,303,38404,1,2,0:0:0:0:
271,303,38554,2,0,P|239:325|200:330,1,80,2|0,0:0|0:0,0:0:0:0:
132,278,38854,6,0,B|105:249|63:238|23:263|23:263|29:283|48:297,2,160,2|0|0,0:0|0:0|0:0,0:0:0:0:
201,88,39754,2,0,B|207:164|207:164|204:173|204:173|210:247,1,160,2|0,0:0|0:0,0:0:0:0:
272,303,40204,1,2,0:0:0:0:
327,241,40354,2,0,L|414:248,1,80,2|0,0:0|0:0,0:0:0:0:
474,291,40654,70,0,B|493:251|476:211|476:211|458:167|476:132,2,160,2|0|0,0:0|0:0|0:0,0:0:0:0:
340,54,41554,2,0,B|378:57|405:94|405:94|429:57|473:55,1,160,2|0,0:0|0:0,0:0:0:0:
474,135,42003,1,2,0:0:0:0:
336,134,42154,2,0,L|256:127,1,80,2|0,0:0|0:0,0:0:0:0:
196,10,42454,6,0,B|200:60|200:60|176:110|176:110|181:164,2,160,2|0|0,0:0|0:0|0:0,0:0:0:0:
57,211,43354,2,0,B|93:196|131:225|131:225|165:252|207:239,1,160,2|0,0:0|0:0,0:0:0:0:
282,213,43804,1,2,0:0:0:0:
325,296,43954,70,0,L|265:290,1,60,2|0,0:0|0:0,0:0:0:0:
207,239,44254,6,0,B|131:246|131:246|122:250|122:250|48:257,2,160,2|0|0,0:0|0:0|0:0,0:0:0:0:
357,186,45154,2,0,P|301:146|282:212,1,160,2|0,0:0|0:0,0:0:0:0:
341,264,45604,1,2,0:0:0:0:
415,238,45754,2,0,P|433:194|429:157,1,80,2|0,0:0|0:0,0:0:0:0:
391,89,46054,70,0,B|411:47|456:37|492:55|492:55|488:78|467:97,2,160,2|0|0,0:0|0:0|0:0,0:0:0:0:
244,23,46954,2,0,B|194:19|194:19|144:43|144:43|90:38,1,160,2|0,0:0|0:0,0:0:0:0:
10,29,47404,1,2,0:0:0:0:
80,117,47554,1,2,0:0:0:0:
89,37,47704,1,2,0:0:0:0:
1,109,47854,6,0,B|8:185|8:185|12:194|12:194|19:268,1,160,2|0,0:0|0:0,0:0:0:0:
28,346,48304,1,2,0:0:0:0:
91,299,48454,2,0,L|178:306,1,80,2|0,0:0|0:0,0:0:0:0:
239,192,48754,2,0,B|223:224|241:268|241:268|258:308|239:348,1,160,2|0,0:0|0:0,0:0:0:0:
170,305,49204,1,2,0:0:0:0:
310,228,49354,2,0,L|397:235,1,80,2|0,0:0|0:0,0:0:0:0:
459,273,49654,70,0,P|468:234|458:196,1,80,2|0,0:0|0:0,0:0:0:0:
512,139,49954,6,0,P|489:123|459:116,1,59.9999981689454,2|0,0:0|0:0,0:0:0:0:
419,48,50254,70,0,P|403:60|391:75,1,40,2|0,0:0|0:0,0:0:0:0:
379,230,50554,54,0,P|375:257|389:233,1,75.0000028610231,10|0,0:0|0:0,0:0:0:0:
379,230,50854,6,0,B|341:220|308:245|308:245|277:271|228:259,1,150,2|0,0:0|0:0,0:0:0:0:
135,208,51154,6,0,B|152:241|152:241|149:279,1,75,2|0,0:0|0:0,0:0:0:0:
58,301,51454,22,0,B|9:266|9:266|148:278,1,200,6|0,0:0|0:0,0:0:0:0:
208,347,51904,1,2,0:0:0:0:
237,261,52054,2,0,L|228:161,1,100,2|0,0:0|0:0,0:0:0:0:
323,13,52354,2,0,P|347:55|344:104,1,100,8|0,0:0|0:0,0:0:0:0:
166,96,52654,2,0,P|208:72|257:75,1,100,2|0,0:0|0:0,0:0:0:0:
313,190,52954,2,0,P|363:194|406:170,1,100,2|0,0:0|0:0,0:0:0:0:
493,36,53254,6,0,B|463:82|486:131|486:131|509:176|478:226,1,200,10|0,0:0|0:0,0:0:0:0:
423,299,53704,1,2,0:0:0:0:
313,188,53854,2,0,P|356:164|405:169,1,100,2|0,0:0|0:0,0:0:0:0:
248,251,54154,2,0,P|224:208|229:158,1,100,8|0,0:0|0:0,0:0:0:0:
323,89,54454,2,0,L|313:192,1,100,2|0,0:0|0:0,0:0:0:0:
144,128,54754,2,0,P|94:123|51:147,1,100,2|0,0:0|0:0,0:0:0:0:
71,311,55054,70,0,B|94:341|129:337|129:337|159:270|114:212,1,200,10|0,0:0|0:0,0:0:0:0:
51,147,55504,1,2,0:0:0:0:
218,345,55654,2,0,L|321:354,1,100,8|0,0:0|0:0,0:0:0:0:
441,277,55954,2,0,P|461:228|452:177,1,100,8|0,0:0|0:0,0:0:0:0:
296,265,56254,1,2,0:0:0:0:
406,360,56404,1,2,0:0:0:0:
373,218,56554,2,0,P|332:183|282:176,1,100,8|0,0:0|0:0,0:0:0:0:
134,283,56854,6,0,B|190:277|209:226|209:226|242:271|296:265,1,200,10|0,0:0|0:0,0:0:0:0:
287,175,57304,1,2,0:0:0:0:
116,99,57454,2,0,P|106:148|127:193,1,100,8|0,0:0|0:0,0:0:0:0:
288,175,57754,2,0,P|297:126|277:81,1,100,8|0,0:0|0:0,0:0:0:0:
27,184,58054,2,0,L|126:192,1,100,8|0,0:0|0:0,0:0:0:0:
277,81,58354,38,0,L|360:73,1,75,2|0,0:0|0:0,0:0:0:0:
433,24,58654,22,0,B|440:91|440:91|409:154|409:154|414:217,1,200,6|0,0:0|0:0,0:0:0:0:
351,74,59104,1,2,0:0:0:0:
498,172,59254,2,0,L|507:275,1,100,2|0,0:0|0:0,0:0:0:0:
320,226,59554,2,0,P|365:206|414:216,1,100,8|0,0:0|0:0,0:0:0:0:
252,283,59854,2,0,P|231:238|241:189,1,100,2|0,0:0|0:0,0:0:0:0:
293,44,60154,2,0,P|314:88|309:137,1,100,2|0,0:0|0:0,0:0:0:0:
46,154,60454,6,0,B|101:168|138:129|138:129|173:91|230:104,1,200,10|0,0:0|0:0,0:0:0:0:
309,137,60904,1,2,0:0:0:0:
252,283,61054,2,0,P|231:238|241:189,1,100,2|0,0:0|0:0,0:0:0:0:
420,234,61354,2,0,L|317:225,1,100,8|0,0:0|0:0,0:0:0:0:
129,112,61654,2,0,L|232:103,1,100,2|0,0:0|0:0,0:0:0:0:
380,83,61954,1,2,0:0:0:0:
320,225,62104,1,2,0:0:0:0:
297,47,62254,70,0,P|374:-6|457:38,1,200,10|0,0:0|0:0,0:0:0:0:
380,83,62704,1,2,0:0:0:0:
214,11,62854,2,0,L|114:19,1,100,8|0,0:0|0:0,0:0:0:0:
18,106,63154,2,0,B|35:72|25:35|25:35|42:107|116:110,1,200,8|0,0:0|0:0,0:0:0:0:
114,18,63604,1,2,0:0:0:0:
49,186,63754,2,0,P|39:234|60:278,1,100,8|0,0:0|0:0,0:0:0:0:
220,245,64054,6,0,B|269:210|269:210|130:222,1,200,10|0,0:0|0:0,0:0:0:0:
60,278,64504,1,2,0:0:0:0:
289,300,64654,2,0,L|389:308,1,100,8|0,0:0|0:0,0:0:0:0:
455,192,64954,70,0,B|451:244|451:244|488:284|474:335,1,150,8|0,0:0|0:0,0:0:0:0:
362,221,65254,6,0,L|368:146,1,75,2|0,0:0|0:0,0:0:0:0:
450,93,65554,38,0,P|453:79|432:88,1,37.5,2|0,0:0|0:0,0:0:0:0:
185,96,65854,22,0,B|242:83|277:121|277:121|314:160|369:146,1,200,6|0,0:0|0:0,0:0:0:0:
343,58,66304,1,0,0:0:0:0:
210,183,66454,2,0,P|159:183|110:147,1,100,2|0,0:0|0:0,0:0:0:0:
141,68,66754,2,0,B|159:50|184:46|184:46|195:65|184:95,1,100,2|0,0:0|0:0,0:0:0:0:
57,223,67054,2,0,P|31:178|38:118,1,100
184,95,67354,1,2,0:0:0:0:
456,176,67654,6,0,B|402:182|369:137|369:137|348:188|294:194,1,200,2|0,0:0|0:0,0:0:0:0:
446,86,68104,1,0,0:0:0:0:
431,260,68254,2,0,P|385:279|337:272,1,100,2|0,0:0|0:0,0:0:0:0:
293,194,68554,1,2,0:0:0:0:
89,319,68854,2,0,B|67:302|70:275|70:275|120:253|164:287,1,150,4|0,0:0|0:0,0:0:0:0:
222,354,69154,1,8,0:0:0:0:
137,78,69454,70,0,B|82:103|82:103|221:116,1,200,6|0,0:0|0:0,0:0:0:0:
232,26,69904,1,0,0:0:0:0:
0,64,70054,2,0,P|-7:112|11:158,1,100,2|0,0:0|0:0,0:0:0:0:
221,116,70354,2,0,B|239:98|264:94|264:94|275:113|264:143,1,100,2|0,0:0|0:0,0:0:0:0:
94,194,70654,2,0,L|193:202,1,100,0|0,0:0|0:0,0:0:0:0:
280,233,70954,1,2,0:0:0:0:
463,85,71254,6,0,B|434:136|458:180|458:180|483:228|455:276,1,200,2|0,0:0|0:0,0:0:0:0:
371,314,71704,1,0,0:0:0:0:
280,233,71854,2,0,L|379:224,1,100,2|0,0:0|0:0,0:0:0:0:
336,72,72154,2,0,L|224:62,1,100,8|0,0:0|0:0,0:0:0:0:
94,51,72454,2,0,B|111:29|138:32|138:32|160:82|126:126,1,150,8|0,0:0|0:0,0:0:0:0:
65,192,72754,1,8,0:0:0:0:
117,364,73054,70,0,B|180:369|180:369|243:338|243:338|319:345,1,200,6|0,0:0|0:0,0:0:0:0:
464,353,73504,1,0,0:0:0:0:
398,204,73654,2,0,L|389:304,1,100,2|0,0:0|0:0,0:0:0:0:
479,167,73954,2,0,B|499:142|495:120|495:120|470:116|447:126,1,100,2|0,0:0|0:0,0:0:0:0:
326,153,74254,2,0,P|276:155|232:133,1,100,0|0,0:0|0:0,0:0:0:0:
167,69,74554,1,2,0:0:0:0:
259,285,74854,6,0,B|314:260|314:260|175:247,1,200,2|0,0:0|0:0,0:0:0:0:
115,313,75304,1,0,0:0:0:0:
377,323,75454,2,0,P|399:279|396:229,1,100,2|0,0:0|0:0,0:0:0:0:
255,109,75754,2,0,P|282:150|326:172,1,100,8|0,0:0|0:0,0:0:0:0:
501,110,76054,2,0,P|451:112|410:140,1,100,8|0,0:0|0:0,0:0:0:0:
313,260,76354,1,8,0:0:0:0:
313,260,76654,70,0,L|283:262,1,30,10|0,0:0|0:0,0:0:0:0:
372,254,76954,6,0,L|312:259,1,60,10|0,0:0|0:0,0:0:0:0:
462,247,77254,70,0,L|372:254,1,89.9999972534181,10|0,0:0|0:0,0:0:0:0:
207,160,77554,6,0,L|330:170,1,120,10|0,0:0|0:0,0:0:0:0:
58,147,77854,70,0,L|207:160,1,150,10|0,0:0|0:0,0:0:0:0:
378,88,78154,22,0,B|399:21|339:-17|271:1|257:60|274:145|326:170,1,300,10|0,0:0|0:0,0:0:0:0:
474,91,78454,21,10,0:0:0:0:
474,91,78754,5,2,0:0:0:0:
325,169,78904,1,8,0:0:0:0:
466,260,79054,1,8,0:0:0:0:
377,87,79204,1,2,0:0:0:0:
413,341,79354,1,8,0:0:0:0:
413,341,79654,21,2,0:0:0:0:
314,335,79804,1,8,0:0:0:0:
271,249,79954,1,2,0:0:0:0:
377,87,80104,1,2,0:0:0:0:
93,291,80254,6,0,B|152:265|203:313|203:313|249:358|313:334,1,239.999992675781,6|0,0:0|0:0,0:0:0:0:
324,168,80704,1,2,0:0:0:0:
271,249,80854,1,8,0:0:0:0:
281,82,81004,1,2,0:0:0:0:
421,174,81154,2,0,P|420:230|368:254,1,119.999996337891,8|0,0:0|0:0,0:0:0:0:
227,161,81454,1,8,0:0:0:0:
377,88,81604,1,2,0:0:0:0:
328,345,81754,2,0,P|284:306|270:249,1,119.999996337891,2|2,0:0|0:0,0:0:0:0:
486,243,81979,1,2,0:0:0:0:
486,243,82054,6,0,L|366:253,1,119.999996337891,8|0,0:0|0:0,0:0:0:0:
226,160,82354,1,2,0:0:0:0:
377,88,82504,1,2,0:0:0:0:
271,249,82654,1,8,0:0:0:0:
181,71,82804,1,2,0:0:0:0:
55,181,82954,2,0,B|114:186|114:186|165:154|165:154|229:160,1,179.999994506836,8|0,0:0|0:0,0:0:0:0:
271,249,83254,2,0,B|186:240|186:240|226:279|216:334,1,179.999994506836,2|0,0:0|0:0,0:0:0:0:
136,307,83554,2,0,P|83:317|68:265,1,119.999996337891,2|0,0:0|0:0,0:0:0:0:
302,326,83854,70,0,L|421:316,1,119.999996337891,6|0,0:0|0:0,0:0:0:0:
425,148,84154,1,2,0:0:0:0:
375,232,84304,1,2,0:0:0:0:
341,97,84454,2,0,P|384:58|443:51,1,119.999996337891,8|0,0:0|0:0,0:0:0:0:
473,234,84754,1,8,0:0:0:0:
291,181,84904,1,2,0:0:0:0:
302,326,85054,2,0,L|421:316,1,119.999996337891,8|0,0:0|0:0,0:0:0:0:
341,97,85354,2,0,L|222:87,1,119.999996337891,2|2,0:0|0:0,0:0:0:0:
132,247,85579,1,2,0:0:0:0:
132,247,85654,6,0,B|172:197|139:135|139:135|108:79|148:24,1,239.999992675781,12|0,0:0|0:0,0:0:0:0:
221,86,86104,1,2,0:0:0:0:
58,186,86254,2,0,P|39:244|55:302,1,119.999996337891,2|0,0:0|0:0,0:0:0:0:
303,278,86554,2,0,B|257:292|217:263|217:263|172:234|131:247,1,179.999994506836,8|0,0:0|0:0,0:0:0:0:
275,185,86854,2,0,P|255:118|179:171,1,179.999994506836,8|0,0:0|0:0,0:0:0:0:
159,337,87154,1,2,0:0:0:0:
132,246,87304,1,2,0:0:0:0:
303,278,87454,70,0,B|474:263|474:263|409:233,1,239.999992675781,10|0,0:0|0:0,0:0:0:0:
275,185,87904,1,2,0:0:0:0:
331,371,88054,1,8,0:0:0:0:
341,114,88204,1,2,0:0:0:0:
204,260,88354,2,0,P|173:210|177:151,1,119.999996337891,8|0,0:0|0:0,0:0:0:0:
341,114,88654,1,8,0:0:0:0:
275,185,88804,1,2,0:0:0:0:
149,59,88954,2,0,L|25:69,1,119.999996337891,2|2,0:0|0:0,0:0:0:0:
69,195,89179,1,2,0:0:0:0:
69,195,89254,6,0,B|7:167|7:167|178:152,1,239.999992675781,8|0,0:0|0:0,0:0:0:0:
341,114,89704,1,2,0:0:0:0:
285,304,89854,2,0,L|274:184,1,119.999996337891,8|0,0:0|0:0,0:0:0:0:
455,272,90154,2,0,B|409:258|369:287|369:287|324:316|283:303,1,179.999994506836,8|0,0:0|0:0,0:0:0:0:
125,336,90454,2,0,B|167:324|190:278|190:278|180:326|209:363,1,179.999994506836,2|0,0:0|0:0,0:0:0:0:
285,304,90754,2,0,L|274:184,1,119.999996337891,2|0,0:0|0:0,0:0:0:0:
93,139,91054,70,0,B|152:165|203:117|203:117|249:72|313:96,1,239.999992675781,6|0,0:0|0:0,0:0:0:0:
274,184,91504,1,2,0:0:0:0:
134,51,91654,2,0,P|63:46|17:80,1,119.999996337891,8|2,0:0|0:0,0:0:0:0:
82,258,91879,1,2,0:0:0:0:
82,258,91954,2,0,L|93:138,1,119.999996337891,8|0,0:0|0:0,0:0:0:0:
41,344,92254,2,0,P|111:346|156:311,1,119.999996337891,2|0,0:0|0:0,0:0:0:0:
120,152,92554,2,0,P|80:210|86:267,1,119.999996337891,2|0,0:0|0:0,0:0:0:0:
332,267,92854,5,10,0:0:0:0:
173,230,93004,1,2,0:0:0:0:
422,239,93154,69,10,0:0:0:0:
150,322,93304,1,2,0:0:0:0:
401,330,93454,5,10,0:0:0:0:
81,257,93604,1,2,0:0:0:0:
443,148,93754,69,10,0:0:0:0:
443,148,94054,69,2,0:0:0:0:
422,239,94204,1,2,0:0:0:0:
242,295,94354,1,2,0:0:0:0:
103,167,94504,1,2,0:0:0:0:
259,70,94654,6,0,B|219:120|252:182|252:182|283:238|242:294,1,239.999992675781,6|0,0:0|0:0,0:0:0:0:
173,230,95104,1,2,0:0:0:0:
329,129,95254,2,0,P|352:191|359:243,1,119.999996337891,8|0,0:0|0:0,0:0:0:0:
142,344,95554,2,0,P|150:285|173:230,1,119.999996337891,8|0,0:0|0:0,0:0:0:0:
329,129,95854,1,8,0:0:0:0:
103,167,96004,1,2,0:0:0:0:
241,294,96154,2,0,P|266:240|255:184,1,119.999996337891,2|2,0:0|0:0,0:0:0:0:
116,56,96379,1,2,0:0:0:0:
116,56,96454,6,0,P|90:109|102:166,1,119.999996337891,8|0,0:0|0:0,0:0:0:0:
254,182,96754,2,0,L|389:170,1,119.999996337891,2|0,0:0|0:0,0:0:0:0:
235,66,97054,2,0,L|99:54,1,119.999996337891,8|0,0:0|0:0,0:0:0:0:
9,280,97354,2,0,B|67:274|67:274|112:234|112:234|176:229,1,179.999994506836,8|0,0:0|0:0,0:0:0:0:
333,217,97654,2,0,B|288:219|254:182|254:182|275:222|258:269,1,179.999994506836,10|0,0:0|0:0,0:0:0:0:
180,322,97954,2,0,P|227:357|286:359,1,119.999996337891,10|0,0:0|0:0,0:0:0:0:
452,207,98254,70,0,L|332:217,1,119.999996337891,14|0,0:0|0:0,0:0:0:0:
173,229,98554,1,2,0:0:0:0:
242,82,98704,1,2,0:0:0:0:
180,322,98854,2,0,P|122:307|84:262,1,119.999996337891,8|0,0:0|0:0,0:0:0:0:
257,269,99154,2,0,P|272:325|252:381,1,119.999996337891,8|0,0:0|0:0,0:0:0:0:
173,229,99454,1,8,0:0:0:0:
332,216,99604,1,2,0:0:0:0:
165,136,99754,2,0,L|45:125,1,119.999996337891,2|2,0:0|0:0,0:0:0:0:
242,82,99979,1,2,0:0:0:0:
242,82,100054,6,0,B|301:56|352:104|352:104|398:149|462:125,1,239.999992675781,8|0,0:0|0:0,0:0:0:0:
421,37,100504,1,2,0:0:0:0:
167,22,100654,2,0,P|148:79|165:136,1,119.999996337891,8|0,0:0|0:0,0:0:0:0:
305,194,100954,2,0,B|266:182|221:211|221:211|181:240|135:226,1,179.999994506836,8|0,0:0|0:0,0:0:0:0:
101,64,101254,2,0,P|186:69|152:140,1,179.999994506836,2|0,0:0|0:0,0:0:0:0:
41,244,101554,1,2,0:0:0:0:
8,83,101704,1,2,0:0:0:0:
134,225,101854,70,0,B|305:240|305:240|240:270,1,239.999992675781,6|0,0:0|0:0,0:0:0:0:
104,316,102304,1,2,0:0:0:0:
383,188,102454,2,0,P|398:244|378:300,1,119.999996337891,8|0,0:0|0:0,0:0:0:0:
299,145,102754,2,0,P|339:104|398:93,1,119.999996337891,8|0,0:0|0:0,0:0:0:0:
304,239,103054,1,8,0:0:0:0:
215,102,103204,1,2,0:0:0:0:
502,177,103354,2,0,L|366:188,1,119.999996337891,2|2,0:0|0:0,0:0:0:0:
215,102,103579,1,2,0:0:0:0:
215,102,103654,6,0,B|156:75|105:123|105:123|59:169|-4:144,1,239.999992675781,8|0,0:0|0:0,0:0:0:0:
37,57,104104,1,2,0:0:0:0:
280,33,104254,2,0,P|307:86|299:145,1,119.999996337891,8|0,0:0|0:0,0:0:0:0:
171,185,104554,2,0,B|166:244|166:244|198:295|198:295|192:359,1,179.999994506836,8|0,0:0|0:0,0:0:0:0:
76,229,104854,2,0,P|32:292|107:311,1,179.999994506836,10|0,0:0|0:0,0:0:0:0:
256,229,105154,2,0,P|309:202|368:210,1,119.999996337891,10|0,0:0|0:0,0:0:0:0:
451,375,105454,70,0,B|410:318|441:262|441:262|474:200|434:150,1,239.999992675781,14|0,0:0|0:0,0:0:0:0:
374,83,105904,1,2,0:0:0:0:
256,229,106055,2,0,P|314:236|367:209,1,119.999996337891,8|0,0:0|0:0,0:0:0:0:
200,89,106354,2,0,B|226:146|170:196|170:196|152:257|204:305,1,239.999992675781,10|0,0:0|0:0,0:0:0:0:
112,122,106804,1,2,0:0:0:0:
256,229,106954,2,0,P|314:236|367:209,1,119.999996337891,2|2,0:0|0:0,0:0:0:0:
457,35,107179,1,2,0:0:0:0:
457,35,107254,6,0,B|471:206|471:206|433:149,1,239.999992675781,8|0,0:0|0:0,0:0:0:0:
374,83,107704,1,2,0:0:0:0:
247,219,107854,2,0,L|366:208,1,119.999996337891,8|0,0:0|0:0,0:0:0:0:
171,172,108154,69,10,0:0:0:0:
245,308,108304,1,2,0:0:0:0:
173,82,108454,5,10,0:0:0:0:
166,350,108604,1,2,0:0:0:0:
251,38,108754,69,10,0:0:0:0:
90,302,108904,1,2,0:0:0:0:
430,269,109054,6,0,B|375:283|338:244|338:244|303:206|246:219,1,200,6|0,0:0|0:0,0:0:0:0:
167,260,109504,1,2,0:0:0:0:
404,182,109654,70,0,P|411:133|392:87,1,100,2|0,0:0|0:0,0:0:0:0:
151,120,109954,2,0,L|250:128,1,100,8|0,0:0|0:0,0:0:0:0:
167,260,110254,2,0,L|67:268,1,100,2|0,0:0|0:0,0:0:0:0:
238,313,110554,2,0,P|256:267|246:218,1,100,2|0,0:0|0:0,0:0:0:0:
89,54,110854,6,0,P|63:96|64:145,1,100,8|0,0:0|0:0,0:0:0:0:
246,218,111154,1,2,0:0:0:0:
151,120,111304,1,2,0:0:0:0:
67,268,111454,2,0,L|167:260,1,100,8|0,0:0|0:0,0:0:0:0:
291,88,111754,2,0,B|253:78|220:103|220:103|189:129|149:119,1,150,8|0,0:0|0:0,0:0:0:0:
246,218,112054,2,0,B|240:187|267:161|267:161|315:172|346:139,1,150,10|0,0:0|0:0,0:0:0:0:
397,83,112354,2,0,P|419:128|373:213,1,150,10|0,0:0|0:0,0:0:0:0:
246,218,112654,70,0,B|192:235|183:288|183:288|142:250|91:267,1,200,6|0,0:0|0:0,0:0:0:0:
118,352,113104,1,2,0:0:0:0:
147,172,113254,2,0,L|48:164,1,100,2|0,0:0|0:0,0:0:0:0:
271,304,113554,2,0,L|382:294,1,100,8|0,0:0|0:0,0:0:0:0:
458,163,113854,2,0,P|410:172|373:205,1,100,2|0,0:0|0:0,0:0:0:0:
441,347,114154,2,0,P|458:302|449:253,1,100,2|0,0:0|0:0,0:0:0:0:
369,91,114454,6,0,B|306:86|306:86|243:117|243:117|167:110,1,200,8|0,0:0|0:0,0:0:0:0:
49,98,114904,1,2,0:0:0:0:
98,267,115054,2,0,L|107:168,1,100,8|0,0:0|0:0,0:0:0:0:
219,323,115354,2,0,B|181:314|150:340|150:340|117:365|79:355,1,150,8|0,0:0|0:0,0:0:0:0:
31,207,115654,2,0,P|97:200|94:271,1,150,10|0,0:0|0:0,0:0:0:0:
205,233,115954,2,0,P|274:251|308:324,1,150,10|0,0:0|0:0,0:0:0:0:
398,213,116254,70,0,B|331:206|331:206|268:237|268:237|205:232,1,200,6|0,0:0|0:0,0:0:0:0:
253,148,116704,1,2,0:0:0:0:
478,251,116854,2,0,P|485:202|466:156,1,100,8|0,0:0|0:0,0:0:0:0:
253,148,117154,6,0,B|198:162|161:123|161:123|126:85|69:98,1,200,8|0,0:0|0:0,0:0:0:0:
7,163,117604,1,2,0:0:0:0:
89,283,117754,2,0,L|97:184,1,100,8|0,0:0|0:0,0:0:0:0:
226,62,118054,70,0,B|280:46|316:86|316:86|330:32|382:18,1,200,8|0,0:0|0:0,0:0:0:0:
253,148,118504,1,2,0:0:0:0:
412,204,118654,2,0,L|403:104,1,100,8|0,0:0|0:0,0:0:0:0:
253,148,118954,2,0,B|215:211|253:273|253:273|288:273|319:246,1,200,8|0,0:0|0:0,0:0:0:0:
412,204,119404,1,2,0:0:0:0:
393,344,119554,2,0,L|293:353,1,100,8|0,0:0|0:0,0:0:0:0:
74,288,119854,54,8,B|25:253|25:253|164:265,1,200,12|0,0:0|0:0,0:0:0:0:
254,273,120304,1,2,0:0:0:0:
293,353,120454,2,0,L|393:344,1,100,8|0,0:0|0:0,0:0:0:0:
454,238,120754,6,0,B|418:248|380:219|380:219|346:192|293:201,1,160,12|0,0:0|0:0,0:0:0:0:
254,273,121204,1,2,0:0:0:0:
214,192,121354,2,0,L|220:112,1,80,8|0,0:0|0:0,0:0:0:0:
181,30,121654,38,0,P|231:0|271:40,1,119.999996337891,12|0,0:0|0:0,0:0:0:0:
221,112,122104,1,2,0:0:0:0:
130,105,122254,2,0,L|70:99,1,59.9999981689454,8|0,0:0|0:0,0:0:0:0:
221,112,122554,6,0,L|224:151,1,40,10|0,0:0|0:0,0:0:0:0:
224,151,122887,70,0,L|219:206,1,40,2|0,0:0|0:0,0:0:0:0:
220,190,123250,6,0,L|223:229,1,40,2|0,0:0|0:0,0:0:0:0:
233,320,123625,69,2,0:0:0:0:
256,192,123718,12,2,126625,0:0:0:0:
