osu file format v14

[General]
AudioFilename: audio.mp3
AudioLeadIn: 0
PreviewTime: 79804
Countdown: 0
SampleSet: Soft
StackLeniency: 0.7
Mode: 0
LetterboxInBreaks: 0
WidescreenStoryboard: 0

[Editor]
Bookmarks: 8254,15454,22654,37054,51454,65854,80254,109054
DistanceSpacing: 1
BeatDivisor: 2
GridSize: 4
TimelineZoom: 1

[Metadata]
Title:Kaze no Uta
TitleUnicode:風の唄
Artist:MAMI
ArtistUnicode:MAMI
Creator:newton-
Version:Easy
Source:ニュートンと林檎の樹
Tags:xidorn -aqua atalanta newton to ringo no ki newrin newton and the apple tree project laplacian song of wind
BeatmapID:1674859
BeatmapSetID:797473

[Difficulty]
HPDrainRate:3
CircleSize:3
OverallDifficulty:3
ApproachRate:3
SliderMultiplier:0.9
SliderTickRate:1

[Events]
//Background and Video events
0,0,"(1) if you can see this.jpg",0,0
//Break Periods
//Storyboard Layer 0 (Background)
//Storyboard Layer 1 (Fail)
//Storyboard Layer 2 (Pass)
//Storyboard Layer 3 (Foreground)
//Storyboard Sound Samples

[TimingPoints]
8254,300,6,2,1,40,1,0
15454,-100,6,2,1,50,0,0
22654,-100,6,2,2,60,0,0
24454,-100,6,2,3,60,0,0
25579,-100,6,2,1,5,0,0
25654,-100,6,2,1,60,0,0
25879,-100,6,2,1,5,0,0
25954,-100,6,2,1,60,0,0
26179,-100,6,2,1,5,0,0
26254,-100,6,2,2,60,0,0
29179,-100,6,2,1,5,0,0
29254,-100,6,2,1,60,0,0
29479,-100,6,2,1,5,0,0
29554,-100,6,2,1,60,0,0
29779,-100,6,2,1,5,0,0
29854,-100,6,2,3,60,0,0
33379,-100,6,2,3,5,0,0
33454,-100,6,2,1,40,0,0
36979,-100,6,2,1,5,0,0
37054,-100,6,2,4,40,0,0
44179,-100,6,2,4,5,0,0
44254,-100,6,2,4,40,0,0
50554,-100,6,2,2,60,0,0
50629,-100,6,2,1,5,0,0
50854,-100,6,2,2,60,0,0
51079,-100,6,2,1,5,0,0
51154,-100,6,2,2,60,0,0
51379,-100,6,2,1,5,0,0
51454,-100,6,2,3,60,0,0
58354,-100,6,2,1,60,0,0
58579,-100,6,2,1,5,0,0
58654,-100,6,2,2,60,0,0
65179,-100,6,2,2,5,0,0
65254,-100,6,2,1,60,0,0
65479,-100,6,2,1,5,0,0
65554,-100,6,2,1,60,0,0
65779,-100,6,2,1,5,0,0
65854,-100,6,2,3,60,0,0
66754,-100,6,2,4,60,0,0
67054,-100,6,2,2,60,0,0
69079,-100,6,2,2,5,0,0
69154,-100,6,2,2,60,0,0
69454,-100,6,2,3,60,0,0
70354,-100,6,2,4,60,0,0
70654,-100,6,2,2,60,0,0
72679,-100,6,2,2,5,0,0
72754,-100,6,2,2,60,0,0
73954,-100,6,2,4,60,0,0
74254,-100,6,2,2,60,0,0
76654,-100,6,2,2,40,0,0
76879,-100,6,2,2,5,0,0
76954,-100,6,2,2,45,0,0
77179,-100,6,2,2,5,0,0
77254,-100,6,2,2,50,0,0
77479,-100,6,2,2,5,0,0
77554,-100,6,2,2,55,0,0
77779,-100,6,2,2,5,0,0
77854,-100,6,2,2,60,0,0
78079,-100,6,2,2,5,0,0
78154,-100,6,2,2,80,0,0
78754,-100,6,2,2,60,0,0
79954,-100,6,2,1,60,0,0
80254,-100,6,2,2,90,0,1
81904,-100,6,2,1,90,0,1
82054,-100,6,2,2,90,0,1
83179,-100,6,2,2,5,0,1
83254,-100,6,2,1,90,0,1
83479,-100,6,2,1,5,0,1
83554,-100,6,2,1,90,0,1
83854,-100,6,2,3,90,0,1
85504,-100,6,2,1,90,0,1
85654,-100,6,2,2,90,0,1
86779,-100,6,2,2,5,0,1
86854,-100,6,2,2,90,0,1
89104,-100,6,2,1,90,0,1
89254,-100,6,2,2,90,0,1
90379,-100,6,2,2,5,0,1
90454,-100,6,2,1,90,0,1
90679,-100,6,2,1,5,0,1
90754,-100,6,2,1,90,0,1
91054,-100,6,2,3,90,0,1
91804,-100,6,2,1,90,0,1
91954,-100,6,2,3,90,0,1
92854,-100,6,2,3,100,0,1
94054,-100,6,2,1,60,0,1
94354,-100,6,2,1,60,0,0
94654,-100,6,2,2,90,0,1
96304,-100,6,2,1,90,0,1
96454,-100,6,2,2,90,0,1
97579,-100,6,2,2,5,0,1
97654,-100,6,2,2,90,0,1
97879,-100,6,2,2,5,0,1
97954,-100,6,2,2,90,0,1
99904,-100,6,2,1,90,0,1
100054,-100,6,2,2,90,0,1
101179,-100,6,2,2,5,0,1
101254,-100,6,2,1,90,0,1
101479,-100,6,2,1,5,0,1
101554,-100,6,2,1,90,0,1
101854,-100,6,2,3,90,0,1
103504,-100,6,2,1,90,0,1
103654,-100,6,2,2,90,0,1
104779,-100,6,2,2,5,0,1
104854,-100,6,2,2,90,0,1
105079,-100,6,2,2,5,0,1
105154,-100,6,2,2,90,0,1
107104,-100,6,2,1,90,0,1
107254,-100,6,2,2,90,0,1
108154,-100,6,2,2,100,0,1
109054,-100,6,2,2,60,0,0
111979,-100,6,2,2,5,0,0
112054,-100,6,2,1,60,0,0
112279,-100,6,2,2,5,0,0
112354,-100,6,2,1,60,0,0
112654,-100,6,2,3,60,0,0
115579,-100,6,2,3,5,0,0
115654,-100,6,2,1,60,0,0
115879,-100,6,2,2,5,0,0
115954,-100,6,2,1,60,0,0
116254,-100,6,2,2,60,0,0
120754,-100,6,2,3,60,0,0
121654,-100,6,2,2,60,0,0
122554,333.333333333333,6,2,4,60,1,0
122887,363.636363636364,6,2,4,60,1,0
123250,375,6,2,4,60,1,0
123625,375,6,2,4,60,1,0

[Colours]
Combo1 : 0,106,157
Combo2 : 128,0,0
Combo3 : 116,44,22
Combo4 : 0,128,128

[HitObjects]
108,334,22654,6,0,P|66:259|108:181,1,180,6|2,0:0|0:0,0:0:0:0:
157,258,23554,2,0,L|248:250,1,90,8|0,0:0|0:0,0:0:0:0:
336,240,24154,1,2,0:0:0:0:
414,284,24454,2,0,B|434:238|414:198|414:198|394:150|415:111,1,180,12|8,0:0|0:0,0:0:0:0:
372,31,25354,2,0,P|414:19|458:29,2,90,10|10|10,0:0|0:0|0:0,0:0:0:0:
292,74,26254,6,0,B|208:66|208:66|199:73|199:73|108:65,1,180,14|2,0:0|0:0,0:0:0:0:
35,24,27154,2,0,P|24:67|36:110,1,90,8|0,0:0|0:0,0:0:0:0:
114,157,27754,1,2,0:0:0:0:
192,204,28054,2,0,B|218:262|218:262|208:377,1,180,12|8,0:0|0:0,0:0:0:0:
123,347,28954,2,0,P|80:336|37:348,2,90,10|10|10,0:0|0:0|0:0,0:0:0:0:
207,378,29854,6,0,B|256:385|290:355|290:355|331:323|374:334,1,180,14|2,0:0|0:0,0:0:0:0:
460,361,30754,2,0,B|453:276|453:276|444:269|444:269|436:178,1,180,8|2,0:0|0:0,0:0:0:0:
494,115,31654,2,0,P|409:101|350:167,1,180,8|2,0:0|0:0,0:0:0:0:
289,230,32554,2,0,P|265:192|263:147,2,90,8|0|8,0:0|0:0|0:0,0:0:0:0:
350,165,33454,1,4,0:0:0:0:
256,192,33529,12,0,35254,0:0:0:0:
350,165,36754,21,0,0:0:0:0:
371,252,37054,2,0,B|322:259|288:229|288:229|247:197|204:208,1,180,2|0,0:0|0:0,0:0:0:0:
139,270,37954,1,2,0:0:0:0:
139,270,38554,1,2,0:0:0:0:
118,184,38854,2,0,B|125:100|125:100|118:91|118:91|126:7,1,180,2|0,0:0|0:0,0:0:0:0:
213,28,39754,1,2,0:0:0:0:
213,28,40354,1,2,0:0:0:0:
300,49,40654,6,0,P|342:37|386:47,2,90,2|0|0,0:0|0:0|0:0,0:0:0:0:
238,113,41554,2,0,B|246:197|246:197|239:206|239:206|246:289,1,180,2|2,0:0|0:0,0:0:0:0:
323,336,42454,2,0,P|248:378|170:336,1,180,2|0,0:0|0:0,0:0:0:0:
123,262,43354,1,2,0:0:0:0:
123,262,43954,1,2,0:0:0:0:
47,310,44254,70,0,B|21:252|21:252|31:137,1,180,2|0,0:0|0:0,0:0:0:0:
38,46,45154,1,2,0:0:0:0:
38,46,45754,1,2,0:0:0:0:
114,98,46054,2,0,B|163:105|197:75|197:75|238:43|281:54,1,180,2|0,0:0|0:0,0:0:0:0:
359,99,46954,1,2,0:0:0:0:
359,99,47554,1,2,0:0:0:0:
435,53,47854,6,0,P|435:139|360:187,1,180,2|2,0:0|0:0,0:0:0:0:
283,146,48754,2,0,P|271:189|283:232,1,90,2|0,0:0|0:0,0:0:0:0:
362,279,49354,1,2,0:0:0:0:
281,323,49654,2,0,B|197:331|197:331|188:324|188:324|105:331,1,180,2|2,0:0|0:0,0:0:0:0:
14,343,50554,1,10,0:0:0:0:
49,259,50854,2,0,L|41:169,1,90,2|2,0:0|0:0,0:0:0:0:
18,82,51454,6,0,B|67:75|101:105|101:105|142:137|185:126,1,180,6|2,0:0|0:0,0:0:0:0:
264,82,52354,2,0,P|306:70|350:80,2,90,8|2|2,0:0|0:0|0:0,0:0:0:0:
186,125,53254,2,0,B|193:207|193:207|185:216|185:216|193:301,1,180,10|2,0:0|0:0,0:0:0:0:
266,354,54154,1,8,0:0:0:0:
266,354,54754,1,2,0:0:0:0:
347,317,55054,6,0,B|373:259|373:259|363:144,1,180,10|8,0:0|0:0,0:0:0:0:
384,55,55954,2,0,B|335:48|301:78|301:78|260:110|217:99,1,180,8|8,0:0|0:0,0:0:0:0:
137,55,56854,2,0,P|125:97|135:141,2,90,10|0|8,0:0|0:0|0:0,0:0:0:0:
213,8,57754,1,8,0:0:0:0:
213,8,58354,1,2,0:0:0:0:
217,99,58654,6,0,B|299:106|299:106|308:98|308:98|393:106,1,180,6|2,0:0|0:0,0:0:0:0:
472,150,59554,2,0,P|484:108|474:64,2,90,8|2|2,0:0|0:0|0:0,0:0:0:0:
395,196,60454,2,0,B|346:189|312:219|312:219|271:251|228:240,1,180,10|2,0:0|0:0,0:0:0:0:
163,176,61354,1,8,0:0:0:0:
163,176,61954,1,2,0:0:0:0:
249,151,62254,6,0,P|189:89|104:106,1,180,10|8,0:0|0:0,0:0:0:0:
33,164,63154,2,0,P|13:118|28:56,2,90,8|0|8,0:0|0:0|0:0,0:0:0:0:
91,233,64054,1,10,0:0:0:0:
421,233,64954,2,0,L|428:322,2,90,8|2|2,0:0|0:0|0:0,0:0:0:0:
410,143,65854,6,0,B|328:150|328:150|320:159|320:159|235:166,1,180,6|2,0:0|0:0,0:0:0:0:
156,121,66754,2,0,P|143:164|154:208,2,90,2|0|2,0:0|0:0|0:0,0:0:0:0:
234,75,67654,2,0,P|159:30|81:68,1,180,2|2,0:0|0:0,0:0:0:0:
29,143,68554,1,2,0:0:0:0:
29,143,69154,1,8,0:0:0:0:
103,195,69454,6,0,B|184:202|184:202|192:211|192:211|277:218,1,180,6|2,0:0|0:0,0:0:0:0:
358,178,70354,2,0,P|368:221|356:264,2,90,2|0|2,0:0|0:0|0:0,0:0:0:0:
283,130,71254,2,0,B|234:137|200:107|200:107|159:75|116:86,1,180,2|2,0:0|0:0,0:0:0:0:
24,90,72154,2,0,B|50:148|50:148|40:265,1,180,8|8,0:0|0:0,0:0:0:0:
18,352,73054,6,0,B|67:359|101:329|101:329|142:297|185:308,1,180,6|2,0:0|0:0,0:0:0:0:
266,348,73954,2,0,L|355:340,2,90,2|0|2,0:0|0:0|0:0,0:0:0:0:
185,308,74854,1,2,0:0:0:0:
185,308,75454,1,2,0:0:0:0:
259,258,75754,2,0,P|271:215|260:171,1,90,8|8,0:0|0:0,0:0:0:0:
187,120,76354,1,8,0:0:0:0:
268,81,76654,6,0,B|315:76|315:76|369:96,2,90,10|10|10,0:0|0:0|0:0,0:0:0:0:
187,120,77554,2,0,B|139:115|139:115|85:135,2,90,10|10|10,0:0|0:0|0:0,0:0:0:0:
260,171,78454,1,10,0:0:0:0:
260,171,79954,1,2,0:0:0:0:
238,258,80254,6,0,B|287:265|321:235|321:235|362:203|405:214,1,180,6|8,0:0|0:0,0:0:0:0:
486,174,81154,2,0,P|496:217|484:260,2,90,8|8|2,0:0|0:0|0:0,0:0:0:0:
412,124,82054,2,0,B|327:116|327:116|318:124|318:124|236:117,1,180,8|8,0:0|0:0,0:0:0:0:
170,54,82954,2,0,P|127:41|83:52,1,90,8|2,0:0|0:0,0:0:0:0:
17,113,83554,1,2,0:0:0:0:
77,179,83854,6,0,B|84:259|84:259|76:269|76:269|84:354,1,180,6|8,0:0|0:0,0:0:0:0:
171,332,84754,2,0,L|261:340,1,90,8|8,0:0|0:0,0:0:0:0:
350,347,85354,1,2,0:0:0:0:
401,272,85654,2,0,B|423:227|406:186|406:186|389:136|413:99,1,180,12|2,0:0|0:0,0:0:0:0:
455,18,86554,1,8,0:0:0:0:
455,18,87154,1,2,0:0:0:0:
365,23,87454,6,0,B|284:30|284:30|276:39|276:39|191:46,1,180,10|8,0:0|0:0,0:0:0:0:
128,112,88354,2,0,B|105:156|122:197|122:197|139:247|115:284,1,180,8|2,0:0|0:0,0:0:0:0:
38,333,89254,2,0,P|113:375|191:333,1,180,8|8,0:0|0:0,0:0:0:0:
271,293,90154,2,0,P|281:336|269:379,2,90,8|2|2,0:0|0:0|0:0,0:0:0:0:
229,211,91054,6,0,B|221:130|221:130|229:120|229:120|221:35,1,180,6|8,0:0|0:0,0:0:0:0:
311,34,91954,2,0,L|318:123,2,90,8|2|2,0:0|0:0|0:0,0:0:0:0:
399,33,92854,2,0,L|406:122,1,90,10|10,0:0|0:0,0:0:0:0:
488,158,93454,1,10,0:0:0:0:
498,248,93754,1,10,0:0:0:0:
498,248,94354,1,2,0:0:0:0:
416,212,94654,6,0,B|367:222|345:262|345:262|318:306|274:310,1,180,6|8,0:0|0:0,0:0:0:0:
194,265,95554,2,0,P|181:307|191:351,2,90,8|8|2,0:0|0:0|0:0,0:0:0:0:
246,192,96454,2,0,B|254:107|254:107|246:98|246:98|253:16,1,180,8|8,0:0|0:0,0:0:0:0:
338,43,97354,2,0,L|427:35,1,90,8|10,0:0|0:0,0:0:0:0:
512,62,97954,1,10,0:0:0:0:
447,122,98254,6,0,B|425:167|442:208|442:208|459:258|435:295,1,180,14|8,0:0|0:0,0:0:0:0:
360,245,99154,2,0,L|270:237,1,90,8|8,0:0|0:0,0:0:0:0:
187,273,99754,1,2,0:0:0:0:
104,309,100054,2,0,B|96:224|96:224|104:215|104:215|97:133,1,180,8|8,0:0|0:0,0:0:0:0:
88,42,100954,1,8,0:0:0:0:
88,42,101554,1,2,0:0:0:0:
170,80,101854,6,0,B|219:87|253:57|253:57|294:25|337:36,1,180,6|8,0:0|0:0,0:0:0:0:
418,76,102754,2,0,B|392:134|392:134|402:249,1,180,8|2,0:0|0:0,0:0:0:0:
409,339,103654,2,0,B|323:332|323:332|316:322|316:322|234:315,1,180,8|8,0:0|0:0,0:0:0:0:
152,356,104554,2,0,P|142:312|155:270,1,90,8|10,0:0|0:0,0:0:0:0:
234,223,105154,1,10,0:0:0:0:
154,178,105454,6,0,B|128:120|128:120|138:5,1,180,14|8,0:0|0:0,0:0:0:0:
221,38,106354,2,0,B|303:30|303:30|312:38|312:38|397:30,1,180,8|2,0:0|0:0,0:0:0:0:
454,100,107254,2,0,B|476:145|459:186|459:186|442:236|466:273,1,180,8|8,0:0|0:0,0:0:0:0:
421,352,108154,2,0,P|463:364|507:354,2,90,10|10|10,0:0|0:0|0:0,0:0:0:0:
343,307,109054,6,0,B|257:313|257:313|250:323|250:323|168:330,1,180,6|2,0:0|0:0,0:0:0:0:
90,375,109954,2,0,P|78:332|89:289,1,90,8|2,0:0|0:0,0:0:0:0:
164,241,110554,1,2,0:0:0:0:
239,193,110854,2,0,B|265:135|265:135|255:20,1,180,8|8,0:0|0:0,0:0:0:0:
171,51,111754,2,0,L|81:43,2,90,8|10|10,0:0|0:0|0:0,0:0:0:0:
255,19,112654,6,0,B|304:12|338:42|338:42|379:74|422:63,1,180,6|2,0:0|0:0,0:0:0:0:
502,19,113554,2,0,P|513:61|502:104,1,90,8|2,0:0|0:0,0:0:0:0:
426,152,114154,1,2,0:0:0:0:
349,199,114454,2,0,B|263:192|263:192|256:182|256:182|174:175,1,180,8|8,0:0|0:0,0:0:0:0:
94,219,115354,2,0,P|83:177|94:134,2,90,8|10|10,0:0|0:0|0:0,0:0:0:0:
174,266,116254,6,0,B|223:259|257:289|257:289|298:321|341:310,1,180,6|8,0:0|0:0,0:0:0:0:
419,264,117154,2,0,B|412:178|412:178|402:171|402:171|395:89,1,180,8|8,0:0|0:0,0:0:0:0:
324,33,118054,2,0,B|266:59|266:59|151:49,1,180,8|8,0:0|0:0,0:0:0:0:
71,94,118954,2,0,P|59:51|70:8,2,90,8|0|8,0:0|0:0|0:0,0:0:0:0:
149,139,119854,6,0,P|154:251|72:185,1,270,12|12,0:0|0:0,0:0:0:0:
362,139,121654,2,0,P|350:247|440:187,1,270,12|10,0:0|0:0,0:0:0:0:
256,192,123625,12,2,126625,0:0:0:0:
