osu file format v14

[General]
AudioFilename: audio.mp3
AudioLeadIn: 0
PreviewTime: 79804
Countdown: 0
SampleSet: Soft
StackLeniency: 0.5
Mode: 0
LetterboxInBreaks: 0
WidescreenStoryboard: 0

[Editor]
DistanceSpacing: 1
BeatDivisor: 4
GridSize: 4
TimelineZoom: 1.48

[Metadata]
Title:Kaze no Uta
TitleUnicode:風の唄
Artist:MAMI
ArtistUnicode:MAMI
Creator:Garden
Version:sahuang's Expert
Source:ニュートンと林檎の樹
Tags:sahuang my angel azusa misure momochikun opening newton to ringo no ki newrin Laplacian eroge visual novel
BeatmapID:1316228
BeatmapSetID:624037

[Difficulty]
HPDrainRate:6
CircleSize:3.8
OverallDifficulty:8.3
ApproachRate:9
SliderMultiplier:1.7
SliderTickRate:1

[Events]
//Background and Video events
0,0,"alice.jpg",0,0
//Break Periods
//Storyboard Layer 0 (Background)
//Storyboard Layer 1 (Fail)
//Storyboard Layer 2 (Pass)
//Storyboard Layer 3 (Foreground)
//Storyboard Sound Samples

[TimingPoints]
8254,300,6,2,1,50,1,0
8254,-125,6,2,1,50,0,0
15454,-111.111111111111,6,2,1,50,0,0
22654,-100,6,2,1,75,0,0
25054,-133.333333333333,6,2,1,65,0,0
25279,-133.333333333333,6,2,1,25,0,0
25354,-100,6,2,1,75,0,0
28654,-133.333333333333,6,2,1,65,0,0
28879,-133.333333333333,6,2,1,25,0,0
28954,-100,6,2,1,75,0,0
29854,-125,6,2,1,75,0,0
30079,-125,6,2,1,75,0,0
30154,-125,6,2,1,60,0,0
30979,-125,6,2,1,15,0,0
31054,-125,6,2,1,50,0,0
31879,-125,6,2,1,15,0,0
31954,-125,6,2,1,50,0,0
32254,-100,6,2,1,75,0,0
32554,-111.111111111111,6,2,1,75,0,0
33454,-153.846153846154,6,2,1,60,0,0
35704,-153.846153846154,6,2,1,5,0,0
36754,-200,6,2,1,50,0,0
36979,-200,6,2,1,15,0,0
37054,-111.111111111111,6,2,1,55,0,0
40654,-111.111111111111,6,2,1,55,0,0
43954,-133.333333333333,6,2,1,55,0,0
44179,-133.333333333333,6,2,1,15,0,0
44254,-111.111111111111,6,2,1,55,0,0
49654,-100,6,2,1,57,0,0
50554,-76.9230769230769,6,2,1,65,0,0
50854,-83.3333333333333,6,2,1,65,0,0
51079,-100,6,2,1,5,0,0
51154,-100,6,2,1,65,0,0
51379,-100,6,2,1,5,0,0
51454,-100,6,2,1,65,0,0
57079,-100,6,2,1,15,0,0
57154,-100,6,2,1,65,0,0
57979,-100,6,2,1,15,0,0
58054,-100,6,2,1,65,0,0
64954,-166.666666666667,6,2,1,65,0,0
65179,-100,6,2,1,5,0,0
65254,-125,6,2,1,65,0,0
65479,-100,6,2,1,5,0,0
65554,-100,6,2,1,65,0,0
65779,-100,6,2,1,5,0,0
65854,-111.111111111111,6,2,1,65,0,0
68854,-100,6,2,1,45,0,0
69079,-100,6,2,1,5,0,0
69154,-100,6,2,1,65,0,0
69229,-100,6,2,1,30,0,0
69454,-100,6,2,1,65,0,0
72454,-83.3333333333333,6,2,1,45,0,0
72679,-83.3333333333333,6,2,1,5,0,0
72754,-83.3333333333333,6,2,1,65,0,0
72979,-83.3333333333333,6,2,1,25,0,0
73054,-100,6,2,1,65,0,0
76054,-133.333333333333,6,2,1,50,0,0
76654,-500,6,2,1,50,0,0
76879,-500,6,2,1,5,0,0
76954,-250,6,2,1,50,0,0
77179,-250,6,2,1,5,0,0
77254,-166.666666666667,6,2,1,50,0,0
77479,-166.666666666667,6,2,1,5,0,0
77554,-125,6,2,1,50,0,0
77779,-125,6,2,1,5,0,0
77854,-100,6,2,1,50,0,0
78079,-100,6,2,1,5,0,0
78154,-83.3333333333334,6,2,1,50,0,0
78379,-83.3333333333334,6,2,1,5,0,0
78454,-71.4285714285714,6,2,1,65,0,0
78679,-71.4285714285714,6,2,1,15,0,0
78754,-100,6,2,1,70,0,0
80254,-90.9090909090909,6,2,1,80,0,1
85654,-111.111111111111,6,2,1,80,0,1
86554,-100,6,2,1,80,0,1
87679,-100,6,2,1,20,0,1
87754,-100,6,2,1,80,0,1
88579,-100,6,2,1,20,0,1
88654,-100,6,2,1,80,0,1
91054,-100,6,2,1,60,0,1
91879,-100,6,2,1,20,0,1
91954,-100,6,2,1,60,0,1
92854,-100,6,2,1,80,0,1
93079,-100,6,2,1,20,0,1
93154,-83.3333333333333,6,2,1,80,0,1
93379,-83.3333333333333,6,2,1,20,0,1
93454,-71.4285714285714,6,2,1,80,0,1
93679,-71.4285714285714,6,2,1,20,0,1
93754,-62.5,6,2,1,80,0,1
94654,-90.9090909090909,6,2,1,80,0,1
99379,-90.9090909090909,6,2,1,20,0,1
99454,-90.9090909090909,6,2,1,80,0,1
101854,-90.9090909090909,6,2,1,70,0,1
102079,-90.9090909090909,6,2,1,20,0,1
102154,-90.9090909090909,6,2,1,70,0,1
102979,-90.9090909090909,6,2,1,20,0,1
103054,-90.9090909090909,6,2,1,70,0,1
104554,-100,6,2,1,80,0,1
107479,-100,6,2,1,20,0,1
107554,-100,6,2,1,80,0,1
108154,-83.3333333333333,6,2,1,80,0,1
109054,-100,6,2,1,80,0,0
111454,-133.333333333333,6,2,1,80,0,0
111679,-133.333333333333,6,2,1,20,0,0
111754,-100,6,2,1,80,0,0
115054,-133.333333333333,6,2,1,80,0,0
115279,-133.333333333333,6,2,1,20,0,0
115354,-100,6,2,1,80,0,0
116254,-125,6,2,1,70,0,0
116479,-125,6,2,1,20,0,0
116554,-125,6,2,1,70,0,0
117379,-125,6,2,1,20,0,0
117454,-125,6,2,1,70,0,0
118279,-125,6,2,1,20,0,0
118354,-125,6,2,1,70,0,0
119854,-125,6,2,1,60,0,0
120079,-125,6,2,1,10,0,0
120154,-125,6,2,1,60,0,0
120979,-125,6,2,1,10,0,0
121054,-125,6,2,1,60,0,0
121879,-125,6,2,1,10,0,0
121954,-125,6,2,1,60,0,0
122554,333.333333333333,6,2,1,70,1,0
122554,-100,6,2,1,70,0,0
122804,-100,6,2,1,5,0,0
122887,363.636363636364,6,2,1,70,1,0
122887,-133.333333333333,6,2,1,70,0,0
123159,-100,6,2,1,5,0,0
123250,375,6,2,1,70,1,0
123250,-100,6,2,1,70,0,0
123625,375,4,2,1,70,1,0
123718,-100,4,2,1,20,0,0
126625,-100,4,2,1,5,0,0

[Colours]
Combo1 : 115,255,150
Combo2 : 255,255,94
Combo3 : 136,189,255
Combo4 : 255,174,136

[HitObjects]
360,49,8254,6,0,P|385:104|349:195,1,136,2|0,3:2|0:0,0:0:0:0:
210,132,8704,2,0,P|241:119|275:117,1,68,2|0,0:0|0:0,0:0:0:0:
232,243,9004,2,0,P|258:263|277:291,1,68,2|0,0:0|0:0,0:0:0:0:
163,200,9304,1,0,0:0:0:0:
357,192,9454,2,0,L|435:199,1,68,2|0,3:2|0:0,0:0:0:0:
385,292,9754,2,0,L|463:299,1,68,2|0,0:0|0:0,0:0:0:0:
270,312,10054,6,0,B|178:318|178:318|127:300,1,136,2|0,3:2|0:0,0:0:0:0:
179,119,10504,2,0,P|183:85|198:55,1,68,2|0,0:0|0:0,0:0:0:0:
286,155,10804,2,0,P|317:142|351:140,1,68,2|0,0:0|0:0,0:0:0:0:
200,218,11104,1,0,0:0:0:0:
364,124,11254,2,0,L|371:46,1,68,2|0,3:2|0:0,0:0:0:0:
460,200,11554,2,0,L|467:122,1,68,2|0,0:0|0:0,0:0:0:0:
346,249,11854,6,0,P|351:301|349:388,1,136,2|0,3:2|0:0,0:0:0:0:
209,160,12304,2,0,P|243:164|273:179,1,68,2|0,0:0|0:0,0:0:0:0:
155,289,12604,2,0,P|189:285|219:270,1,68,2|0,0:0|0:0,0:0:0:0:
72,174,12904,1,0,0:0:0:0:
13,345,13054,2,0,L|14:263,1,68,2|0,3:2|0:0,0:0:0:0:
162,133,13354,2,0,L|163:215,1,68,2|0,0:0|0:0,0:0:0:0:
297,333,13654,6,0,B|293:288|293:288|308:243|308:243|303:196,1,136,2|0,3:2|0:0,0:0:0:0:
438,288,14104,2,0,P|386:300|355:296,1,68,2|0,0:0|0:0,0:0:0:0:
160,248,14404,2,0,P|212:236|243:240,1,68,2|0,0:0|0:0,0:0:0:0:
357,294,14704,1,0,0:0:0:0:
239,245,14854,2,0,L|242:172,1,68,2|0,3:2|0:0,0:0:0:0:
147,28,15154,2,0,P|136:63|146:105,1,68,2|0,0:0|0:0,0:0:0:0:
364,58,15454,6,0,L|188:71,1,152.999995330811,2|0,3:2|0:0,0:0:0:0:
72,164,15904,1,2,3:2:0:0:
241,177,16054,1,0,0:0:0:0:
138,249,16204,1,2,3:2:0:0:
251,165,16354,1,0,0:0:0:0:
204,334,16504,1,0,0:0:0:0:
261,153,16654,6,0,P|312:138|360:213,1,152.999995330811,2|2,3:2|3:2,0:0:0:0:
361,210,17104,1,0,0:0:0:0:
138,249,17254,6,0,B|116:207|116:207|131:93,1,152.999995330811,2|0,3:2|0:0,0:0:0:0:
281,61,17704,1,2,3:2:0:0:
144,9,17854,1,0,0:0:0:0:
223,136,18004,1,2,3:2:0:0:
122,18,18154,1,0,0:0:0:0:
165,211,18304,1,0,0:0:0:0:
100,26,18454,6,0,P|51:73|71:159,1,152.999995330811,2|2,3:2|3:2,0:0:0:0:
63,151,18904,1,0,0:0:0:0:
280,124,19054,6,0,L|451:111,1,152.999995330811,2|0,3:2|0:0,0:0:0:0:
267,30,19504,1,2,3:2:0:0:
343,210,19654,2,0,L|436:202,1,76.4999976654053,0|2,0:0|3:2,0:0:0:0:
276,311,19954,2,0,L|183:303,1,76.4999976654053,0|0,0:0|0:0,0:0:0:0:
140,223,20254,6,0,L|151:383,1,152.999995330811,2|2,3:2|3:2,0:0:0:0:
150,375,20704,1,0,0:0:0:0:
49,191,20854,6,0,P|92:139|176:134,1,152.999995330811,2|0,3:2|0:0,0:0:0:0:
64,300,21304,1,2,3:2:0:0:
256,223,21454,1,0,0:0:0:0:
213,323,21604,1,2,3:2:0:0:
256,201,21754,1,0,0:0:0:0:
362,346,21904,1,0,0:0:0:0:
256,179,22054,6,0,B|305:155|305:155|408:170,1,152.999995330811,2|2,3:2|3:2,0:0:0:0:
402,169,22504,1,0,0:0:0:0:
206,96,22654,6,0,L|216:281,1,170,4|2,0:2|0:0,0:0:0:0:
110,105,23104,1,0,0:0:0:0:
110,105,23254,2,0,P|118:57|144:23,1,85,4|0,0:3|0:0,0:0:0:0:
313,176,23554,2,0,B|276:182|247:167|247:167|213:185|213:185|184:174|138:191,1,170,2|2,1:3|0:0,0:0:0:0:
304,87,24004,1,0,0:0:0:0:
253,259,24154,2,0,L|263:352,1,85,2|0,0:0|0:0,0:0:0:0:
399,196,24454,6,0,P|379:116|303:86,1,170,0|2,1:0|0:0,0:0:0:0:
150,186,24904,1,0,0:0:0:0:
262,343,25054,2,0,P|290:294|285:244,1,95.6250036478044,4|0,0:3|0:0,0:0:0:0:
208,277,25354,6,0,P|165:293|111:287,1,85,2|0,1:3|0:0,0:0:0:0:
96,122,25654,2,0,P|131:151|153:201,1,85,2|0,0:0|0:0,0:0:0:0:
15,300,25954,2,0,P|22:254|54:210,1,85,2|0,0:0|0:0,0:0:0:0:
288,256,26254,6,0,B|339:243|339:243|401:261|401:261|453:247,1,170,0|2,1:0|0:0,0:0:0:0:
337,343,26704,1,0,0:0:0:0:
403,162,26854,2,0,P|403:113|372:70,1,85,4|0,0:3|0:0,0:0:0:0:
179,108,27154,2,0,P|243:159|322:138,1,170,2|2,1:3|0:0,0:0:0:0:
263,63,27604,1,0,0:0:0:0:
273,246,27754,1,4,0:3:0:0:
254,48,27904,1,0,0:0:0:0:
282,261,28054,6,0,B|192:232|197:296|109:261,1,170,0|2,1:0|0:0,0:0:0:0:
156,170,28504,1,0,0:0:0:0:
238,349,28654,2,0,P|289:359|339:338,1,95.6250036478044,4|0,0:3|0:0,0:0:0:0:
373,259,28954,6,0,L|384:165,1,85,2|0,1:3|0:0,0:0:0:0:
226,65,29254,2,0,L|216:149,1,85,2|0,0:0|0:0,0:0:0:0:
360,233,29554,2,0,L|371:139,1,85,2|0,0:0|0:0,0:0:0:0:
213,39,29854,6,0,L|101:47,1,102,4|0,1:2|0:0,0:0:0:0:
78,54,30154,1,0,0:0:0:0:
32,137,30304,1,2,0:0:0:0:
32,137,30454,2,0,P|41:175|41:224,1,68
86,287,30754,6,0,P|128:276|162:213,1,102,2|0,1:3|0:0,0:0:0:0:
164,195,31054,1,0,0:0:0:0:
238,294,31204,1,2,0:0:0:0:
307,176,31354,1,0,0:0:0:0:
229,310,31504,1,0,0:0:0:0:
414,268,31654,6,0,L|412:167,1,102,0|0,1:0|0:0,0:0:0:0:
410,133,31954,1,0,0:0:0:0:
512,216,32104,1,2,0:0:0:0:
307,176,32254,2,0,L|200:172,1,85
76,308,32554,6,0,L|244:310,1,152.999995330811,2|0,1:3|0:0,0:0:0:0:
137,168,33004,1,2,0:0:0:0:
137,168,33154,2,0,L|36:167,1,76.4999976654053,4|0,0:3|0:0,0:0:0:0:
238,35,33454,22,0,B|270:87|242:147|242:147|202:119|94:139|122:295|214:339|214:339|234:339|266:327|266:327|298:339|318:339|318:339|410:295|438:139|330:119|290:147,1,828.749962062837,4|0,0:0|0:0,0:0:0:0:
294,290,36754,6,0,P|312:264|316:232,1,63.75,0|0,0:0|0:0,0:0:0:0:
294,290,37054,6,0,L|280:137,1,152.999995330811,2|0,0:0|0:0,0:0:0:0:
115,226,37654,2,0,L|112:314,1,76.4999976654053,2|0,0:0|0:0,0:0:0:0:
227,350,37954,2,0,P|263:321|376:333,1,152.999995330811,2|0,0:0|0:0,0:0:0:0:
425,163,38554,2,0,L|340:170,1,76.4999976654053,2|0,0:0|0:0,0:0:0:0:
287,77,38854,6,0,P|310:132|263:219,1,152.999995330811,2|0,0:0|0:0,0:0:0:0:
71,124,39454,2,0,L|86:227,1,76.4999976654053,2|0,0:0|0:0,0:0:0:0:
147,303,39754,2,0,B|222:272|221:332|303:293,1,152.999995330811,2|0,0:0|0:0,0:0:0:0:
419,189,40354,2,0,P|447:121|407:67,1,114.749996498108,2|0,0:0|0:0,0:0:0:0:
360,37,40654,6,0,B|410:51|410:51|515:23,2,152.999995330811,2|2|2,0:0|0:0|0:0,0:0:0:0:
191,225,41554,2,0,P|153:166|204:70,1,152.999995330811,2|0,0:0|0:0,0:0:0:0:
250,151,42004,1,2,0:0:0:0:
250,151,42154,2,0,L|337:146,1,76.4999976654053,2|0,0:0|0:0,0:0:0:0:
447,343,42454,5,2,0:0:0:0:
428,233,42754,1,0,0:0:0:0:
340,304,43054,1,0,0:0:0:0:
65,343,43354,5,2,0:0:0:0:
84,233,43654,1,0,0:0:0:0:
84,233,43804,1,0,0:0:0:0:
172,304,43954,2,0,P|207:313|256:276,1,95.6250036478044,2|0,0:0|0:0,0:0:0:0:
172,304,44254,6,0,P|208:282|209:174,1,152.999995330811,2|0,0:0|0:0,0:0:0:0:
344,20,44854,2,0,P|344:64|366:102,1,76.4999976654053,2|0,0:0|0:0,0:0:0:0:
441,124,45154,2,0,L|279:139,1,152.999995330811,2|0,0:0|0:0,0:0:0:0:
229,296,45754,2,0,P|266:311|328:306,1,76.4999976654053,2|0,0:0|0:0,0:0:0:0:
185,210,46054,6,0,P|144:250|156:357,1,152.999995330811,2|0,0:0|0:0,0:0:0:0:
340,219,46654,2,0,L|327:143,1,76.4999976654053,2|0,0:0|0:0,0:0:0:0:
229,69,46954,2,0,B|174:80|131:67|131:67|78:95,1,152.999995330811,2|0,0:0|0:0,0:0:0:0:
169,272,47554,1,2,0:0:0:0:
169,272,47704,1,0,0:0:0:0:
169,272,47854,6,0,B|222:290|264:258|264:258|291:281|291:281|324:256|389:268,1,229.499992996216,2|2,0:0|0:0,0:0:0:0:
477,190,48454,2,0,P|480:150|443:98,1,76.4999976654053,0|0,0:0|0:0,0:0:0:0:
264,260,48754,2,0,P|261:300|298:352,1,76.4999976654053,2|0,0:0|0:0,0:0:0:0:
381,266,49054,1,0,0:0:0:0:
381,266,49204,1,2,0:0:0:0:
275,332,49354,2,0,L|199:334,1,76.4999976654053
23,237,49654,5,2,0:0:0:0:
130,276,49954,1,2,0:0:0:0:
42,347,50254,1,2,0:0:0:0:
23,147,50554,6,0,L|30:104,1,27.6249987354279,10|0,3:0|0:0,0:0:0:0:
129,107,50854,6,0,P|159:111|161:18,1,152.999995330811,4|0,0:0|0:0,0:0:0:0:
41,36,51154,2,0,L|170:20,1,127.5,4|0,3:0|0:0,0:0:0:0:
292,57,51454,5,4,0:0:0:0:
292,57,51754,1,2,0:0:0:0:
243,195,51904,1,0,0:0:0:0:
407,154,52054,1,2,0:0:0:0:
225,200,52204,1,0,0:0:0:0:
399,323,52354,2,0,L|407:151,1,170,0|2,1:0|0:0,0:0:0:0:
504,251,52804,1,0,0:0:0:0:
310,314,52954,2,0,L|315:193,1,85,2|0,0:0|0:0,0:0:0:0:
128,99,53254,6,0,P|79:111|55:136,1,85,0|0,1:0|0:0,0:0:0:0:
34,317,53554,1,2,0:0:0:0:
231,246,53704,1,0,0:0:0:0:
131,194,53854,2,0,L|126:278,1,85,2|0,0:0|0:0,0:0:0:0:
282,372,54154,2,0,P|333:382|366:369,1,85,0|0,1:0|0:0,0:0:0:0:
443,193,54454,1,2,0:0:0:0:
336,175,54604,1,0,0:0:0:0:
318,282,54754,1,2,0:0:0:0:
425,300,54904,1,0,0:0:0:0:
357,65,55054,6,0,P|275:81|230:150,1,170,0|2,1:0|0:0,0:0:0:0:
318,282,55504,1,0,0:0:0:0:
230,150,55654,2,0,L|135:149,1,85,2|0,0:0|0:0,0:0:0:0:
157,327,55954,2,0,B|180:342|193:362|193:362|181:219,1,170,0|2,1:0|0:0,0:0:0:0:
183,242,56404,1,0,0:0:0:0:
362,202,56554,1,2,0:0:0:0:
287,288,56704,1,0,0:0:0:0:
258,109,56854,6,0,P|240:63|145:52,1,127.5,0|0,1:0|0:0,0:0:0:0:
133,63,57154,1,2,0:0:0:0:
13,130,57304,1,0,0:0:0:0:
80,250,57454,1,2,0:0:0:0:
200,183,57604,1,0,0:0:0:0:
227,329,57754,6,0,P|281:294|367:312,1,127.5,4|0,0:0|0:0,0:0:0:0:
379,321,58054,1,2,0:0:0:0:
499,254,58204,1,0,0:0:0:0:
432,134,58354,1,2,0:0:0:0:
312,201,58504,1,0,0:0:0:0:
334,18,58654,6,0,L|338:103,1,85,0|0,1:0|0:0,0:0:0:0:
409,232,58954,1,2,0:0:0:0:
226,169,59104,1,0,0:0:0:0:
427,240,59254,1,2,0:0:0:0:
276,314,59404,1,0,0:0:0:0:
445,248,59554,2,0,L|449:354,1,85,0|0,1:0|0:0,0:0:0:0:
337,187,59854,1,2,0:0:0:0:
276,314,60004,1,0,0:0:0:0:
276,314,60154,2,0,L|185:310,1,85,2|0,0:0|0:0,0:0:0:0:
52,163,60454,6,0,L|229:150,1,170,0|2,1:0|0:0,0:0:0:0:
383,76,60904,1,0,0:0:0:0:
292,221,61054,1,2,0:0:0:0:
255,52,61204,1,0,0:0:0:0:
428,192,61354,2,0,L|517:179,1,85,0|0,1:0|0:0,0:0:0:0:
331,321,61654,2,0,L|242:308,1,85,2|0,0:0|0:0,0:0:0:0:
329,143,61954,1,2,0:0:0:0:
329,143,62104,1,0,0:0:0:0:
145,287,62254,6,0,B|125:229|150:184|150:184|127:148|127:148|153:96|114:43,1,255,0|0,1:0|0:0,0:0:0:0:
38,107,62854,1,2,0:0:0:0:
218,136,63004,1,0,0:0:0:0:
62,249,63154,2,0,P|130:285|249:244,1,170,0|2,1:0|0:0,0:0:0:0:
306,176,63604,1,0,0:0:0:0:
401,301,63754,2,0,L|301:308,1,85,2|0,0:0|0:0,0:0:0:0:
151,147,64054,5,0,1:0:0:0:
151,147,64354,1,2,0:0:0:0:
231,59,64504,1,0,0:0:0:0:
349,53,64654,1,2,0:0:0:0:
437,133,64804,1,0,0:0:0:0:
443,251,64954,6,0,P|402:259|363:245,1,76.4999976654053,4|0,0:0|0:0,0:0:0:0:
437,133,65254,6,0,P|414:187|362:210,1,102,0|0,1:0|0:0,0:0:0:0:
349,53,65554,6,0,P|351:132|316:189,1,127.5,0|0,1:0|0:0,0:0:0:0:
241,245,65854,6,0,L|70:246,1,152.999995330811,4|2,0:0|0:0,0:0:0:0:
245,154,66304,1,0,0:0:0:0:
245,154,66454,2,0,P|251:116|239:80,1,76.4999976654053,2|0,0:0|0:0,0:0:0:0:
88,245,66754,2,0,P|81:282|93:318,1,76.4999976654053,2|0,0:3|0:0,0:0:0:0:
255,232,67054,2,0,P|220:245|195:274,1,76.4999976654053,2|0,0:0|0:0,0:0:0:0:
352,366,67354,2,0,P|323:342|286:335,1,76.4999976654053,2|0,0:0|0:0,0:0:0:0:
347,101,67654,6,0,L|356:284,1,152.999995330811,2|2,0:3|0:0,0:0:0:0:
462,161,68104,2,0,L|458:71,2,76.4999976654053,0|2|0,0:0|0:0|0:0,0:0:0:0:
354,253,68554,2,0,P|316:259|283:278,1,76.4999976654053,2|0,0:3|0:0,0:0:0:0:
183,121,68854,2,0,L|197:215,1,85,4|0,0:0|0:0,0:0:0:0:
70,328,69154,2,0,P|108:307|150:306,1,85,0|0,1:0|0:0,0:0:0:0:
328,358,69454,6,0,B|372:374|372:374|350:230,1,170,2|2,0:3|0:0,0:0:0:0:
328,100,69904,1,0,0:0:0:0:
437,183,70054,1,2,0:0:0:0:
407,39,70204,1,0,0:0:0:0:
290,192,70354,2,0,B|248:202|248:202|206:196,1,85,2|0,0:3|0:0,0:0:0:0:
37,75,70654,2,0,B|79:65|79:65|121:71,1,85,2|0,0:0|0:0,0:0:0:0:
292,269,70954,2,0,B|250:279|250:279|208:273,1,85,2|0,0:0|0:0,0:0:0:0:
79,158,71254,6,0,P|72:221|92:327,1,170,2|2,0:3|0:0,0:0:0:0:
239,163,71704,1,2,0:3:0:0:
120,70,71854,1,2,0:0:0:0:
239,163,72154,2,0,P|285:163|336:193,1,85,2|0,0:3|0:0,0:0:0:0:
296,314,72454,2,0,P|276:242|217:265,1,152.999995330811,4|0,0:0|0:0,0:0:0:0:
296,314,72754,2,0,B|372:282|385:337|448:304,1,152.999995330811,0|0,1:0|0:0,0:0:0:0:
409,223,73054,6,0,L|420:110,1,85,2|0,0:3|0:0,0:0:0:0:
375,26,73354,1,2,0:0:0:0:
505,70,73504,1,0,0:0:0:0:
375,26,73654,2,0,P|334:34|296:86,1,85,2|0,0:0|0:0,0:0:0:0:
328,252,73954,2,0,L|321:152,1,85,2|0,0:3|0:0,0:0:0:0:
200,57,74254,1,2,0:0:0:0:
192,216,74404,1,0,0:0:0:0:
406,157,74554,2,0,L|308:168,1,85,2|0,0:0|0:0,0:0:0:0:
88,124,74854,6,0,P|59:142|74:265,1,170,2|0,0:3|0:0,0:0:0:0:
252,317,75304,1,2,0:3:0:0:
254,126,75454,1,2,0:0:0:0:
120,199,75604,1,0,0:0:0:0:
353,254,75754,6,0,L|441:245,1,85,2|0,0:3|0:0,0:0:0:0:
252,317,76054,2,0,P|253:265|239:237,1,63.7500024318696,4|0,0:0|0:0,0:0:0:0:
167,140,76354,1,0,1:0:0:0:
353,254,76504,1,0,0:0:0:0:
167,140,76654,6,0,P|179:126|185:113,1,25.5,0|0,1:0|0:0,0:0:0:0:
123,163,76954,6,0,P|154:151|170:135,1,51,0|0,1:0|0:0,0:0:0:0:
52,141,77254,6,0,P|78:157|128:162,1,76.4999976654053,0|0,1:0|0:0,0:0:0:0:
36,47,77554,6,0,P|26:79|52:141,1,102,0|0,1:0|0:0,0:0:0:0:
145,11,77854,6,0,P|94:3|29:69,1,127.5,0|0,1:0|0:0,0:0:0:0:
166,140,78154,6,0,P|188:87|136:7,1,152.999995330811,12|0,1:3|0:0,0:0:0:0:
109,82,78454,6,0,L|128:275,1,178.499994552612,0|0,1:0|0:0,0:0:0:0:
234,359,78754,5,0,1:0:0:0:
327,149,78904,1,0,1:0:0:0:
127,260,79054,1,0,1:0:0:0:
355,285,79204,1,4,3:0:0:0:
193,121,79354,1,0,1:0:0:0:
193,121,79654,5,8,3:0:0:0:
423,160,79804,1,0,1:0:0:0:
227,234,79954,1,4,3:0:0:0:
442,154,80104,1,4,3:0:0:0:
108,136,80254,6,0,P|105:218|114:335,1,187.000005706787,4|2,0:1|0:0,0:0:0:0:
287,359,80704,1,0,0:0:0:0:
405,217,80854,2,0,P|344:217|305:241,1,93.5000028533936,2|0,0:0|0:0,0:0:0:0:
496,382,81154,2,0,L|499:274,1,93.5000028533936,8|0,1:2|0:0,0:0:0:0:
411,94,81454,1,2,0:0:0:0:
316,231,81604,1,0,0:0:0:0:
424,77,81754,1,2,0:0:0:0:
474,203,81904,1,0,0:0:0:0:
278,120,82054,6,0,B|195:155|190:92|96:134,1,187.000005706787,2|2,3:0|0:0,0:0:0:0:
233,36,82504,1,0,0:0:0:0:
154,213,82654,2,0,L|164:309,1,93.5000028533936,4|0,0:0|0:0,0:0:0:0:
278,120,82954,2,0,P|229:131|162:111,1,93.5000028533936,8|0,1:2|0:0,0:0:0:0:
372,128,83254,2,0,P|386:80|437:32,1,93.5000028533936,2|0,0:0|0:0,0:0:0:0:
318,209,83554,2,0,P|352:245|368:313,1,93.5000028533936,2|0,0:0|0:0,0:0:0:0:
106,314,83854,6,0,P|193:339|272:294,1,187.000005706787,2|2,3:0|0:0,0:0:0:0:
278,120,84304,1,0,0:0:0:0:
181,232,84454,1,2,0:0:0:0:
296,100,84604,1,0,0:0:0:0:
105,158,84754,2,0,P|64:176|6:176,1,93.5000028533936,8|0,1:2|0:0,0:0:0:0:
184,115,85054,1,2,0:0:0:0:
100,272,85204,1,0,0:0:0:0:
41,83,85354,1,2,0:0:0:0:
41,83,85654,6,0,L|122:69,1,76.4999976654053,2|0,3:0|0:0,0:0:0:0:
264,109,85954,1,2,0:0:0:0:
156,217,86104,1,0,0:0:0:0:
116,69,86254,1,4,0:0:0:0:
264,109,86404,1,0,0:0:0:0:
156,217,86554,2,0,B|147:274|147:274|166:341|166:341|154:399,2,170,4|4|2,1:3|1:3|0:0,0:0:0:0:
70,344,87304,1,0,0:0:0:0:
245,261,87454,6,0,L|397:258,1,127.5,2|0,3:0|0:0,0:0:0:0:
450,222,87754,1,2,0:0:0:0:
303,149,87904,1,0,0:0:0:0:
323,352,88054,2,0,L|416:348,1,85,2|0,0:0|0:0,0:0:0:0:
303,149,88354,2,0,P|249:152|197:228,1,127.5,8|0,1:2|0:0,0:0:0:0:
201,288,88654,1,2,0:0:0:0:
158,104,88804,1,0,0:0:0:0:
283,236,88954,1,2,0:0:0:0:
79,204,89104,1,0,0:0:0:0:
296,64,89254,6,0,L|303:162,1,85,2|0,3:0|0:0,0:0:0:0:
237,376,89554,2,0,L|244:278,1,85,2|0,0:0|0:0,0:0:0:0:
79,204,89854,2,0,L|177:197,1,85,4|0,0:0|0:0,0:0:0:0:
416,317,90154,1,8,1:2:0:0:
296,232,90304,1,0,0:0:0:0:
428,173,90454,2,0,L|516:163,1,85,2|0,0:0|0:0,0:0:0:0:
210,114,90754,2,0,L|298:104,1,85,2|0,0:0|0:0,0:0:0:0:
144,312,91054,6,0,B|116:277|116:277|124:137,1,170,2|2,3:0|0:0,0:0:0:0:
212,21,91504,1,0,0:0:0:0:
305,183,91654,2,0,L|294:310,1,127.5,2|0,0:0|0:0,0:0:0:0:
357,259,91954,2,0,P|298:228|231:263,1,127.5,8|0,1:2|0:0,0:0:0:0:
193,317,92254,1,2,0:0:0:0:
365,348,92404,1,0,0:0:0:0:
305,183,92554,1,4,0:0:0:0:
193,317,92704,1,0,0:0:0:0:
365,348,92854,6,0,P|400:349|442:265,1,127.5,4|0,0:0|0:0,0:0:0:0:
408,197,93154,6,0,P|384:136|449:64,1,152.999995330811,4|0,0:0|0:0,0:0:0:0:
466,142,93454,6,0,L|286:154,1,178.499994552612,4|0,0:0|0:0,0:0:0:0:
189,148,93754,6,0,B|148:134|148:134|160:247|160:247|207:221,1,204,8|0,0:3|0:0,0:0:0:0:
287,153,94054,5,4,0:3:0:0:
276,290,94204,1,4,0:3:0:0:
189,148,94354,1,2,0:0:0:0:
289,312,94504,1,0,0:0:0:0:
438,121,94654,6,0,P|433:58|325:65,1,187.000005706787,4|2,0:1|0:0,0:0:0:0:
361,228,95104,1,0,0:0:0:0:
189,148,95254,2,0,P|234:124|287:125,1,93.5000028533936,2|0,0:0|0:0,0:0:0:0:
216,334,95554,2,0,L|98:328,1,93.5000028533936,8|0,1:2|0:0,0:0:0:0:
245,219,95854,1,2,0:0:0:0:
36,321,96004,1,0,0:0:0:0:
115,123,96154,2,0,L|119:219,1,93.5000028533936,2|0,0:0|0:0,0:0:0:0:
310,350,96454,6,0,B|396:310|411:379|505:337,1,187.000005706787,2|2,3:0|0:0,0:0:0:0:
334,152,96904,1,0,0:0:0:0:
334,152,97054,2,0,L|232:142,1,93.5000028533936,4|0,0:0|0:0,0:0:0:0:
51,235,97354,2,0,P|71:283|118:311,1,93.5000028533936,8|0,1:2|0:0,0:0:0:0:
244,236,97654,2,0,B|150:228,1,93.5000028533936,2|0,0:0|0:0,0:0:0:0:
82,112,97954,1,2,0:0:0:0:
244,236,98104,1,0,0:0:0:0:
239,32,98254,6,0,P|302:22|359:136,1,187.000005706787,2|2,3:0|0:0,0:0:0:0:
205,310,98704,1,0,0:0:0:0:
284,101,98854,2,0,L|293:207,1,93.5000028533936,2|0,0:0|0:0,0:0:0:0:
428,346,99154,2,0,P|444:298|369:308,1,140.25000428009,8|0,1:2|0:0,0:0:0:0:
334,375,99454,1,2,0:0:0:0:
388,201,99604,1,0,0:0:0:0:
176,305,99754,1,2,0:0:0:0:
176,305,100054,6,0,L|173:191,1,93.5000028533936,2|0,3:0|0:0,0:0:0:0:
171,49,100354,1,2,0:0:0:0:
60,230,100504,1,0,0:0:0:0:
293,195,100654,2,0,L|394:177,1,93.5000028533936,4|0,0:0|0:0,0:0:0:0:
177,124,100954,2,0,B|164:185|164:185|186:238|186:238|174:313,2,187.000005706787,8|8|2,1:3|1:3|0:0,0:0:0:0:
293,195,101704,1,0,0:0:0:0:
87,256,101854,6,0,P|56:296|115:364,1,140.25000428009,2|0,3:0|0:0,0:0:0:0:
192,352,102154,1,2,0:0:0:0:
194,160,102304,1,0,0:0:0:0:
192,352,102454,1,2,0:0:0:0:
87,256,102604,1,0,0:0:0:0:
320,305,102754,2,0,L|463:285,1,140.25000428009,8|0,1:2|0:0,0:0:0:0:
507,204,103054,1,2,0:0:0:0:
284,170,103204,1,0,0:0:0:0:
401,384,103354,2,0,L|501:370,1,93.5000028533936,2|0,0:0|0:0,0:0:0:0:
284,170,103654,6,0,L|191:157,1,93.5000028533936,2|0,3:0|0:0,0:0:0:0:
342,81,103954,1,2,0:0:0:0:
107,144,104104,1,0,0:0:0:0:
347,238,104254,2,0,P|377:193|371:140,1,93.5000028533936,4|0,0:0|0:0,0:0:0:0:
101,290,104554,6,0,L|195:282,1,85,8|0,1:2|0:0,0:0:0:0:
227,80,104854,2,0,L|186:165,1,85,2|0,0:0|0:0,0:0:0:0:
366,266,105154,2,0,L|312:188,1,85,2|0,0:0|0:0,0:0:0:0:
101,290,105454,5,2,3:0:0:0:
101,290,105754,1,2,0:0:0:0:
227,80,105904,1,0,0:0:0:0:
84,154,106054,2,0,L|-9:164,1,85,2|0,0:0|0:0,0:0:0:0:
290,302,106354,1,8,1:2:0:0:
203,164,106504,1,0,0:0:0:0:
306,326,106654,1,2,0:0:0:0:
338,120,106804,1,0,0:0:0:0:
322,350,106954,2,0,L|412:343,1,85,2|0,0:0|0:0,0:0:0:0:
214,37,107254,6,0,L|202:172,1,127.5,2|0,3:0|0:0,0:0:0:0:
188,248,107554,1,2,0:0:0:0:
346,165,107704,1,0,0:0:0:0:
162,265,107854,1,4,0:0:0:0:
409,262,108004,1,0,0:0:0:0:
136,282,108154,6,0,P|62:292|27:181,1,203.999993774414,4|4,1:2|1:2,0:0:0:0:
227,67,108604,1,2,0:0:0:0:
91,221,108754,1,4,1:2:0:0:
25,26,108904,1,0,1:0:0:0:
247,81,109054,6,0,B|295:103|370:66|370:66|347:120,1,170,4|2,1:0|0:0,0:0:0:0:
258,257,109504,1,0,0:0:0:0:
258,257,109654,2,0,L|247:168,1,85,2|0,0:0|0:0,0:0:0:0:
354,323,109954,2,0,P|317:359|199:358,1,170,0|2,1:0|0:0,0:0:0:0:
336,181,110404,1,0,0:0:0:0:
130,234,110554,1,4,0:3:0:0:
365,175,110704,1,0,0:0:0:0:
139,69,110854,6,0,B|116:115|116:115|130:240,1,170,2|2,1:3|0:0,0:0:0:0:
130,234,111304,1,0,0:0:0:0:
320,351,111454,2,0,L|307:249,1,95.6250036478044,4|0,0:0|0:0,0:0:0:0:
249,164,111754,6,0,P|292:148|346:154,1,85,0|0,1:0|0:0,0:0:0:0:
361,319,112054,2,0,P|326:290|304:240,1,85,2|0,0:0|0:0,0:0:0:0:
442,141,112354,2,0,P|435:187|403:231,1,85,2|0,0:0|0:0,0:0:0:0:
192,264,112654,6,0,B|154:260|128:277|128:277|96:255|96:255|73:275|11:272,1,170,2|2,1:3|0:0,0:0:0:0:
180,350,113104,1,0,0:0:0:0:
135,185,113254,2,0,L|133:93,1,85,4|0,0:3|0:0,0:0:0:0:
375,151,113554,2,0,P|344:188|304:201,1,85,0|0,1:0|0:0,0:0:0:0:
130,23,113854,1,2,0:0:0:0:
296,117,114004,1,0,0:0:0:0:
135,185,114154,1,4,0:3:0:0:
264,30,114304,1,0,0:0:0:0:
340,271,114454,6,0,P|289:293|245:190,1,170,2|2,1:3|0:0,0:0:0:0:
232,213,114904,1,0,0:0:0:0:
454,166,115054,2,0,P|477:205|481:265,1,95.6250036478044,4|0,0:3|0:0,0:0:0:0:
402,330,115354,6,0,L|298:339,1,85,0|0,1:0|0:0,0:0:0:0:
147,205,115654,2,0,L|251:214,1,85,2|0,0:0|0:0,0:0:0:0:
390,67,115954,2,0,L|286:76,1,85,2|0,0:0|0:0,0:0:0:0:
79,163,116254,6,0,P|104:216|73:275,1,102,4|0,1:2|0:0,0:0:0:0:
37,320,116554,1,0,0:0:0:0:
198,282,116704,1,2,0:0:0:0:
21,221,116854,1,0,0:0:0:0:
319,253,117154,6,0,L|330:139,1,102,2|0,1:3|0:0,0:0:0:0:
282,80,117454,1,0,0:0:0:0:
420,130,117604,1,2,0:0:0:0:
255,90,117754,1,0,0:0:0:0:
413,26,117904,1,0,0:0:0:0:
228,100,118054,6,0,L|112:103,1,102,0|0,1:0|0:0,0:0:0:0:
41,103,118354,1,2,0:0:0:0:
202,9,118504,1,0,0:0:0:0:
133,203,118654,2,0,P|133:254|145:283,1,68,4|0,0:0|0:0,0:0:0:0:
319,347,118954,6,0,P|330:276|293:223,1,136,2|0,1:3|0:0,0:0:0:0:
133,203,119404,1,0,0:0:0:0:
236,300,119554,1,4,0:3:0:0:
274,149,119704,1,0,0:0:0:0:
217,310,119854,6,0,L|104:316,1,102,2|0,1:2|0:0,0:0:0:0:
30,316,120154,1,0,0:0:0:0:
7,147,120304,1,2,0:0:0:0:
142,44,120454,1,4,0:0:0:0:
142,44,120754,6,0,P|158:84|140:154,1,102,2|0,1:2|0:0,0:0:0:0:
96,208,121054,1,0,0:0:0:0:
257,116,121204,1,2,0:0:0:0:
62,98,121354,1,2,0:3:0:0:
279,119,121504,1,0,0:0:0:0:
83,223,121654,6,0,L|91:332,1,102,0|0,1:0|0:0,0:0:0:0:
146,384,121954,1,0,1:0:0:0:
122,136,122104,1,2,0:0:0:0:
258,248,122254,1,0,1:0:0:0:
10,272,122404,1,0,1:0:0:0:
276,248,122554,6,0,B|337:236|337:236|410:252,1,127.5,8|0,0:3|0:0,0:0:0:0:
336,349,122887,6,0,L|220:367,1,95.6250036478044,4|0,0:3|0:0,0:0:0:0:
167,328,123250,5,4,0:3:0:0:
276,248,123437,1,0,0:0:0:0:
291,34,123625,5,4,0:1:0:0:
256,192,123718,12,2,126625,0:0:0:0:
