osu file format v14

[General]
AudioFilename: audio.mp3
AudioLeadIn: 0
PreviewTime: 79804
Countdown: 0
SampleSet: Soft
StackLeniency: 0.7
Mode: 0
LetterboxInBreaks: 0
WidescreenStoryboard: 0

[Editor]
Bookmarks: 80254,94654
DistanceSpacing: 1.8
BeatDivisor: 4
GridSize: 4
TimelineZoom: 2.08

[Metadata]
Title:Kaze no Uta
TitleUnicode:風の唄
Artist:MAMI
ArtistUnicode:MAMI
Creator:Garden
Version:Extra
Source:ニュートンと林檎の樹
Tags:sahuang my angel azusa misure momochikun opening newton to ringo no ki newrin Laplacian eroge visual novel
BeatmapID:1315307
BeatmapSetID:624037

[Difficulty]
HPDrainRate:7
CircleSize:4.2
OverallDifficulty:8.5
ApproachRate:9.2
SliderMultiplier:1.6
SliderTickRate:1

[Events]
//Background and Video events
0,0,"landscape.jpg",0,0
//Break Periods
//Storyboard Layer 0 (Background)
//Storyboard Layer 1 (Fail)
//Storyboard Layer 2 (Pass)
//Storyboard Layer 3 (Foreground)
//Storyboard Sound Samples

[TimingPoints]
8254,300,6,2,1,50,1,0
8254,-133.333333333333,6,2,1,50,0,0
22654,-100,6,2,1,75,0,0
33454,-400,6,2,1,60,0,0
36754,-133.333333333333,6,2,1,50,0,0
37054,-133.333333333333,6,2,1,55,0,0
49654,-100,6,2,1,57,0,0
50554,-133.333333333333,6,2,1,65,0,0
50629,-133.333333333333,6,2,1,5,0,0
50854,-200,6,2,1,65,0,0
51079,-200,6,2,1,5,0,0
51154,-133.333333333333,6,2,1,65,0,0
51379,-133.333333333333,6,2,1,5,0,0
51454,-100,6,2,1,65,0,0
64954,-83.3333333333333,6,2,1,65,0,0
65179,-100,6,2,1,5,0,0
65254,-83.3333333333333,6,2,1,65,0,0
65479,-100,6,2,1,5,0,0
65554,-83.3333333333333,6,2,1,65,0,0
65779,-100,6,2,1,5,0,0
65854,-100,6,2,1,65,0,0
68854,-83.3333333333333,6,2,1,45,0,0
69079,-83.3333333333333,6,2,1,5,0,0
69154,-100,6,2,1,65,0,0
69229,-100,6,2,1,30,0,0
69454,-100,6,2,1,65,0,0
72454,-83.3333333333333,6,2,1,45,0,0
72679,-83.3333333333333,6,2,1,5,0,0
72754,-100,6,2,1,65,0,0
76054,-83.3333333333333,6,2,1,50,0,0
76279,-83.3333333333333,6,2,1,5,0,0
76354,-100,6,2,1,65,0,0
76879,-100,6,2,1,5,0,0
76954,-100,6,2,1,65,0,0
77179,-100,6,2,1,5,0,0
77254,-100,6,2,1,65,0,0
77479,-100,6,2,1,5,0,0
77554,-100,6,2,1,65,0,0
77779,-100,6,2,1,5,0,0
77854,-100,6,2,1,65,0,0
78079,-100,6,2,1,5,0,0
78154,-40,6,2,1,80,0,0
78379,-100,6,2,1,5,0,0
78454,-100,6,2,1,65,0,0
78754,-100,6,2,1,70,0,0
80254,-76.9230769230769,6,2,1,80,0,1
82654,-76.9230769230769,6,2,1,50,0,1
82879,-76.9230769230769,6,2,1,5,0,1
82954,-76.9230769230769,6,2,1,80,0,1
86254,-76.9230769230769,6,2,1,50,0,1
86479,-76.9230769230769,6,2,1,5,0,1
86554,-76.9230769230769,6,2,1,80,0,1
86779,-76.9230769230769,6,2,1,5,0,1
86854,-76.9230769230769,6,2,1,80,0,1
87079,-76.9230769230769,6,2,1,5,0,1
87154,-76.9230769230769,6,2,1,80,0,1
89854,-76.9230769230769,6,2,1,50,0,1
90079,-76.9230769230769,6,2,1,5,0,1
90154,-76.9230769230769,6,2,1,80,0,1
92554,-76.9230769230769,6,2,1,50,0,1
92779,-76.9230769230769,6,2,1,5,0,1
92854,-76.9230769230769,6,2,1,80,0,1
93754,-76.9230769230769,6,2,1,55,0,1
94354,-100,6,2,1,80,0,1
94654,-76.9230769230769,6,2,1,80,0,1
97054,-76.9230769230769,6,2,1,50,0,1
97279,-76.9230769230769,6,2,1,5,0,1
97354,-76.9230769230769,6,2,1,80,0,1
100654,-76.9230769230769,6,2,1,50,0,1
100879,-76.9230769230769,6,2,1,5,0,1
100954,-76.9230769230769,6,2,1,80,0,1
101179,-76.9230769230769,6,2,1,5,0,1
101254,-76.9230769230769,6,2,1,80,0,1
101479,-76.9230769230769,6,2,1,5,0,1
101554,-76.9230769230769,6,2,1,80,0,1
104254,-76.9230769230769,6,2,1,50,0,1
104479,-76.9230769230769,6,2,1,5,0,1
104554,-76.9230769230769,6,2,1,80,0,1
107854,-76.9230769230769,6,2,1,50,0,1
108079,-76.9230769230769,6,2,1,5,0,1
108154,-76.9230769230769,6,2,1,80,0,1
108379,-76.9230769230769,6,2,1,5,0,1
108454,-76.9230769230769,6,2,1,80,0,1
109054,-90.9090909090909,6,2,1,75,0,0
111454,-90.9090909090909,6,2,1,50,0,0
111679,-90.9090909090909,6,2,1,5,0,0
111754,-90.9090909090909,6,2,1,75,0,0
118654,-90.9090909090909,6,2,1,50,0,0
118879,-90.9090909090909,6,2,1,5,0,0
118954,-90.9090909090909,6,2,1,75,0,0
120454,-90.9090909090909,6,2,1,50,0,0
120679,-90.9090909090909,6,2,1,5,0,0
120754,-90.9090909090909,6,2,1,75,0,0
121879,-90.9090909090909,6,2,1,5,0,0
121954,-90.9090909090909,6,2,1,75,0,0
122254,-90.9090909090909,6,2,1,50,0,0
122554,333.333333333333,6,2,1,70,1,0
122804,-100,6,2,1,5,0,0
122887,363.636363636364,6,2,1,65,1,0
122887,-125,6,2,1,65,0,0
123250,375,6,2,1,60,1,0
123250,-166.666666666667,6,2,1,60,0,0
123625,375,4,2,1,70,1,0
123718,-100,4,2,1,20,0,0

[Colours]
Combo1 : 115,255,150
Combo2 : 255,255,94
Combo3 : 136,189,255
Combo4 : 255,174,136

[HitObjects]
70,299,15454,6,0,P|63:233|54:167,1,120.000004577637,2|0,3:2|0:0,0:0:0:0:
162,265,15904,1,2,3:2:0:0:
162,265,16204,2,0,P|231:272|291:218,1,120.000004577637,2|0,3:2|0:0,0:0:0:0:
249,112,16654,2,0,P|241:146|237:172,1,60.0000022888184,2|0,3:2|0:0,0:0:0:0:
354,275,16954,2,0,P|360:244|365:206,1,60.0000022888184,2|0,3:2|0:0,0:0:0:0:
172,60,17254,6,0,P|155:136|149:188,1,120.000004577637,2|0,3:2|0:0,0:0:0:0:
258,26,17704,1,2,3:2:0:0:
258,26,18004,2,0,L|406:18,1,120.000004577637,2|0,3:2|0:0,0:0:0:0:
379,164,18454,2,0,P|373:137|371:102,1,60.0000022888184,2|0,3:2|0:0,0:0:0:0:
462,0,18754,2,0,P|469:34|471:85,1,60.0000022888184,2|0,3:2|0:0,0:0:0:0:
307,229,19054,6,0,P|290:166|279:94,1,120.000004577637,2|0,3:2|0:0,0:0:0:0:
397,252,19504,1,2,3:2:0:0:
397,252,19804,2,0,P|352:309|304:319,1,120.000004577637,2|0,3:2|0:0,0:0:0:0:
176,384,20254,2,0,L|235:378,1,60.0000022888184,2|0,3:2|0:0,0:0:0:0:
254,247,20554,2,0,L|191:253,1,60.0000022888184,2|0,3:2|0:0,0:0:0:0:
13,325,20854,6,0,L|155:312,1,120.000004577637,2|0,3:2|0:0,0:0:0:0:
44,239,21304,1,2,3:2:0:0:
44,239,21604,2,0,P|26:165|24:109,1,120.000004577637,2|0,3:2|0:0,0:0:0:0:
172,146,22054,2,0,L|98:144,1,60.0000022888184,2|0,3:2|0:0,0:0:0:0:
0,38,22354,2,0,L|65:43,1,60.0000022888184,2|0,3:2|0:0,0:0:0:0:
240,76,22654,6,0,P|268:154|217:237,2,160,4|2|4,0:2|0:0|0:3,0:0:0:0:
172,146,23404,1,0,0:0:0:0:
349,212,23554,6,0,L|433:192,1,80,2|0,1:3|0:0,0:0:0:0:
474,81,23854,2,0,L|391:101,1,80,2|0,0:0|0:0,0:0:0:0:
344,238,24154,2,0,B|362:243|362:243|433:225,1,80,2|0,0:0|0:0,0:0:0:0:
492,61,24454,6,0,B|473:55|473:55|318:90,1,160,0|2,1:0|0:0,0:0:0:0:
150,175,24904,1,0,0:0:0:0:
237,233,25054,2,0,P|250:196|251:154,1,80,4|0,0:3|0:0,0:0:0:0:
84,94,25354,6,0,L|169:68,1,80,2|0,1:3|0:0,0:0:0:0:
104,271,25654,2,0,L|53:210,1,80,2|0,0:0|0:0,0:0:0:0:
251,155,25954,2,0,L|233:254,1,80,2|0,0:0|0:0,0:0:0:0:
150,175,26254,6,0,B|250:155|250:155|321:168,1,160,0|2,1:0|0:0,0:0:0:0:
504,203,26704,1,0,0:0:0:0:
402,232,26854,2,0,P|401:192|411:154,1,80,4|0,0:3|0:0,0:0:0:0:
512,312,27154,6,0,P|441:330|353:364,1,160,2|2,1:3|0:0,0:0:0:0:
279,256,27604,1,0,0:0:0:0:
185,370,27754,2,0,P|234:353|290:344,1,80,4|0,0:3|0:0,0:0:0:0:
402,232,28054,6,0,P|404:156|402:52,1,160,0|2,1:0|0:0,0:0:0:0:
507,70,28504,1,0,0:0:0:0:
303,161,28654,2,0,P|257:176|226:183,1,80,4|0,0:3|0:0,0:0:0:0:
117,121,28954,6,0,L|129:19,1,80,2|0,1:3|0:0,0:0:0:0:
54,250,29254,2,0,L|28:175,1,80,2|0,0:0|0:0,0:0:0:0:
91,384,29554,2,0,L|14:338,1,80,2|0,0:0|0:0,0:0:0:0:
154,275,29854,6,0,B|238:263|214:327|313:314,1,160,4|0,1:2|0:0,0:0:0:0:
433,179,30304,1,2,0:0:0:0:
293,223,30454,1,0,0:0:0:0:
293,223,30754,6,0,P|295:183|303:134,1,80,2|0,1:3|0:0,0:0:0:0:
398,266,31054,1,0,0:0:0:0:
300,143,31204,1,2,0:0:0:0:
398,266,31354,1,0,0:0:0:0:
398,266,31654,6,0,P|404:226|406:175,1,80,0|0,1:0|0:0,0:0:0:0:
310,322,31954,1,0,0:0:0:0:
406,186,32104,1,2,0:0:0:0:
310,322,32254,1,0,0:0:0:0:
310,322,32554,6,0,P|224:325|143:334,1,160,2|0,1:3|0:0,0:0:0:0:
0,255,33004,1,2,0:0:0:0:
126,173,33154,2,0,P|107:217|94:256,1,80,4|0,0:3|0:0,0:0:0:0:
240,195,33454,6,0,B|243:156|243:156|229:116|229:116|235:75,2,120,4|2|2,0:0|0:0|0:0,0:0:0:0:
240,195,36154,5,2,0:0:0:0:
365,142,36454,1,0,0:0:0:0:
365,142,36604,1,0,0:0:0:0:
446,178,36754,2,0,P|480:176|524:168,1,60.0000022888184
395,60,37054,6,0,P|344:63|261:73,1,120.000004577637,2|0,0:0|0:0,0:0:0:0:
235,254,37654,2,0,P|238:221|239:187,1,60.0000022888184,2|0,0:0|0:0,0:0:0:0:
165,5,37954,2,0,P|167:72|172:144,1,120.000004577637,2|0,0:0|0:0,0:0:0:0:
330,167,38404,1,0,0:0:0:0:
330,167,38554,2,0,L|403:159,1,60.0000022888184,2|0,0:0|0:0,0:0:0:0:
235,254,38854,6,0,P|182:251|104:249,1,120.000004577637,2|0,0:0|0:0,0:0:0:0:
67,87,39454,2,0,P|86:119|92:142,1,60.0000022888184,2|0,0:0|0:0,0:0:0:0:
20,335,39754,2,0,P|24:272|26:201,1,120.000004577637,2|0,0:0|0:0,0:0:0:0:
119,253,40204,1,0,0:0:0:0:
119,253,40354,2,0,P|153:250|200:240,1,60.0000022888184,2|0,0:0|0:0,0:0:0:0:
334,134,40654,6,0,P|279:129|220:179,2,120.000004577637,2|2|2,0:0|0:0|0:0,0:0:0:0:
295,340,41554,2,0,P|296:280|299:220,1,120.000004577637,2|0,0:0|0:0,0:0:0:0:
414,98,42004,1,2,0:0:0:0:
414,98,42154,2,0,P|419:130|422:174,1,60.0000022888184,2|0,0:0|0:0,0:0:0:0:
227,164,42454,6,0,P|275:129|334:134,2,120.000004577637,2|0|0,0:0|0:0|0:0,0:0:0:0:
461,230,43354,1,2,0:0:0:0:
461,230,43654,2,0,P|427:240|399:253,1,60.0000022888184
251,283,43954,2,0,P|276:268|301:249,1,60.0000022888184,2|0,0:0|0:0,0:0:0:0:
369,154,44254,6,0,P|363:103|360:27,1,120.000004577637,2|0,0:0|0:0,0:0:0:0:
378,297,44854,2,0,P|409:293|446:288,1,60.0000022888184,2|0,0:0|0:0,0:0:0:0:
300,249,45154,2,0,P|242:243|181:239,1,120.000004577637,2|0,0:0|0:0,0:0:0:0:
238,153,45604,1,0,0:0:0:0:
238,153,45754,2,0,P|241:119|243:85,1,60.0000022888184,2|0,0:0|0:0,0:0:0:0:
136,0,46054,6,0,P|133:68|129:133,1,120.000004577637,2|0,0:0|0:0,0:0:0:0:
11,313,46654,2,0,P|6:281|-1:236,1,60.0000022888184,2|0,0:0|0:0,0:0:0:0:
186,194,46954,2,0,P|131:212|62:183,1,120.000004577637,2|0,0:0|0:0,0:0:0:0:
224,116,47404,1,0,0:0:0:0:
224,116,47554,2,0,L|222:39,1,60.0000022888184,2|0,0:0|0:0,0:0:0:0:
307,159,47854,6,0,P|303:219|302:279,1,120.000004577637,2|0,0:0|0:0,0:0:0:0:
209,286,48304,1,2,0:0:0:0:
394,223,48454,1,0,0:0:0:0:
394,223,48754,6,0,P|457:221|511:174,1,120.000004577637,2|0,0:0|0:0,0:0:0:0:
302,279,49204,1,2,0:0:0:0:
421,133,49354,1,0,0:0:0:0:
421,133,49654,6,0,P|426:87|435:46,1,80,2|0,0:0|0:0,0:0:0:0:
322,115,49954,2,0,P|284:121|243:126,1,80,2|0,0:0|0:0,0:0:0:0:
120,224,50254,2,0,P|168:216|217:211,1,80,2|0,0:0|0:0,0:0:0:0:
175,39,50554,6,0,L|164:72,1,30.0000011444092,10|0,3:0|0:0,0:0:0:0:
175,39,50854,6,0,L|105:47,1,60,4|0,0:0|0:0,0:0:0:0:
100,32,51154,6,0,L|206:21,1,90.0000034332277,4|0,3:0|0:0,0:0:0:0:
266,39,51454,6,0,P|337:26|407:87,1,160,4|2,0:0|0:0,0:0:0:0:
463,228,51904,1,0,0:0:0:0:
463,228,52054,2,0,P|470:181|482:127,1,80,2|0,0:0|0:0,0:0:0:0:
318,118,52354,6,0,P|324:207|329:284,1,160,0|2,1:0|0:0,0:0:0:0:
152,260,52804,1,0,0:0:0:0:
152,260,52954,2,0,P|202:245|238:238,1,80,2|0,0:0|0:0,0:0:0:0:
415,323,53254,6,0,P|355:370|274:360,1,160,0|2,1:0|0:0,0:0:0:0:
308,200,53704,1,0,0:0:0:0:
308,200,53854,2,0,P|320:243|328:278,1,80,2|0,0:0|0:0,0:0:0:0:
500,384,54154,6,0,P|501:312|500:206,1,160,0|2,1:0|0:0,0:0:0:0:
373,118,54604,1,0,0:0:0:0:
373,118,54754,2,0,P|421:129|464:135,1,80,2|0,0:0|0:0,0:0:0:0:
308,200,55054,6,0,B|242:232|218:175|141:214,1,160,0|2,1:0|0:0,0:0:0:0:
151,209,55504,1,0,0:0:0:0:
265,116,55654,2,0,P|269:81|267:29,1,80,2|0,0:0|0:0,0:0:0:0:
6,116,55954,6,0,B|53:109|53:109|120:123|120:123|166:116,1,160,0|2,1:0|0:0,0:0:0:0:
163,116,56404,1,0,0:0:0:0:
47,209,56554,2,0,B|39:247|39:247|45:301,1,80,2|0,0:0|0:0,0:0:0:0:
189,354,56854,6,0,P|281:361|339:303,1,160,0|2,1:0|0:0,0:0:0:0:
340,142,57304,1,0,0:0:0:0:
243,270,57454,1,2,0:0:0:0:
243,270,57604,1,0,0:0:0:0:
455,354,57754,1,4,0:0:0:0:
455,354,58054,6,0,P|457:320|459:249,1,80,2|0,0:0|0:0,0:0:0:0:
341,62,58354,2,0,P|339:101|339:141,1,80,2|0,0:0|0:0,0:0:0:0:
512,200,58654,6,0,P|436:185|376:234,1,160,0|2,1:0|0:0,0:0:0:0:
311,384,59104,1,0,0:0:0:0:
214,307,59254,2,0,P|260:300|308:290,1,80,2|0,0:0|0:0,0:0:0:0:
375,234,59554,6,0,P|369:150|363:70,1,160,0|2,1:0|0:0,0:0:0:0:
243,0,60004,1,0,0:0:0:0:
183,110,60154,2,0,P|239:99|272:93,1,80,2|0,0:0|0:0,0:0:0:0:
277,186,60454,6,0,L|94:218,1,160,0|2,1:0|0:0,0:0:0:0:
256,294,60904,1,0,0:0:0:0:
152,384,61054,2,0,P|153:345|156:298,1,80,2|0,0:0|0:0,0:0:0:0:
23,267,61354,6,0,P|19:195|9:85,1,160,0|2,1:0|0:0,0:0:0:0:
119,213,61804,1,0,0:0:0:0:
279,144,61954,2,0,P|239:146|200:151,1,80,2|0,0:0|0:0,0:0:0:0:
12,15,62254,6,0,P|83:49|91:149,1,160,0|2,1:0|0:0,0:0:0:0:
15,111,62704,1,0,0:0:0:0:
178,33,62854,1,2,0:0:0:0:
15,111,63004,1,0,0:0:0:0:
178,33,63154,6,0,P|273:29|339:28,1,160,0|2,1:0|0:0,0:0:0:0:
439,48,63604,1,0,0:0:0:0:
258,121,63754,1,2,0:0:0:0:
439,48,63904,1,0,0:0:0:0:
258,121,64054,6,0,P|208:204|233:272,1,160,0|2,1:0|0:0,0:0:0:0:
360,117,64504,1,0,0:0:0:0:
397,225,64654,2,0,L|293:205,1,80,2|0,0:0|0:0,0:0:0:0:
185,354,64954,6,0,P|261:355|314:294,1,143.999995605469,4|0,0:0|0:0,0:0:0:0:
237,189,65254,2,0,B|214:156|214:156|224:265,1,143.999995605469,0|0,1:0|0:0,0:0:0:0:
393,365,65554,2,0,B|411:314|411:314|396:224,1,143.999995605469,0|0,1:0|0:0,0:0:0:0:
307,310,65854,6,0,P|247:358|156:332,1,160,4|2,0:0|0:0,0:0:0:0:
99,264,66304,1,0,0:0:0:0:
99,264,66454,2,0,P|94:217|107:171,1,80,2|0,0:0|0:0,0:0:0:0:
232,8,66754,6,0,P|238:56|222:105,1,80,2|0,0:3|0:0,0:0:0:0:
39,106,67054,2,0,P|73:87|119:85,1,80,2|0,0:0|0:0,0:0:0:0:
314,152,67354,2,0,P|361:150|397:129,1,80,2|0,0:0|0:0,0:0:0:0:
219,193,67654,6,0,B|189:285|245:271|214:365,1,160,2|2,0:3|0:0,0:0:0:0:
118,316,68104,1,0,0:0:0:0:
118,316,68254,2,0,L|29:321,1,80,2|0,0:0|0:0,0:0:0:0:
312,241,68554,2,0,L|415:250,1,80,2|0,0:3|0:0,0:0:0:0:
262,121,68854,6,0,P|193:111|140:156,1,143.999995605469,4|0,0:0|0:0,0:0:0:0:
212,232,69154,2,0,L|220:183,1,40,0|0,1:0|1:0,0:0:0:0:
212,232,69454,6,0,P|280:223|386:213,1,160,2|2,0:3|0:0,0:0:0:0:
372,33,69904,1,0,0:0:0:0:
372,33,70054,2,0,P|359:78|360:122,1,80,2|0,0:0|0:0,0:0:0:0:
472,269,70354,5,2,0:3:0:0:
472,269,70654,2,0,P|482:223|480:167,1,80,2|0,0:0|0:0,0:0:0:0:
329,384,70954,2,0,P|356:345|371:307,1,80,2|0,0:0|0:0,0:0:0:0:
222,168,71254,6,0,B|294:156|288:228|388:212,1,160,2|2,0:3|0:0,0:0:0:0:
228,362,71704,2,0,P|182:375|131:389,1,80,2|2,0:3|0:0,0:0:0:0:
152,278,72004,1,0,0:0:0:0:
152,278,72154,2,0,P|193:263|243:253,1,80,2|0,0:3|0:0,0:0:0:0:
49,340,72454,6,0,P|29:279|67:203,1,143.999995605469,4|0,0:0|0:0,0:0:0:0:
115,153,72754,2,0,L|103:58,1,80,0|0,1:0|0:0,0:0:0:0:
237,177,73054,6,0,L|249:10,1,160,2|2,0:3|0:0,0:0:0:0:
338,160,73504,1,0,0:0:0:0:
473,76,73654,2,0,P|427:79|388:85,1,80,2|0,0:0|0:0,0:0:0:0:
221,321,73954,5,2,0:3:0:0:
221,321,74254,2,0,L|313:310,1,80,2|0,0:0|0:0,0:0:0:0:
512,163,74554,2,0,L|418:175,1,80,2|0,0:0|0:0,0:0:0:0:
375,372,74854,6,0,P|395:311|342:224,1,160,2|2,0:3|0:0,0:0:0:0:
188,141,75304,1,2,0:3:0:0:
300,71,75454,2,0,L|291:154,1,80,2|0,0:0|0:0,0:0:0:0:
105,267,75754,2,0,L|93:188,1,80,2|0,0:3|0:0,0:0:0:0:
352,230,76054,6,0,P|277:245|209:203,1,143.999995605469,4|0,0:0|0:0,0:0:0:0:
188,141,76354,2,0,L|199:38,1,80,0|0,1:0|0:0,0:0:0:0:
179,299,76654,6,0,P|120:303|61:316,1,120,0|0,1:0|0:0,0:0:0:0:
222,288,76954,6,0,P|163:278|104:266,1,120,0|0,1:0|0:0,0:0:0:0:
265,300,77254,6,0,P|208:318|153:341,1,120,0|0,1:0|0:0,0:0:0:0:
308,286,77554,6,0,P|253:263|200:236,1,120,0|0,1:0|0:0,0:0:0:0:
348,308,77854,6,0,P|290:345|242:379,1,120,0|0,1:0|0:0,0:0:0:0:
61,316,78154,6,0,B|226:250|180:387|359:304,1,300,12|0,1:3|0:0,0:0:0:0:
445,234,78454,5,0,1:0:0:0:
445,234,78754,5,0,1:0:0:0:
445,234,78904,1,0,1:0:0:0:
283,158,79054,1,0,1:0:0:0:
348,308,79204,1,4,3:0:0:0:
386,90,79354,1,0,1:0:0:0:
348,308,79654,5,8,3:0:0:0:
445,234,79804,1,0,1:0:0:0:
237,289,79954,1,4,3:0:0:0:
237,289,80104,1,4,3:0:0:0:
445,234,80254,6,0,B|453:165|453:165|431:104|431:104|445:30,1,207.999990478516,4|2,0:1|0:0,0:0:0:0:
352,184,80704,1,0,0:0:0:0:
512,305,80854,1,2,0:0:0:0:
261,275,81004,1,0,0:0:0:0:
457,130,81154,6,0,L|444:233,1,103.999995239258,8|0,1:2|0:0,0:0:0:0:
272,378,81454,2,0,L|260:270,1,103.999995239258,2|0,0:0|0:0,0:0:0:0:
129,87,81754,2,0,L|115:203,1,103.999995239258,2|0,0:0|0:0,0:0:0:0:
42,169,81979,1,0,0:0:0:0:
42,169,82054,6,0,P|105:115|194:180,1,207.999990478516,2|2,3:0|0:0,0:0:0:0:
262,2,82504,1,0,0:0:0:0:
411,128,82654,2,0,B|367:111|296:107|296:107|321:97|338:79,1,155.999992858887,4|0,0:0|0:0,0:0:0:0:
469,67,82954,6,0,P|491:114|473:188,1,103.999995239258,8|0,1:2|0:0,0:0:0:0:
181,234,83254,2,0,P|244:226|308:221,1,103.999995239258,2|0,0:0|0:0,0:0:0:0:
512,291,83554,2,0,P|460:286|408:284,1,103.999995239258,2|0,0:0|0:0,0:0:0:0:
321,316,83779,1,0,0:0:0:0:
321,316,83854,6,0,B|291:286|287:237|287:237|307:201|307:201|292:159|324:101,1,207.999990478516,2|2,3:0|0:0,0:0:0:0:
469,67,84304,1,0,0:0:0:0:
296,21,84454,1,2,0:0:0:0:
484,168,84604,1,0,0:0:0:0:
276,249,84754,6,0,P|217:223|174:211,1,103.999995239258,8|0,1:2|0:0,0:0:0:0:
296,21,85054,2,0,P|303:85|314:128,1,103.999995239258,2|0,0:0|0:0,0:0:0:0:
80,114,85354,2,0,P|131:75|163:44,1,103.999995239258,2|0,0:0|0:0,0:0:0:0:
219,129,85579,1,0,0:0:0:0:
219,129,85654,6,0,P|140:132|85:243,1,207.999990478516,2|2,3:0|0:0,0:0:0:0:
300,147,86104,1,0,0:0:0:0:
192,361,86254,2,0,B|168:318|168:318|180:192,1,155.999992858887,4|0,0:0|0:0,0:0:0:0:
262,225,86554,6,0,P|337:224|386:166,1,155.999992858887,4|0,1:3|0:0,0:0:0:0:
341,70,86854,2,0,P|266:70|212:127,1,155.999992858887,4|0,1:3|0:0,0:0:0:0:
300,147,87154,1,2,0:0:0:0:
197,0,87304,1,0,0:0:0:0:
61,255,87454,6,0,B|111:265|153:241|153:241|182:243|182:243|223:220|268:226,1,207.999990478516,2|2,3:0|0:0,0:0:0:0:
93,164,87904,1,0,0:0:0:0:
286,227,88054,1,2,0:0:0:0:
141,82,88204,1,0,0:0:0:0:
255,321,88354,6,0,P|353:296|379:192,1,207.999990478516,8|2,1:2|0:0,0:0:0:0:
160,372,88804,1,0,0:0:0:0:
286,227,88954,1,2,0:0:0:0:
93,164,89104,1,0,0:0:0:0:
373,66,89254,6,0,B|384:115|355:159|355:159|380:201|380:201|374:262,1,207.999990478516,2|2,3:0|0:0,0:0:0:0:
274,93,89704,1,0,0:0:0:0:
424,345,89854,2,0,B|382:365|327:345|327:345|304:350|304:350|271:343,1,155.999992858887,4|0,0:0|0:0,0:0:0:0:
162,346,90154,6,0,P|156:302|167:243,1,103.999995239258,8|0,1:2|0:0,0:0:0:0:
374,191,90454,2,0,P|319:211|266:210,1,103.999995239258,2|0,0:0|0:0,0:0:0:0:
99,78,90754,2,0,P|155:99|191:152,1,103.999995239258,2|0,0:0|0:0,0:0:0:0:
99,180,90979,1,0,0:0:0:0:
99,180,91054,6,0,P|201:164|260:254,1,207.999990478516,2|2,3:0|0:0,0:0:0:0:
301,87,91504,1,0,0:0:0:0:
166,243,91654,2,0,L|161:366,1,103.999995239258,2|0,0:0|0:0,0:0:0:0:
383,180,91954,6,0,B|332:177|332:177|280:197,1,103.999995239258,8|0,1:2|0:0,0:0:0:0:
63,365,92254,2,0,B|113:367|113:367|163:346,1,103.999995239258,2|0,0:0|0:0,0:0:0:0:
232,295,92479,1,0,0:0:0:0:
232,295,92554,2,0,B|242:191|242:191|218:110,1,155.999992858887,4|0,0:0|0:0,0:0:0:0:
155,199,92854,5,4,0:0:0:0:
394,267,93004,1,0,1:0:0:0:
96,268,93154,5,4,0:0:0:0:
452,196,93304,1,0,1:0:0:0:
128,115,93454,5,4,0:0:0:0:
404,353,93604,1,0,1:0:0:0:
96,268,93754,5,8,0:3:0:0:
228,160,93904,1,8,0:3:0:0:
184,321,94054,1,4,0:3:0:0:
315,221,94204,1,4,0:3:0:0:
128,115,94354,6,0,P|119:159|124:194,1,80,2|0,0:0|0:0,0:0:0:0:
315,221,94654,6,0,B|381:202|381:202|463:213|463:213|538:192,1,207.999990478516,4|2,0:1|0:0,0:0:0:0:
386,299,95104,1,0,0:0:0:0:
260,142,95254,1,2,0:0:0:0:
219,357,95404,1,0,0:0:0:0:
415,192,95554,6,0,L|315:221,1,103.999995239258,8|0,1:2|0:0,0:0:0:0:
106,49,95854,2,0,L|205:78,1,103.999995239258,2|0,0:0|0:0,0:0:0:0:
146,267,96154,2,0,L|46:237,1,103.999995239258,2|0,0:0|0:0,0:0:0:0:
30,135,96379,1,0,0:0:0:0:
30,135,96454,6,0,B|73:150|73:150|106:150|106:150|138:168|138:168|186:168|259:199,1,207.999990478516,2|2,3:0|0:0,0:0:0:0:
455,205,96904,1,0,0:0:0:0:
313,108,97054,2,0,B|330:138|354:152|354:152|334:196|346:244,1,155.999992858887,4|0,0:0|0:0,0:0:0:0:
337,31,97354,6,0,P|283:33|235:75,1,103.999995239258,8|0,1:2|0:0,0:0:0:0:
455,205,97654,2,0,P|462:144|451:102,1,103.999995239258,2|0,0:0|0:0,0:0:0:0:
265,298,97954,2,0,P|305:330|381:335,1,103.999995239258,2|0,0:0|0:0,0:0:0:0:
349,249,98179,1,0,0:0:0:0:
349,249,98254,6,0,B|298:279|244:260|244:260|192:279|192:279|134:271,1,207.999990478516,2|2,3:0|0:0,0:0:0:0:
287,158,98704,1,0,0:0:0:0:
248,362,98854,1,2,0:0:0:0:
292,138,99004,1,0,0:0:0:0:
452,259,99154,6,0,P|405:251|329:250,1,103.999995239258,8|0,1:2|0:0,0:0:0:0:
470,81,99454,2,0,P|486:125|523:192,1,103.999995239258,2|0,0:0|0:0,0:0:0:0:
287,158,99754,2,0,P|317:121|356:55,1,103.999995239258,2|0,0:0|0:0,0:0:0:0:
404,170,99979,1,0,0:0:0:0:
404,170,100054,6,0,B|392:328|392:328|413:304|441:286,1,207.999990478516,2|2,3:0|0:0,0:0:0:0:
512,175,100504,1,0,0:0:0:0:
305,256,100654,2,0,L|137:246,1,155.999992858887,4|0,0:0|0:0,0:0:0:0:
201,180,100954,6,0,P|229:261|177:328,1,155.999992858887,8|0,1:3|0:0,0:0:0:0:
96,315,101254,2,0,P|67:236|109:170,1,155.999992858887,8|0,1:3|0:0,0:0:0:0:
149,246,101554,1,2,0:0:0:0:
0,375,101704,1,0,0:0:0:0:
272,283,101854,6,0,B|322:267|322:267|377:269|377:269|418:262|418:262|476:267,1,207.999990478516,2|2,3:0|0:0,0:0:0:0:
149,246,102304,1,0,0:0:0:0:
339,182,102454,1,2,0:0:0:0:
195,368,102604,1,0,0:0:0:0:
388,309,102754,6,0,B|397:239|397:239|372:183|372:183|382:94,1,207.999990478516,8|2,1:2|0:0,0:0:0:0:
304,256,103204,1,0,0:0:0:0:
466,160,103354,1,2,0:0:0:0:
224,205,103504,1,0,0:0:0:0:
512,332,103654,6,0,B|445:346|387:308|387:308|361:349|299:354,1,207.999990478516,2|2,3:0|0:0,0:0:0:0:
380,107,104104,1,0,0:0:0:0:
243,300,104254,2,0,P|301:335|305:265,1,155.999992858887,4|0,0:0|0:0,0:0:0:0:
244,217,104554,6,0,L|124:243,1,103.999995239258,8|0,1:2|0:0,0:0:0:0:
348,73,104854,2,0,L|450:53,1,103.999995239258,2|0,0:0|0:0,0:0:0:0:
163,26,105154,2,0,L|38:52,1,103.999995239258,2|0,0:0|0:0,0:0:0:0:
21,140,105379,1,0,0:0:0:0:
21,140,105454,6,0,L|143:116,1,103.999995239258,2|0,3:0|0:0,0:0:0:0:
348,73,105754,1,2,0:0:0:0:
244,217,105904,1,0,0:0:0:0:
483,45,106054,1,2,0:0:0:0:
483,45,106354,6,0,L|500:148,1,103.999995239258,8|0,1:2|0:0,0:0:0:0:
244,217,106654,1,2,0:0:0:0:
462,261,106804,1,0,0:0:0:0:
204,124,106954,1,2,0:0:0:0:
204,124,107254,6,0,P|288:127|336:249,1,207.999990478516,2|2,3:0|0:0,0:0:0:0:
131,262,107704,1,0,0:0:0:0:
254,372,107854,2,0,L|242:193,1,155.999992858887,4|0,0:0|0:0,0:0:0:0:
104,347,108154,6,0,B|138:374|138:374|130:260,1,155.999992858887,4|0,1:2|0:0,0:0:0:0:
125,160,108454,1,4,1:2:0:0:
254,372,108604,1,2,0:0:0:0:
3,246,108754,1,4,1:2:0:0:
256,69,108904,1,0,1:0:0:0:
509,246,109054,6,0,P|431:237|323:228,2,176.000005371094,4|2|2,1:0|0:0|0:0,0:0:0:0:
457,145,109804,1,0,0:0:0:0:
295,326,109954,6,0,P|234:264|245:174,1,176.000005371094,0|2,1:0|0:0,0:0:0:0:
333,228,110404,1,0,0:0:0:0:
180,367,110554,2,0,P|129:365|75:363,1,88.000002685547,4|0,0:3|0:0,0:0:0:0:
295,326,110854,6,0,P|384:314|496:303,1,176.000005371094,2|2,1:3|0:0,0:0:0:0:
512,207,111304,1,0,0:0:0:0:
428,51,111454,2,0,B|409:93|409:93|422:208,1,132.00000402832,4|0,0:0|0:0,0:0:0:0:
512,207,111754,6,0,P|508:159|502:105,1,88.000002685547,0|0,1:0|0:0,0:0:0:0:
333,228,112054,2,0,P|342:281|349:323,1,88.000002685547,2|0,0:0|0:0,0:0:0:0:
171,221,112354,2,0,P|162:185|153:130,1,88.000002685547,2|0,0:0|0:0,0:0:0:0:
419,179,112654,6,0,P|345:198|254:137,1,176.000005371094,2|2,1:3|0:0,0:0:0:0:
171,221,113104,1,0,0:0:0:0:
269,378,113254,2,0,L|256:292,1,88.000002685547,4|0,0:3|0:0,0:0:0:0:
65,147,113554,6,0,P|58:227|52:326,1,176.000005371094,0|2,1:0|0:0,0:0:0:0:
165,94,114004,1,0,0:0:0:0:
262,150,114154,2,0,P|310:148|362:132,1,88.000002685547,4|0,0:3|0:0,0:0:0:0:
512,212,114454,6,0,P|430:208|376:284,1,176.000005371094,2|2,1:3|0:0,0:0:0:0:
289,384,114904,1,0,0:0:0:0:
168,301,115054,2,0,P|216:297|265:294,1,88.000002685547,4|0,0:3|0:0,0:0:0:0:
295,69,115354,6,0,P|271:114|260:167,1,88.000002685547,0|0,1:0|0:0,0:0:0:0:
417,310,115654,2,0,P|401:272|376:225,1,88.000002685547,2|0,0:0|0:0,0:0:0:0:
168,301,115954,2,0,P|226:295|261:288,1,88.000002685547,2|0,0:0|0:0,0:0:0:0:
130,141,116254,6,0,P|89:144|37:153,1,88.000002685547,4|0,1:2|0:0,0:0:0:0:
261,149,116554,1,0,0:0:0:0:
106,4,116704,1,2,0:0:0:0:
261,149,116854,1,0,0:0:0:0:
261,149,117154,6,0,P|307:146|358:136,1,88.000002685547,2|0,1:3|0:0,0:0:0:0:
130,141,117454,1,0,0:0:0:0:
291,267,117604,1,2,0:0:0:0:
130,141,117754,1,0,0:0:0:0:
130,141,118054,6,0,P|127:230|123:331,1,176.000005371094,0|2,1:0|0:0,0:0:0:0:
222,197,118504,1,0,0:0:0:0:
291,267,118654,2,0,P|364:249|435:233,1,132.00000402832,4|0,0:0|0:0,0:0:0:0:
500,233,118954,6,0,P|413:210|381:126,1,176.000005371094,2|2,1:3|0:0,0:0:0:0:
481,131,119404,1,0,0:0:0:0:
279,187,119554,2,0,P|226:183|183:176,1,88.000002685547,4|0,0:3|0:0,0:0:0:0:
106,0,119854,5,2,1:2:0:0:
106,0,120004,1,0,0:0:0:0:
151,90,120154,1,0,0:0:0:0:
151,90,120304,1,2,0:0:0:0:
90,172,120454,2,0,P|89:245|91:305,1,132.00000402832,4|0,0:0|0:0,0:0:0:0:
130,376,120754,5,2,1:2:0:0:
130,376,120904,1,0,0:0:0:0:
210,320,121054,1,0,0:0:0:0:
210,320,121204,1,2,0:0:0:0:
300,346,121354,2,0,P|350:339|409:327,1,88.000002685547,2|0,0:3|0:0,0:0:0:0:
512,215,121654,6,0,P|446:223|367:234,1,132.00000402832,0|0,1:0|0:0,0:0:0:0:
307,250,121954,2,0,P|299:211|291:152,1,88.000002685547,0|2,1:0|0:0,0:0:0:0:
299,50,122254,1,0,1:0:0:0:
390,140,122404,1,0,1:0:0:0:
179,211,122554,6,0,L|50:206,1,120,8|0,0:3|0:0,0:0:0:0:
9,277,122887,6,0,P|25:308|39:346,1,64,4|0,0:3|0:0,0:0:0:0:
161,316,123250,6,0,P|153:342|148:364,1,47.9999985351563,4|0,0:3|0:0,0:0:0:0:
256,192,123625,5,4,0:1:0:0:
256,192,123718,12,2,126625,0:0:0:0:
