osu file format v14

[General]
AudioFilename: audio.mp3
AudioLeadIn: 0
PreviewTime: 79804
Countdown: 0
SampleSet: Soft
StackLeniency: 0.3
Mode: 0
LetterboxInBreaks: 0
WidescreenStoryboard: 0

[Editor]
Bookmarks: 80254,94654
DistanceSpacing: 1.2
BeatDivisor: 2
GridSize: 16
TimelineZoom: 1.18

[Metadata]
Title:Kaze no Uta
TitleUnicode:風の唄
Artist:MAMI
ArtistUnicode:MAMI
Creator:Garden
Version:Mochi's Hard
Source:ニュートンと林檎の樹
Tags:sahuang my angel azusa misure momochikun opening newton to ringo no ki newrin Laplacian eroge visual novel
BeatmapID:1325537
BeatmapSetID:624037

[Difficulty]
HPDrainRate:5.5
CircleSize:4
OverallDifficulty:6
ApproachRate:8
SliderMultiplier:1.4
SliderTickRate:1

[Events]
//Background and Video events
0,0,"alice.jpg",0,0
//Break Periods
//Storyboard Layer 0 (Background)
//Storyboard Layer 1 (Fail)
//Storyboard Layer 2 (Pass)
//Storyboard Layer 3 (Foreground)
//Storyboard Sound Samples

[TimingPoints]
8254,300,6,2,1,50,1,0
8254,-105.263157894737,6,2,1,50,0,0
22654,-100,6,2,1,75,0,0
33454,-100,6,2,1,60,0,0
33529,-100,6,2,1,30,0,0
36754,-100,6,2,1,50,0,0
37054,-100,6,2,1,55,0,0
49654,-100,6,2,1,57,0,0
50554,-100,6,2,1,65,0,0
50629,-100,6,2,1,5,0,0
50854,-100,6,2,1,65,0,0
51079,-100,6,2,1,5,0,0
51154,-100,6,2,1,65,0,0
51379,-100,6,2,1,5,0,0
51454,-100,6,2,1,65,0,0
64954,-100,6,2,1,65,0,0
65179,-100,6,2,1,5,0,0
65254,-100,6,2,1,65,0,0
65479,-100,6,2,1,5,0,0
65554,-100,6,2,1,65,0,0
65779,-100,6,2,1,5,0,0
65854,-100,6,2,1,65,0,0
68854,-100,6,2,1,45,0,0
69079,-100,6,2,1,5,0,0
69154,-100,6,2,1,65,0,0
69229,-100,6,2,1,30,0,0
69454,-100,6,2,1,65,0,0
72454,-100,6,2,1,45,0,0
72679,-100,6,2,1,5,0,0
72754,-100,6,2,1,65,0,0
76054,-100,6,2,1,50,0,0
76279,-100,6,2,1,5,0,0
76354,-100,6,2,1,65,0,0
76879,-100,6,2,1,5,0,0
76954,-100,6,2,1,65,0,0
77179,-100,6,2,1,5,0,0
77254,-100,6,2,1,65,0,0
77479,-100,6,2,1,5,0,0
77554,-100,6,2,1,65,0,0
77779,-100,6,2,1,5,0,0
77854,-100,6,2,1,65,0,0
78079,-100,6,2,1,5,0,0
78154,-100,6,2,1,80,0,0
78379,-100,6,2,1,5,0,0
78454,-100,6,2,1,65,0,0
78754,-100,6,2,1,70,0,0
80254,-100,6,2,1,80,0,1
82654,-100,6,2,1,50,0,1
82879,-100,6,2,1,5,0,1
82954,-100,6,2,1,80,0,1
86254,-100,6,2,1,50,0,1
86479,-100,6,2,1,5,0,1
86554,-100,6,2,1,80,0,1
86779,-100,6,2,1,5,0,1
86854,-100,6,2,1,80,0,1
87079,-100,6,2,1,5,0,1
87154,-100,6,2,1,80,0,1
89854,-100,6,2,1,50,0,1
90079,-100,6,2,1,5,0,1
90154,-100,6,2,1,80,0,1
92554,-100,6,2,1,50,0,1
92779,-100,6,2,1,5,0,1
92854,-100,6,2,1,80,0,1
93754,-100,6,2,1,65,0,1
94354,-100,6,2,1,80,0,1
94654,-100,6,2,1,80,0,1
97054,-100,6,2,1,50,0,1
97279,-100,6,2,1,5,0,1
97354,-100,6,2,1,80,0,1
100654,-100,6,2,1,50,0,1
100879,-100,6,2,1,5,0,1
100954,-100,6,2,1,80,0,1
101179,-100,6,2,1,5,0,1
101254,-100,6,2,1,80,0,1
101479,-100,6,2,1,5,0,1
101554,-100,6,2,1,80,0,1
104254,-100,6,2,1,50,0,1
104479,-100,6,2,1,5,0,1
104554,-100,6,2,1,80,0,1
107854,-100,6,2,1,50,0,1
108079,-100,6,2,1,5,0,1
108154,-100,6,2,1,80,0,1
108379,-100,6,2,1,5,0,1
108454,-100,6,2,1,80,0,1
109054,-100,6,2,1,75,0,0
111454,-100,6,2,1,50,0,0
111679,-100,6,2,1,5,0,0
111754,-100,6,2,1,75,0,0
118654,-100,6,2,1,50,0,0
118879,-100,6,2,1,5,0,0
118954,-100,6,2,1,75,0,0
120454,-100,6,2,1,50,0,0
120679,-100,6,2,1,5,0,0
120754,-100,6,2,1,75,0,0
121879,-100,6,2,1,5,0,0
121954,-100,6,2,1,75,0,0
122254,-100,6,2,1,50,0,0
122554,333.333333333333,6,2,1,70,1,0
122804,-100,6,2,1,5,0,0
122887,363.636363636364,6,2,1,65,1,0
122887,-100,6,2,1,65,0,0
123250,375,6,2,1,60,1,0
123250,-100,6,2,1,60,0,0
123625,375,4,2,1,50,1,0
123718,-100,4,2,1,20,0,0

[Colours]
Combo1 : 115,255,150
Combo2 : 255,255,94
Combo3 : 136,189,255
Combo4 : 255,174,136

[HitObjects]
350,331,15454,6,0,P|330:277|330:190,1,132.999996448517,2|0,3:2|0:0,0:0:0:0:
369,126,15904,2,0,P|329:109|295:101,1,66.4999982242585,2|0,3:2|0:0,0:0:0:0:
224,74,16204,2,0,P|287:55|353:29,1,132.999996448517,2|0,3:2|0:0,0:0:0:0:
437,65,16654,2,0,P|420:136|402:207,1,132.999996448517,2|2,3:2|3:2,0:0:0:0:
283,317,17254,6,0,P|277:275|272:239,1,66.4999982242585,2|0,3:2|0:0,0:0:0:0:
210,165,17554,1,0,0:0:0:0:
210,165,17704,2,0,P|176:216|187:292,2,132.999996448517,2|2|0,3:2|3:2|0:0,0:0:0:0:
288,128,18454,2,0,P|294:86|299:50,1,66.4999982242585,2|0,3:2|0:0,0:0:0:0:
421,31,18754,2,0,P|416:63|411:96,1,66.4999982242585,2|0,3:2|0:0,0:0:0:0:
377,196,19054,5,2,3:2:0:0:
377,196,19354,1,0,0:0:0:0:
367,283,19504,2,0,P|437:298|517:304,2,132.999996448517,2|2|0,3:2|3:2|0:0,0:0:0:0:
289,320,20254,2,0,P|252:334|225:348,1,66.4999982242585,2|0,3:2|0:0,0:0:0:0:
301,232,20554,6,0,P|287:172|264:96,1,132.999996448517,2|2,3:2|3:2,0:0:0:0:
104,165,21154,1,0,0:0:0:0:
36,219,21304,2,0,P|25:288|62:340,1,132.999996448517,2|2,3:2|3:2,0:0:0:0:
232,180,21904,1,0,0:0:0:0:
282,277,22054,2,0,P|234:267|210:263,1,66.4999982242585,2|0,3:2|0:0,0:0:0:0:
261,171,22354,2,0,P|309:161|333:157,1,66.4999982242585,2|0,3:2|0:0,0:0:0:0:
457,178,22654,6,0,P|404:184|347:118,1,140,4|2,0:2|0:0,0:0:0:0:
295,59,23104,1,0,0:0:0:0:
295,59,23254,2,0,P|251:68|215:78,1,70,4|0,0:3|0:0,0:0:0:0:
113,79,23554,2,0,P|193:95|258:113,1,140,2|2,1:3|0:0,0:0:0:0:
361,236,24154,1,2,0:0:0:0:
361,236,24454,6,0,P|308:252|267:327,1,140,0|2,1:0|0:0,0:0:0:0:
189,352,24904,1,0,0:0:0:0:
127,294,25054,2,0,P|115:248|109:212,1,70,4|0,0:3|0:0,0:0:0:0:
157,155,25354,2,0,P|167:90|183:12,2,140,2|2|2,1:3|0:0|0:0,0:0:0:0:
296,248,26254,6,0,B|320:244|350:254|350:254|394:221|459:235,1,140,0|2,1:0|0:0,0:0:0:0:
495,178,26704,1,0,0:0:0:0:
442,112,26854,2,0,P|434:72|426:27,1,70,4|0,0:3|0:0,0:0:0:0:
335,0,27154,2,0,P|305:68|332:134,1,140,2|2,1:3|0:0,0:0:0:0:
374,198,27604,1,0,0:0:0:0:
264,181,27754,2,0,P|272:141|280:96,1,70,4|0,0:3|0:0,0:0:0:0:
314,255,28054,6,0,P|381:235|459:222,1,140,0|2,1:0|0:0,0:0:0:0:
474,303,28504,1,0,0:0:0:0:
382,364,28654,2,0,P|315:344|237:331,1,140,4|2,0:3|1:3,0:0:0:0:
78,341,29254,1,2,0:0:0:0:
22,277,29404,1,0,0:0:0:0:
41,193,29554,2,0,P|58:159|93:138,1,70,2|0,0:0|0:0,0:0:0:0:
207,80,29854,6,0,L|64:119,1,140,4|0,1:2|0:0,0:0:0:0:
6,63,30304,1,2,0:0:0:0:
0,173,30454,2,0,B|17:215|-3:251|-3:251|11:282|52:278,1,140,0|2,0:0|1:3,0:0:0:0:
201,326,31054,2,0,P|191:287|178:241,1,70,0|2,0:0|0:0,0:0:0:0:
295,206,31354,2,0,P|285:239|277:273,1,70,0|0,0:0|0:0,0:0:0:0:
219,155,31654,6,0,P|294:114|348:132,1,140,0|0,1:0|0:0,0:0:0:0:
411,175,32104,1,2,0:0:0:0:
443,268,32254,2,0,P|404:261|375:248,1,70,0|0,0:0|0:0,0:0:0:0:
308,305,32554,2,0,P|373:281|452:267,1,140,2|0,1:3|0:0,0:0:0:0:
501,327,33004,1,2,0:0:0:0:
510,203,33154,2,0,P|483:150|466:61,1,140,4|4,0:3|0:0,0:0:0:0:
256,192,33529,12,0,35704,0:0:0:0:
375,315,36754,6,0,P|385:269|392:231,1,70,0|0,0:0|0:0,0:0:0:0:
338,178,37054,2,0,P|395:216|475:210,2,140,2|0|2,0:0|0:0|0:0,0:0:0:0:
218,58,37954,2,0,P|149:56|91:94,1,140,2|0,0:0|0:0,0:0:0:0:
38,159,38404,1,0,0:0:0:0:
105,209,38554,2,0,P|120:239|124:278,1,70,2|0,0:0|0:0,0:0:0:0:
183,356,38854,6,0,P|197:296|214:216,1,140,2|0,0:0|0:0,0:0:0:0:
308,185,39304,1,0,0:0:0:0:
308,185,39454,2,0,P|300:219|292:253,1,70,2|0,0:0|0:0,0:0:0:0:
353,348,39754,2,0,P|398:307|383:226,2,140,2|0|2,0:0|0:0|0:0,0:0:0:0:
308,185,40654,5,2,0:0:0:0:
144,147,40954,2,0,P|151:181|159:215,1,70,2|0,0:0|0:0,0:0:0:0:
89,263,41254,2,0,P|126:295|220:281,2,140,2|2|0,0:0|0:0|0:0,0:0:0:0:
60,184,42004,1,2,0:0:0:0:
144,147,42154,2,0,P|151:112|159:78,1,70,2|0,0:0|0:0,0:0:0:0:
250,114,42454,6,0,P|307:100|393:75,1,140,2|0,0:0|0:0,0:0:0:0:
460,115,42904,2,0,P|471:155|482:188,2,70,0|0|0,0:0|0:0|0:0,0:0:0:0:
383,165,43354,2,0,P|358:226|388:295,1,140,2|0,0:0|0:0,0:0:0:0:
226,349,43954,1,2,0:0:0:0:
226,349,44254,6,0,B|179:338|179:338|140:369|87:348,1,140,2|0,0:0|0:0,0:0:0:0:
23,304,44704,1,0,0:0:0:0:
77,238,44854,2,0,P|107:221|140:206,1,70,2|0,0:0|0:0,0:0:0:0:
161,127,45154,2,0,P|183:191|208:261,2,140,2|0|2,0:0|0:0|0:0,0:0:0:0:
329,34,46054,6,0,P|316:89|295:173,1,140,2|0,0:0|0:0,0:0:0:0:
367,215,46504,1,0,0:0:0:0:
312,279,46654,2,0,P|355:297|395:297,1,70,2|0,0:0|0:0,0:0:0:0:
238,231,46954,2,0,P|176:249|98:290,1,140,2|0,0:0|0:0,0:0:0:0:
26,136,47554,1,2,0:0:0:0:
63,61,47704,1,0,0:0:0:0:
147,47,47854,6,0,B|190:35|190:35|241:49|243:110,1,140,2|0,0:0|0:0,0:0:0:0:
215,184,48304,1,2,0:0:0:0:
313,224,48454,2,0,P|304:190|312:149,1,70,0|0,0:0|0:0,0:0:0:0:
404,254,48754,2,0,B|368:270|368:270|261:246,1,140,2|0,0:0|0:0,0:0:0:0:
111,192,49354,1,0,0:0:0:0:
111,192,49654,6,0,B|95:251|95:251|79:272|79:272|64:329,2,140,2|2|2,0:0|0:0|0:0,0:0:0:0:
312,142,50554,2,0,P|276:135|250:108,1,70,10|0,3:0|0:0,0:0:0:0:
216,266,50854,2,0,P|223:230|250:204,1,70,4|0,0:0|0:0,0:0:0:0:
380,284,51154,2,0,P|347:267|328:235,1,70,4|0,3:0|0:0,0:0:0:0:
312,142,51454,6,0,P|365:96|447:106,2,140,4|2|2,0:0|0:0|0:0,0:0:0:0:
239,99,52204,1,0,0:0:0:0:
194,170,52354,2,0,B|156:166|128:187|128:187|97:174|46:195,1,140,0|2,1:0|0:0,0:0:0:0:
13,261,52804,1,0,0:0:0:0:
74,317,52954,2,0,P|110:307|144:297,1,70,2|0,0:0|0:0,0:0:0:0:
226,346,53254,6,0,P|250:253|270:186,1,140,0|2,1:0|0:0,0:0:0:0:
221,137,53704,2,0,L|203:66,2,70,0|2|0,0:0|0:0|0:0,0:0:0:0:
291,217,54154,2,0,P|350:229|412:175,1,140,0|2,1:0|0:0,0:0:0:0:
334,141,54604,1,0,0:0:0:0:
291,217,54754,2,0,P|281:250|273:284,1,70,2|0,0:0|0:0,0:0:0:0:
190,337,55054,6,0,P|131:349|69:295,2,140,0|2|2,1:0|0:0|0:0,0:0:0:0:
344,268,55954,2,0,B|352:224|332:193|332:193|331:155|360:124,1,140,0|2,1:0|0:0,0:0:0:0:
413,80,56404,1,0,0:0:0:0:
343,32,56554,2,0,P|306:44|268:57,1,70,2|0,0:0|0:0,0:0:0:0:
175,23,56854,6,0,P|199:99|219:163,1,140,0|2,1:0|0:0,0:0:0:0:
172,228,57304,2,0,P|154:264|149:298,2,70,0|2|0,0:0|0:0|0:0,0:0:0:0:
264,256,57754,2,0,P|337:286|424:278,1,140,4|2,0:0|0:0,0:0:0:0:
469,125,58354,1,2,0:0:0:0:
469,125,58654,6,0,P|402:144|348:187,1,140,0|2,1:0|0:0,0:0:0:0:
273,148,59104,1,0,0:0:0:0:
221,214,59254,2,0,P|231:258|246:293,1,70,2|0,0:0|0:0,0:0:0:0:
315,317,59554,2,0,P|258:298|171:280,1,140,0|2,1:0|0:0,0:0:0:0:
102,249,60004,1,0,0:0:0:0:
47,184,60154,2,0,P|57:140|72:105,1,70,2|0,0:0|0:0,0:0:0:0:
116,49,60454,5,0,1:0:0:0:
116,49,60754,2,0,L|195:28,1,70,2|0,0:0|0:0,0:0:0:0:
236,95,61054,2,0,L|303:77,1,70,2|0,0:0|0:0,0:0:0:0:
386,61,61354,2,0,P|434:97|436:191,1,140,0|2,1:0|0:0,0:0:0:0:
368,323,61954,1,2,0:0:0:0:
296,279,62104,1,0,0:0:0:0:
215,302,62254,6,0,P|165:310|103:233,1,140,0|2,1:0|0:0,0:0:0:0:
54,185,62704,2,0,L|28:105,2,70,0|2|0,0:0|0:0|0:0,0:0:0:0:
130,136,63154,2,0,L|271:174,1,140,0|2,1:0|0:0,0:0:0:0:
336,128,63604,1,0,0:0:0:0:
336,128,63754,1,2,0:0:0:0:
443,256,64054,6,0,P|390:304|316:293,2,140,0|2|2,1:0|0:0|0:0,0:0:0:0:
469,176,64804,1,0,0:0:0:0:
406,120,64954,2,0,L|332:141,1,70,0|0,1:0|0:0,0:0:0:0:
274,84,65254,2,0,L|200:105,1,70,0|0,1:0|0:0,0:0:0:0:
132,64,65554,1,0,1:0:0:0:
132,64,65854,6,0,L|101:204,2,140,4|2|2,0:0|0:0|0:0,0:0:0:0:
31,288,66754,2,0,L|0:151,1,140,2|2,0:3|0:0,0:0:0:0:
21,69,67204,1,0,0:0:0:0:
21,69,67354,1,2,0:0:0:0:
184,100,67654,6,0,B|249:85|256:136|331:109,1,140,2|2,0:3|0:0,0:0:0:0:
395,73,68104,2,0,L|463:50,2,70,0|2|0,0:0|0:0|0:0,0:0:0:0:
419,154,68554,2,0,P|377:207|379:281,1,140,2|4,0:3|0:0,0:0:0:0:
229,356,69154,1,0,1:0:0:0:
229,356,69454,6,0,B|192:371|192:371|137:350|147:284,1,140,2|2,0:3|0:0,0:0:0:0:
186,217,69904,2,0,P|204:184|203:133,1,70,0|2,0:0|0:0,0:0:0:0:
155,85,70204,1,0,0:0:0:0:
155,85,70354,2,0,P|202:44|279:57,1,140,2|2,0:3|0:0,0:0:0:0:
424,126,70954,1,2,0:0:0:0:
321,253,71254,6,0,L|172:213,1,140,2|2,0:3|0:0,0:0:0:0:
114,171,71704,1,2,0:3:0:0:
60,235,71854,1,2,0:0:0:0:
147,91,72154,2,0,P|95:46|20:50,2,140,2|4|0,0:3|0:0|1:0,0:0:0:0:
228,238,73054,6,0,P|296:238|348:193,1,140,2|2,0:3|0:0,0:0:0:0:
400,128,73504,1,0,0:0:0:0:
360,54,73654,2,0,P|322:61|272:74,1,70,2|0,0:0|0:0,0:0:0:0:
220,111,73954,2,0,P|152:97|57:66,2,140,2|2|2,0:3|0:0|0:0,0:0:0:0:
357,207,74854,6,0,L|327:64,1,140,2|2,0:3|0:0,0:0:0:0:
468,163,75454,1,2,0:0:0:0:
367,297,75754,2,0,P|310:292|270:209,2,140,2|4|0,0:3|0:0|1:0,0:0:0:0:
468,163,76654,6,0,L|427:98,1,70,0|0,1:0|0:0,0:0:0:0:
338,140,76954,2,0,L|262:122,1,70,0|0,1:0|0:0,0:0:0:0:
286,221,77254,2,0,L|220:261,1,70,0|0,1:0|0:0,0:0:0:0:
312,306,77554,2,0,L|294:380,1,70,0|0,1:0|0:0,0:0:0:0:
415,332,77854,2,0,L|429:263,1,70,0|0,1:0|0:0,0:0:0:0:
349,133,78154,2,0,L|366:205,1,70,4|0,1:3|0:0,0:0:0:0:
494,222,78454,1,0,1:0:0:0:
494,222,78754,5,0,1:0:0:0:
470,141,78904,1,0,1:0:0:0:
404,88,79054,1,0,1:0:0:0:
320,77,79204,1,4,3:0:0:0:
242,109,79354,1,0,1:0:0:0:
242,109,79654,2,0,L|164:136,1,70,8|0,3:0|1:0,0:0:0:0:
109,84,79954,5,4,3:0:0:0:
53,146,80104,1,4,3:0:0:0:
83,257,80254,2,0,P|128:299|202:294,2,140,4|2|2,0:1|0:0|0:0,0:0:0:0:
255,228,81154,2,0,L|221:376,1,140,8|2,1:2|0:0,0:0:0:0:
318,338,81604,1,0,0:0:0:0:
318,338,81754,2,0,L|333:269,1,70,2|0,0:0|0:0,0:0:0:0:
350,182,82054,6,0,B|400:152|449:164|449:164|491:131,1,140,2|2,3:0|0:0,0:0:0:0:
352,28,82654,1,4,0:0:0:0:
352,28,82954,2,0,P|291:44|241:102,1,140,8|2,1:2|0:0,0:0:0:0:
179,156,83404,1,0,0:0:0:0:
179,156,83554,2,0,P|140:151|105:141,1,70,2|0,0:0|0:0,0:0:0:0:
137,256,83854,6,0,P|194:237|280:221,1,140,2|2,3:0|0:0,0:0:0:0:
346,261,84304,2,0,L|367:337,1,70,0|2,0:0|0:0,0:0:0:0:
449,179,84754,2,0,L|430:111,1,70,8|0,1:2|0:0,0:0:0:0:
360,53,85054,1,2,0:0:0:0:
360,53,85354,1,2,0:0:0:0:
360,53,85654,6,0,P|297:39|230:78,1,140,2|2,3:0|0:0,0:0:0:0:
161,118,86104,1,0,0:0:0:0:
220,181,86254,2,0,P|239:219|236:265,1,70,4|0,0:0|0:0,0:0:0:0:
224,342,86554,2,0,L|298:321,1,70,4|0,1:3|0:0,0:0:0:0:
156,281,86854,2,0,L|88:300,1,70,4|0,1:3|0:0,0:0:0:0:
34,235,87154,5,2,0:0:0:0:
49,152,87304,1,0,0:0:0:0:
65,69,87454,2,0,B|106:47|106:47|154:68|211:29,1,140,2|2,3:0|0:0,0:0:0:0:
268,79,87904,2,0,P|286:55|290:11,1,70,0|2,0:0|0:0,0:0:0:0:
394,149,88354,2,0,B|368:189|368:189|401:288,1,140,8|2,1:2|0:0,0:0:0:0:
418,358,88804,1,0,0:0:0:0:
336,335,88954,2,0,P|298:323|256:317,1,70,2|0,0:0|0:0,0:0:0:0:
191,352,89254,6,0,P|139:309|153:235,1,140,2|2,3:0|0:0,0:0:0:0:
166,140,89704,1,0,0:0:0:0:
251,156,89854,2,0,P|236:203|229:224,1,70,4|0,0:0|0:0,0:0:0:0:
329,107,90154,2,0,P|344:154|351:175,1,70,8|0,1:2|0:0,0:0:0:0:
444,133,90454,2,0,P|425:233|416:286,1,140,2|2,0:0|0:0,0:0:0:0:
256,336,91054,6,0,B|217:360|169:342|169:342|139:370|121:374,1,140,2|2,3:0|0:0,0:0:0:0:
57,328,91504,1,0,0:0:0:0:
33,247,91654,2,0,P|65:225|100:206,1,70,2|0,0:0|0:0,0:0:0:0:
151,149,91954,2,0,P|103:110|112:29,2,140,8|2|4,1:2|0:0|0:0,0:0:0:0:
302,223,92854,6,0,P|347:203|388:192,1,70,4|0,0:0|0:0,0:0:0:0:
419,92,93154,2,0,P|373:111|332:122,1,70,0|0,1:0|0:0,0:0:0:0:
431,259,93454,2,0,P|445:226|456:193,1,70,0|0,1:0|0:0,0:0:0:0:
419,92,93754,1,8,0:3:0:0:
219,27,94054,2,0,P|204:59|193:92,1,70,4|4,0:3|0:3,0:0:0:0:
218,180,94354,5,2,0:0:0:0:
276,119,94504,1,4,0:3:0:0:
130,165,94654,2,0,P|89:195|80:285,1,140,4|2,0:1|0:0,0:0:0:0:
141,333,95104,1,0,0:0:0:0:
223,261,95254,2,0,P|185:251|148:241,1,70,2|0,0:0|0:0,0:0:0:0:
226,359,95554,2,0,P|293:340|361:324,2,140,8|2|2,1:2|0:0|0:0,0:0:0:0:
310,213,96454,6,0,P|325:147|354:56,1,140,2|2,3:0|0:0,0:0:0:0:
276,30,96904,1,0,0:0:0:0:
194,52,97054,2,0,P|149:64|117:68,1,70,4|0,0:0|0:0,0:0:0:0:
35,122,97354,2,0,P|116:150|192:150,2,140,8|2|2,1:2|0:0|0:0,0:0:0:0:
134,261,98254,6,0,P|210:223|286:214,1,140,2|2,3:0|0:0,0:0:0:0:
342,245,98704,1,0,0:0:0:0:
342,245,98854,2,0,P|360:283|365:321,1,70,2|0,0:0|0:0,0:0:0:0:
406,384,99154,2,0,L|433:236,2,140,8|2|2,1:2|0:0|0:0,0:0:0:0:
512,199,100054,6,0,L|485:51,1,140,2|2,3:0|0:0,0:0:0:0:
416,15,100504,1,0,0:0:0:0:
333,30,100654,2,0,P|306:66|304:111,1,70,4|0,0:0|0:0,0:0:0:0:
355,155,100954,2,0,P|298:121|211:111,1,140,8|0,1:3|1:3,0:0:0:0:
82,198,101554,5,2,0:0:0:0:
44,273,101704,1,0,0:0:0:0:
110,324,101854,2,0,B|167:350|195:295|262:332,1,140,2|2,3:0|0:0,0:0:0:0:
319,367,102304,1,0,0:0:0:0:
319,367,102454,2,0,P|364:352|388:348,1,70,2|0,0:0|0:0,0:0:0:0:
329,269,102754,2,0,P|284:226|290:150,1,140,8|2,1:2|0:0,0:0:0:0:
415,44,103354,1,2,0:0:0:0:
415,44,103654,6,0,L|384:199,1,140,2|2,3:0|0:0,0:0:0:0:
442,245,104104,1,0,0:0:0:0:
442,245,104254,2,0,L|426:322,1,70,4|0,0:0|0:0,0:0:0:0:
346,335,104554,2,0,P|288:322|223:364,2,140,8|2|2,1:2|0:0|0:0,0:0:0:0:
213,231,105454,6,0,P|146:207|111:142,1,140,2|2,3:0|0:0,0:0:0:0:
123,66,105904,2,0,P|89:74|56:86,1,70,0|2,0:0|0:0,0:0:0:0:
221,120,106354,2,0,B|274:133|310:102|310:102|338:105|367:128,1,140,8|2,1:2|0:0,0:0:0:0:
416,180,106804,1,0,0:0:0:0:
416,180,106954,1,2,0:0:0:0:
320,318,107254,6,0,P|266:281|182:292,1,140,2|2,3:0|0:0,0:0:0:0:
120,245,107704,1,0,0:0:0:0:
120,245,107854,2,0,P|99:281|99:320,1,70,4|0,0:0|0:0,0:0:0:0:
176,174,108154,2,0,B|159:144|168:105|168:105|142:73|158:32,1,140,4|4,1:2|1:2,0:0:0:0:
241,12,108604,1,2,0:0:0:0:
330,77,108754,2,0,P|284:96|251:100,1,70,4|2,1:2|0:0,0:0:0:0:
176,174,109054,6,0,P|248:194|326:212,2,140,4|2|2,1:0|0:0|0:0,0:0:0:0:
264,316,109954,2,0,P|332:299|399:281,1,140,0|2,1:0|0:0,0:0:0:0:
470,234,110404,1,0,0:0:0:0:
407,177,110554,2,0,P|418:129|426:100,1,70,4|0,0:3|0:0,0:0:0:0:
346,15,110854,6,0,P|310:71|327:151,1,140,2|2,1:3|0:0,0:0:0:0:
266,205,111304,1,0,0:0:0:0:
184,227,111454,2,0,P|173:179|165:150,1,70,4|0,0:0|0:0,0:0:0:0:
64,179,111754,2,0,P|75:131|83:102,1,70,0|0,1:0|0:0,0:0:0:0:
27,45,112054,2,0,P|95:77|180:66,1,140,2|2,0:0|0:0,0:0:0:0:
311,132,112654,6,0,B|259:126|217:157|217:157|230:205,1,140,2|2,1:3|0:0,0:0:0:0:
251,274,113104,1,0,0:0:0:0:
170,297,113254,2,0,P|152:331|141:365,1,70,4|0,0:3|0:0,0:0:0:0:
284,349,113554,2,0,P|329:315|322:232,2,140,0|2|4,1:0|0:0|0:3,0:0:0:0:
207,140,114454,6,0,P|231:217|254:283,1,140,2|2,1:3|0:0,0:0:0:0:
325,237,114904,1,0,0:0:0:0:
379,172,115054,2,0,P|419:157|449:153,1,70,4|0,0:3|0:0,0:0:0:0:
385,79,115354,2,0,P|345:64|315:60,1,70,0|0,1:0|0:0,0:0:0:0:
236,80,115654,2,0,P|197:129|198:204,1,140,2|2,0:0|0:0,0:0:0:0:
288,358,116254,6,0,B|346:382|385:334|385:334|355:332|338:340,1,140,4|0,1:2|0:0,0:0:0:0:
308,268,116704,1,2,0:0:0:0:
229,297,116854,2,0,P|186:287|153:279,1,70,0|0,0:0|0:0,0:0:0:0:
71,219,117154,2,0,P|151:201|208:182,1,140,2|0,1:3|0:0,0:0:0:0:
342,84,117754,1,0,0:0:0:0:
342,84,118054,6,0,B|319:78|292:88|292:88|248:60|194:68,1,140,0|2,1:0|0:0,0:0:0:0:
125,89,118504,1,0,0:0:0:0:
125,89,118654,2,0,P|134:142|139:166,1,70,4|0,0:0|0:0,0:0:0:0:
74,213,118954,2,0,P|48:271|83:351,1,140,2|2,1:3|0:0,0:0:0:0:
173,355,119404,1,0,0:0:0:0:
173,355,119554,2,0,P|164:302|159:278,1,70,4|0,0:3|0:0,0:0:0:0:
209,210,119854,6,0,P|277:198|353:224,1,140,2|0,1:2|0:0,0:0:0:0:
450,279,120304,2,0,P|441:235|436:202,1,70,2|4,0:0|0:0,0:0:0:0:
311,81,120754,2,0,L|344:222,1,140,2|0,1:2|0:0,0:0:0:0:
360,299,121204,1,2,0:0:0:0:
281,329,121354,6,0,B|249:340|249:340|226:330|226:330|174:348|121:304,2,140,2|0|0,0:3|1:0|1:0,0:0:0:0:
360,299,122104,1,2,0:0:0:0:
404,227,122254,1,0,1:0:0:0:
355,158,122404,1,0,1:0:0:0:
269,146,122554,1,8,0:3:0:0:
269,146,122887,6,0,L|193:167,1,70,4|0,0:3|0:0,0:0:0:0:
140,58,123250,2,0,L|216:79,1,70,4|0,0:3|0:0,0:0:0:0:
298,41,123625,1,4,0:0:0:0:
256,192,123718,12,2,126625,0:0:0:0:
