osu file format v14

[General]
AudioFilename: audio.mp3
AudioLeadIn: 0
PreviewTime: 79804
Countdown: 0
SampleSet: Soft
StackLeniency: 0.7
Mode: 0
LetterboxInBreaks: 0
WidescreenStoryboard: 0

[Editor]
DistanceSpacing: 2.1
BeatDivisor: 4
GridSize: 4
TimelineZoom: 1.48

[Metadata]
Title:Kaze no Uta
TitleUnicode:風の唄
Artist:MAMI
ArtistUnicode:MAMI
Creator:Garden
Version:Misure's Insane
Source:ニュートンと林檎の樹
Tags:sahuang my angel azusa misure momochikun opening newton to ringo no ki newrin Laplacian eroge visual novel
BeatmapID:1325132
BeatmapSetID:624037

[Difficulty]
HPDrainRate:6
CircleSize:4
OverallDifficulty:7.5
ApproachRate:9
SliderMultiplier:1.6
SliderTickRate:1

[Events]
//Background and Video events
0,0,"haru.jpg",0,0
//Break Periods
//Storyboard Layer 0 (Background)
//Storyboard Layer 1 (Fail)
//Storyboard Layer 2 (Pass)
//Storyboard Layer 3 (Foreground)
//Storyboard Sound Samples

[TimingPoints]
8254,300,6,2,1,50,1,0
8254,-133.333333333333,6,2,1,50,0,0
15454,-125,6,2,1,60,0,0
22654,-111.111111111111,6,2,1,75,0,0
33454,-142.857142857143,6,2,1,65,0,0
34054,-142.857142857143,6,2,1,60,0,0
34654,-142.857142857143,6,2,1,55,0,0
35254,-142.857142857143,6,2,1,50,0,0
37054,-133.333333333333,6,2,1,55,0,0
50554,-111.111111111111,6,2,1,70,0,0
50591,-111.111111111111,6,2,1,20,0,0
50854,-125,6,2,1,60,0,0
51079,-125,6,2,1,20,0,0
51154,-133.333333333333,6,2,1,50,0,0
51379,-133.333333333333,6,2,1,20,0,0
51454,-111.111111111111,6,2,1,70,0,0
65854,-133.333333333333,6,2,1,65,0,0
76654,-200,6,2,1,55,0,0
76879,-200,6,2,1,25,0,0
76954,-166.666666666667,6,2,1,60,0,0
77179,-166.666666666667,6,2,1,30,0,0
77254,-142.857142857143,6,2,1,65,0,0
77479,-142.857142857143,6,2,1,35,0,0
77554,-125,6,2,1,70,0,0
77779,-125,6,2,1,40,0,0
77854,-111.111111111111,6,2,1,75,0,0
78079,-111.111111111111,6,2,1,45,0,0
78154,-100,6,2,1,80,0,0
78379,-100,6,2,1,55,0,0
78454,-83.3333333333333,6,2,1,85,0,0
78904,-90.9090909090909,6,2,1,75,0,0
79354,-90.9090909090909,6,2,1,70,0,0
79954,-125,6,2,1,60,0,0
80254,-100,6,2,1,80,0,1
92854,-125,6,2,1,70,0,1
93154,-111.111111111111,6,2,1,75,0,1
93454,-100,6,2,1,80,0,1
93754,-90.9090909090909,6,2,1,85,0,1
94054,-100,6,2,1,70,0,1
94354,-100,6,2,1,60,0,0
94654,-100,6,2,1,80,0,1
109054,-111.111111111111,6,2,1,75,0,0
119854,-125,6,2,1,70,0,0
120754,-133.333333333333,6,2,1,65,0,0
121654,-142.857142857143,6,2,1,60,0,0
122554,333.333333333333,6,2,1,60,1,0
122554,-142.857142857143,6,2,1,60,0,0
122887,363.636363636364,6,2,1,60,1,0
122887,-166.666666666667,6,2,1,60,0,0
123250,375,6,2,1,60,1,0
123250,-200,6,2,1,60,0,0
123625,375,4,2,1,60,1,0
124000,-100,4,2,1,55,0,0
124375,-100,4,2,1,50,0,0
124750,-100,4,2,1,45,0,0
125125,-100,4,2,1,40,0,0
125500,-100,4,2,1,35,0,0
125875,-100,4,2,1,30,0,0
126250,-100,4,2,1,25,0,0
126625,-100,4,2,1,20,0,0

[Colours]
Combo1 : 115,255,150
Combo2 : 255,255,94
Combo3 : 136,189,255
Combo4 : 255,174,136

[HitObjects]
184,52,8254,6,0,P|153:101|168:158,1,120.000004577637,2|0,3:2|0:0,0:0:0:0:
232,220,8704,2,0,L|352:232,2,120.000004577637,2|0|0,0:0|0:0|0:0,0:0:0:0:
168,158,9454,5,2,3:2:0:0:
364,20,9754,1,2,0:0:0:0:
364,20,10054,6,0,B|380:92|380:92|358:132,1,120.000004577637,2|0,3:2|0:0,0:0:0:0:
284,80,10504,2,0,L|164:92,2,120.000004577637,2|0|0,0:0|0:0|0:0,0:0:0:0:
358,132,11254,5,2,3:2:0:0:
296,364,11554,1,2,0:0:0:0:
296,364,11854,6,0,P|275:308|276:248,1,120.000004577637,2|0,3:2|0:0,0:0:0:0:
348,192,12304,2,0,P|406:201|458:232,2,120.000004577637,2|0|0,0:0|0:0|0:0,0:0:0:0:
276,248,13054,5,2,3:2:0:0:
108,76,13354,1,2,0:0:0:0:
108,76,13654,6,0,L|83:193,1,120.000004577637,2|0,3:2|0:0,0:0:0:0:
136,268,14104,2,0,P|194:269|239:307,2,120.000004577637,2|0|0,0:0|0:0|0:0,0:0:0:0:
164,352,14854,5,2,3:2:0:0:
284,144,15154,1,2,0:0:0:0:
496,288,15454,6,0,L|368:273,1,128,2|0,3:2|0:0,0:0:0:0:
276,248,15904,2,0,P|272:279|279:310,1,64,2|0,3:2|0:0,0:0:0:0:
368,273,16204,2,0,L|395:148,1,128,2|0,3:2|0:0,0:0:0:0:
360,56,16654,5,2,3:2:0:0:
180,200,16954,1,2,3:2:0:0:
180,200,17254,6,0,P|118:212|61:185,1,128,2|0,3:2|0:0,0:0:0:0:
124,54,17704,2,0,P|130:85|129:117,1,64,2|0,3:2|0:0,0:0:0:0:
180,200,18004,2,0,L|305:173,1,128,2|0,3:2|0:0,0:0:0:0:
380,112,18454,5,2,3:2:0:0:
495,311,18754,1,2,3:2:0:0:
495,311,19054,6,0,B|464:282|464:282|483:198,1,128,2|0,3:2|0:0,0:0:0:0:
380,112,19504,2,0,L|392:174,1,64,2|0,3:2|0:0,0:0:0:0:
320,340,19804,2,0,P|293:283|309:222,1,128,2|0,3:2|0:0,0:0:0:0:
388,276,20254,5,2,3:2:0:0:
160,300,20554,1,2,3:2:0:0:
160,300,20854,6,0,B|148:212|148:212|120:239,1,128,2|0,3:2|0:0,0:0:0:0:
22,226,21304,2,0,P|23:257|35:287,1,64,2|0,3:2|0:0,0:0:0:0:
120,239,21604,2,0,L|138:112,1,128,2|0,3:2|0:0,0:0:0:0:
220,52,22054,6,0,P|231:81|233:113,1,64,2|0,3:2|0:0,0:0:0:0:
324,136,22354,2,0,P|311:165|290:189,1,64,2|0,3:2|0:0,0:0:0:0:
232,304,22654,6,0,L|374:281,1,143.999995605469,4|2,0:2|0:0,0:0:0:0:
468,148,23104,1,0,0:0:0:0:
468,148,23254,2,0,P|471:183|464:218,1,71.9999978027344,4|0,0:3|0:0,0:0:0:0:
374,281,23554,6,0,L|358:210,1,71.9999978027344,2|0,1:3|0:0,0:0:0:0:
484,77,23854,2,0,L|468:147,1,71.9999978027344,2|0,0:0|0:0,0:0:0:0:
358,210,24154,2,0,L|289:188,1,71.9999978027344,2|0,0:0|0:0,0:0:0:0:
200,96,24454,6,0,P|239:43|294:78,1,143.999995605469,0|2,1:0|0:0,0:0:0:0:
192,208,24904,1,0,0:0:0:0:
100,164,25054,2,0,L|82:94,1,71.9999978027344,4|0,0:3|0:0,0:0:0:0:
20,280,25354,6,0,B|68:264|100:268|100:268|124:300|148:308,2,143.999995605469,2|2|2,1:3|0:0|0:0,0:0:0:0:
193,69,26254,6,0,B|212:140|212:140|192:208,1,143.999995605469,0|2,1:0|0:0,0:0:0:0:
312,180,26704,1,0,0:0:0:0:
312,180,26854,2,0,L|317:108,1,71.9999978027344,4|0,0:3|0:0,0:0:0:0:
480,164,27154,6,0,P|447:179|417:199,1,71.9999978027344,2|0,1:3|0:0,0:0:0:0:
360,300,27454,2,0,P|389:320|422:335,1,71.9999978027344,2|0,0:0|0:0,0:0:0:0:
417,199,27754,2,0,P|413:163|404:128,1,71.9999978027344,4|0,0:3|0:0,0:0:0:0:
220,156,28054,6,0,B|204:252|204:252|236:287,1,143.999995605469,0|2,1:0|0:0,0:0:0:0:
148,72,28504,1,0,0:0:0:0:
70,136,28654,2,0,L|88:205,1,71.9999978027344,4|0,0:3|0:0,0:0:0:0:
220,156,28954,6,0,B|228:131|260:107|260:107|264:75|248:28,2,143.999995605469,2|2|2,1:3|0:0|0:0,0:0:0:0:
450,197,29854,6,0,P|384:224|318:200,1,143.999995605469,4|0,1:2|0:0,0:0:0:0:
276,292,30304,1,2,0:0:0:0:
392,336,30454,2,0,L|399:264,1,71.9999978027344,0|0,0:0|0:0,0:0:0:0:
330,131,30754,6,0,P|318:164|318:200,2,71.9999978027344,2|0|0,1:3|0:0|0:0,0:0:0:0:
424,92,31204,1,2,0:0:0:0:
284,40,31354,2,0,P|256:63|239:94,1,71.9999978027344
148,200,31654,6,0,P|145:131|84:101,1,143.999995605469,0|0,1:0|0:0,0:0:0:0:
104,292,32104,1,2,0:0:0:0:
148,200,32254,2,0,P|182:190|217:193,1,71.9999978027344
372,268,32554,6,0,B|337:300|337:300|241:284,1,143.999995605469,2|0,1:3|0:0,0:0:0:0:
376,164,33004,1,2,0:0:0:0:
460,223,33154,2,0,P|469:258|465:294,1,71.9999978027344,4|0,0:3|0:0,0:0:0:0:
263,370,33454,6,0,P|106:150|376:164,1,671.999979492188,4|2,0:0|0:0,0:0:0:0:
376,164,36154,6,0,P|410:137|367:133,1,111.999996582031,2|0,0:0|0:0,0:0:0:0:
270,150,36604,2,0,P|268:122|274:95,1,55.9999982910157
275,95,37054,6,0,L|155:106,1,120.000004577637,2|0,0:0|0:0,0:0:0:0:
57,271,37654,2,0,P|47:242|45:212,1,60.0000022888184,2|0,0:0|0:0,0:0:0:0:
155,106,37954,6,0,L|141:225,1,120.000004577637,2|0,0:0|0:0,0:0:0:0:
305,319,38554,2,0,P|276:328|246:330,1,60.0000022888184,2|0,0:0|0:0,0:0:0:0:
141,225,38854,6,0,L|260:236,1,120.000004577637,2|0,0:0|0:0,0:0:0:0:
333,62,39454,2,0,P|342:90|344:120,1,60.0000022888184,2|0,0:0|0:0,0:0:0:0:
260,236,39754,6,0,L|246:116,1,120.000004577637,2|0,0:0|0:0,0:0:0:0:
439,59,40354,2,0,P|429:88|428:118,1,60.0000022888184,2|0,0:0|0:0,0:0:0:0:
504,176,40654,5,2,0:0:0:0:
336,268,40954,1,2,0:0:0:0:
428,118,41254,1,2,0:0:0:0:
492,340,41554,6,0,P|441:369|383:360,1,120.000004577637,2|0,0:0|0:0,0:0:0:0:
432,220,42004,1,2,0:0:0:0:
432,220,42154,2,0,L|427:279,1,60.0000022888184,2|0,0:0|0:0,0:0:0:0:
292,300,42454,6,0,B|265:274|265:274|280:192,2,120.000004577637,2|0|0,0:0|0:0|0:0,0:0:0:0:
356,132,43354,5,2,0:0:0:0:
172,148,43654,2,0,L|181:207,1,60.0000022888184
83,275,43954,1,2,0:0:0:0:
83,275,44254,6,0,P|62:219|73:161,1,120.000004577637,2|0,0:0|0:0,0:0:0:0:
240,68,44854,2,0,L|182:49,1,60.0000022888184,2|0,0:0|0:0,0:0:0:0:
73,161,45154,6,0,P|131:171|186:150,1,120.000004577637,2|0,0:0|0:0,0:0:0:0:
309,253,45754,2,0,L|291:311,1,60.0000022888184,2|0,0:0|0:0,0:0:0:0:
196,264,46054,6,0,P|174:208|186:151,1,120.000004577637,2|0,0:0|0:0,0:0:0:0:
368,168,46654,2,0,L|310:149,1,60.0000022888184,2|0,0:0|0:0,0:0:0:0:
196,264,46954,6,0,P|254:275|309:254,1,120.000004577637,2|0,0:0|0:0,0:0:0:0:
308,56,47554,2,0,L|250:74,1,60.0000022888184,2|0,0:0|0:0,0:0:0:0:
164,132,47854,6,0,B|142:92|142:92|159:19,1,120.000004577637,2|0,0:0|0:0,0:0:0:0:
250,74,48304,1,2,0:0:0:0:
250,74,48454,1,0,0:0:0:0:
196,264,48754,6,0,L|314:243,1,120.000004577637,2|0,0:0|0:0,0:0:0:0:
408,288,49204,1,2,0:0:0:0:
408,288,49354,2,0,L|417:228,1,60.0000022888184
244,184,49654,6,0,P|225:240|242:297,2,120.000004577637,2|2|2,0:0|0:0|0:0,0:0:0:0:
60,152,50554,6,0,L|44:144,1,17.9999994506836,10|0,3:0|0:0,0:0:0:0:
60,152,50854,6,0,L|44:246,1,96,4|0,0:0|0:0,0:0:0:0:
72,224,51154,2,0,L|86:135,1,90.0000034332277,4|0,3:0|0:0,0:0:0:0:
56,52,51454,6,0,P|98:106|166:97,1,143.999995605469,4|2,0:0|0:0,0:0:0:0:
320,28,51904,1,0,0:0:0:0:
268,112,52054,2,0,L|279:183,1,71.9999978027344,2|0,0:0|0:0,0:0:0:0:
356,224,52354,6,0,P|288:214|246:268,1,143.999995605469,0|2,1:0|0:0,0:0:0:0:
310,349,52804,1,0,0:0:0:0:
146,313,52954,2,0,L|138:241,1,71.9999978027344,2|0,0:0|0:0,0:0:0:0:
261,125,53254,6,0,L|246:268,1,143.999995605469,0|2,1:0|0:0,0:0:0:0:
420,245,53704,1,0,0:0:0:0:
381,335,53854,2,0,L|310:349,1,71.9999978027344,2|0,0:0|0:0,0:0:0:0:
224,169,54154,6,0,P|259:168|293:180,2,71.9999978027344,0|0|2,1:0|0:0|0:0,0:0:0:0:
245,268,54604,1,0,0:0:0:0:
420,245,54754,2,0,L|416:173,1,71.9999978027344,2|0,0:0|0:0,0:0:0:0:
276,53,55054,6,0,P|257:120|294:180,1,143.999995605469,0|2,1:0|0:0,0:0:0:0:
342,108,55504,1,0,0:0:0:0:
168,128,55654,2,0,L|164:200,1,71.9999978027344,2|0,0:0|0:0,0:0:0:0:
232,277,55954,6,0,P|171:244|112:281,1,143.999995605469,0|2,1:0|0:0,0:0:0:0:
296,353,56404,1,0,0:0:0:0:
352,281,56554,2,0,P|356:245|348:210,1,71.9999978027344,2|0,0:0|0:0,0:0:0:0:
263,119,56854,6,0,L|407:108,1,143.999995605469,0|2,1:0|0:0,0:0:0:0:
496,8,57304,1,0,0:0:0:0:
320,60,57454,1,2,0:0:0:0:
406,108,57604,1,0,0:0:0:0:
204,172,57754,5,4,0:0:0:0:
204,172,58054,2,0,P|168:166|141:143,1,71.9999978027344,2|0,0:0|0:0,0:0:0:0:
100,48,58354,1,2,0:0:0:0:
100,48,58654,6,0,L|80:190,1,143.999995605469,0|2,1:0|0:0,0:0:0:0:
88,360,59104,1,0,0:0:0:0:
172,303,59254,2,0,P|175:268|169:232,1,71.9999978027344,2|0,0:0|0:0,0:0:0:0:
79,190,59554,6,0,L|221:168,1,143.999995605469,0|2,1:0|0:0,0:0:0:0:
324,24,60004,1,0,0:0:0:0:
420,124,60154,2,0,P|384:127|348:121,1,71.9999978027344,2|0,0:0|0:0,0:0:0:0:
207,25,60454,6,0,L|221:168,1,143.999995605469,0|2,1:0|0:0,0:0:0:0:
232,320,60904,1,0,0:0:0:0:
136,288,61054,2,0,P|130:252|133:216,1,71.9999978027344,2|0,0:0|0:0,0:0:0:0:
304,232,61354,6,0,L|375:221,2,71.9999978027344,0|0|2,1:0|0:0|0:0,0:0:0:0:
221,168,61804,1,0,0:0:0:0:
232,320,61954,2,0,L|303:330,1,71.9999978027344,2|0,0:0|0:0,0:0:0:0:
476,272,62254,6,0,B|489:209|489:209|481:129,1,143.999995605469,0|2,1:0|0:0,0:0:0:0:
312,100,62704,1,0,0:0:0:0:
384,176,62854,2,0,B|388:212|388:212|380:247,1,71.9999978027344,2|0,0:0|0:0,0:0:0:0:
144,196,63154,6,0,B|216:216|216:216|284:212,1,143.999995605469,0|2,1:0|0:0,0:0:0:0:
120,100,63604,1,0,0:0:0:0:
36,164,63754,2,0,B|32:200|32:200|39:235,1,71.9999978027344,2|0,0:0|0:0,0:0:0:0:
123,339,64054,6,0,L|144:196,1,143.999995605469,0|2,1:0|0:0,0:0:0:0:
228,124,64504,1,0,0:0:0:0:
39,235,64654,1,2,0:0:0:0:
176,276,64804,1,0,0:0:0:0:
36,80,64954,6,0,P|100:102|149:54,2,143.999995605469,4|0|0,0:0|1:0|1:0,0:0:0:0:
343,14,65854,6,0,L|318:192,1,180.000006866455,4|0,0:0|0:0,0:0:0:0:
418,210,66454,2,0,P|419:180|412:152,1,60.0000022888184,2|0,0:0|0:0,0:0:0:0:
318,192,66754,6,0,B|263:203|263:203|205:176,1,120.000004577637,2|2,0:3|0:0,0:0:0:0:
356,288,67204,1,0,0:0:0:0:
356,288,67354,2,0,L|350:347,1,60.0000022888184,2|0,0:0|0:0,0:0:0:0:
206,319,67654,6,0,P|159:247|205:176,1,180.000006866455,2|0,0:3|0:0,0:0:0:0:
132,104,68254,2,0,L|72:112,1,60.0000022888184,2|0,0:0|0:0,0:0:0:0:
4,188,68554,5,2,0:3:0:0:
236,248,68854,2,0,L|247:158,1,90.0000034332277,4|0,0:0|0:0,0:0:0:0:
247,158,69154,1,0,1:0:0:0:
492,24,69454,6,0,P|478:104|397:93,1,180.000006866455,2|0,0:3|0:0,0:0:0:0:
484,148,70054,2,0,P|483:177|474:206,1,60.0000022888184,2|0,0:0|0:0,0:0:0:0:
388,296,70354,6,0,B|367:285|367:285|355:189,2,120.000004577637,2|2|2,0:3|0:0|0:0,0:0:0:0:
244,136,71254,6,0,L|228:315,1,180.000006866455,2|0,0:3|0:0,0:0:0:0:
127,335,71854,2,0,P|125:306|132:277,1,60.0000022888184,2|0,0:0|0:0,0:0:0:0:
228,315,72154,5,2,0:3:0:0:
164,76,72454,2,0,L|74:86,1,90.0000034332277,4|0,0:0|0:0,0:0:0:0:
74,86,72754,1,0,1:0:0:0:
24,340,73054,6,0,P|105:355|132:277,1,180.000006866455,2|0,0:3|0:0,0:0:0:0:
12,180,73654,2,0,L|70:192,1,60.0000022888184,2|0,0:0|0:0,0:0:0:0:
172,180,73954,6,0,B|189:164|189:164|171:69,2,120.000004577637,2|2|2,0:3|0:0|0:0,0:0:0:0:
331,32,74854,6,0,L|305:210,1,180.000006866455,2|0,0:3|0:0,0:0:0:0:
287,312,75454,2,0,P|257:305|233:289,1,60.0000022888184,2|0,0:0|0:0,0:0:0:0:
380,265,75754,6,0,P|389:294|387:324,1,60.0000022888184,2|0,0:3|0:0,0:0:0:0:
305,210,76054,2,0,L|318:121,1,90.0000034332277,4|0,0:0|0:0,0:0:0:0:
296,132,76354,2,0,L|282:220,1,90.0000034332277,0|0,1:0|0:0,0:0:0:0:
233,289,76654,6,0,P|204:286|177:272,1,60,0|0,1:0|0:0,0:0:0:0:
100,249,76954,6,0,P|99:285|113:318,1,71.9999978027344,0|0,1:0|0:0,0:0:0:0:
24,219,77254,6,0,P|50:187|88:169,1,83.9999974365235,0|0,1:0|0:0,0:0:0:0:
126,96,77554,6,0,P|79:88|35:105,1,96,0|0,1:0|0:0,0:0:0:0:
178,35,77854,6,0,P|203:82|195:135,1,107.999996704102,0|0,1:0|0:0,0:0:0:0:
225,211,78154,6,0,P|267:171|275:112,1,120,12|0,1:3|0:0,0:0:0:0:
195,134,78454,6,0,P|155:254|284:270,1,287.999991210938,0|0,1:0|1:0,0:0:0:0:
420,179,79054,2,0,L|327:188,1,88.000002685547,0|4,1:0|3:0,0:0:0:0:
280,273,79354,6,0,L|476:286,1,176.000005371094,0|8,1:0|3:0,0:0:0:0:
336,191,79804,1,0,1:0:0:0:
336,191,79954,2,0,P|348:227|381:260,1,64,4|4,3:0|3:0,0:0:0:0:
196,272,80254,6,0,L|212:113,1,160,4|2,0:1|0:0,0:0:0:0:
272,28,80704,1,0,0:0:0:0:
120,93,80854,2,0,P|119:132|136:168,1,80,2|0,0:0|0:0,0:0:0:0:
272,28,81154,6,0,L|350:41,1,80,8|0,1:2|0:0,0:0:0:0:
498,106,81454,2,0,L|420:120,1,80,2|0,0:0|0:0,0:0:0:0:
277,190,81754,2,0,L|356:204,1,80,2|0,0:0|0:0,0:0:0:0:
400,340,82054,5,2,3:0:0:0:
400,340,82204,1,0,0:0:0:0:
304,380,82354,2,0,P|294:341|300:302,1,80,2|0,0:0|0:0,0:0:0:0:
180,291,82654,2,0,P|125:313|69:297,1,120,4|0,0:0|0:0,0:0:0:0:
120,231,82954,6,0,B|116:206|104:186|104:186|123:136|116:75,2,160,8|2|2,1:2|0:0|0:0,0:0:0:0:
120,231,83704,1,0,0:0:0:0:
236,183,83854,6,0,P|281:243|354:223,1,160,2|2,3:0|0:0,0:0:0:0:
440,128,84304,1,0,0:0:0:0:
512,204,84454,2,0,L|495:282,1,80,2|0,0:0|0:0,0:0:0:0:
354,301,84754,6,0,P|345:262|354:223,1,80,8|0,1:2|0:0,0:0:0:0:
272,160,85054,2,0,P|301:133|339:121,1,80,2|0,0:0|0:0,0:0:0:0:
353,18,85354,2,0,P|390:30|420:56,1,80,2|0,0:0|0:0,0:0:0:0:
353,223,85654,5,2,3:0:0:0:
272,160,85804,1,0,0:0:0:0:
124,223,85954,2,0,L|202:237,1,80,2|0,0:0|0:0,0:0:0:0:
196,87,86254,2,0,L|78:109,1,120,4|0,0:0|0:0,0:0:0:0:
24,172,86554,6,0,B|27:196|40:217|40:217|21:267|27:327,2,160,4|4|2,1:3|1:3|0:0,0:0:0:0:
24,172,87304,1,0,0:0:0:0:
202,237,87454,6,0,P|271:214|260:141,1,160,2|2,3:0|0:0,0:0:0:0:
128,128,87904,1,0,0:0:0:0:
156,316,88054,1,2,0:0:0:0:
168,152,88204,1,0,0:0:0:0:
359,206,88354,6,0,L|202:237,1,160,8|2,1:2|0:0,0:0:0:0:
412,120,88804,1,0,0:0:0:0:
424,284,88954,1,2,0:0:0:0:
452,96,89104,1,0,0:0:0:0:
273,120,89254,6,0,P|284:193|358:205,1,160,2|2,3:0|0:0,0:0:0:0:
348,44,89704,1,0,0:0:0:0:
273,120,89854,2,0,P|215:119|181:72,1,120,4|0,0:0|0:0,0:0:0:0:
104,24,90154,6,0,L|94:103,1,80,8|0,1:2|0:0,0:0:0:0:
184,160,90454,2,0,L|193:239,1,80,2|0,0:0|0:0,0:0:0:0:
96,280,90754,2,0,L|86:359,1,80,2|0,0:0|0:0,0:0:0:0:
320,356,91054,6,0,P|355:290|301:239,1,160,2|2,3:0|0:0,0:0:0:0:
218,321,91504,1,0,0:0:0:0:
301,239,91654,2,0,L|317:160,1,80,2|0,0:0|0:0,0:0:0:0:
502,278,91954,6,0,P|453:308|396:293,1,120,8|0,1:2|0:0,0:0:0:0:
396,218,92254,2,0,P|433:204|473:205,1,80,2|0,0:0|0:0,0:0:0:0:
301,239,92554,2,0,B|277:204|277:204|292:128,1,120,4|0,0:0|0:0,0:0:0:0:
270,89,92854,6,0,P|235:97|176:108,1,96,4|0,0:0|0:0,0:0:0:0:
150,65,93154,6,0,P|133:113|114:167,1,107.999996704102,4|0,0:0|0:0,0:0:0:0:
70,201,93454,6,0,P|113:248|148:291,1,120,4|0,0:0|0:0,0:0:0:0:
138,353,93754,6,0,P|203:338|267:329,1,132.00000402832,8|0,0:3|0:0,0:0:0:0:
360,308,94054,5,4,0:3:0:0:
400,96,94204,1,4,0:3:0:0:
184,139,94354,5,2,0:0:0:0:
236,256,94504,1,0,0:0:0:0:
268,117,94654,6,0,P|212:75|184:139,1,160,4|2,0:1|0:0,0:0:0:0:
236,256,95104,1,0,0:0:0:0:
350,157,95254,2,0,P|359:118|352:79,1,80,2|0,0:0|0:0,0:0:0:0:
173,59,95554,6,0,L|184:139,1,80,8|0,1:2|0:0,0:0:0:0:
116,305,95854,2,0,L|126:225,1,80,2|0,0:0|0:0,0:0:0:0:
40,78,96154,2,0,L|50:157,1,80,2|0,0:0|0:0,0:0:0:0:
272,212,96454,6,0,P|257:139|183:138,1,160,2|2,3:0|0:0,0:0:0:0:
220,304,96904,1,0,0:0:0:0:
272,212,97054,2,0,L|391:224,1,120,4|0,0:0|0:0,0:0:0:0:
474,201,97354,6,0,B|485:141|471:90|471:90|484:71|490:46,2,160,8|2|2,1:2|0:0|0:0,0:0:0:0:
474,201,98104,1,0,0:0:0:0:
331,328,98254,6,0,P|267:288|272:212,1,160,2|2,3:0|0:0,0:0:0:0:
320,32,98704,1,0,0:0:0:0:
440,128,98854,2,0,L|360:134,1,80,2|0,0:0|0:0,0:0:0:0:
188,75,99154,6,0,P|176:113|179:153,1,80,8|0,1:2|0:0,0:0:0:0:
243,285,99454,2,0,P|264:251|273:212,1,80,2|0,0:0|0:0,0:0:0:0:
91,213,99754,2,0,P|100:251|120:285,1,80,2|0,0:0|0:0,0:0:0:0:
179,153,100054,6,0,B|121:171|121:171|12:160,1,160,2|2,3:0|0:0,0:0:0:0:
195,41,100504,1,0,0:0:0:0:
291,93,100654,2,0,L|272:212,1,120,4|0,0:0|0:0,0:0:0:0:
312,288,100954,6,0,B|337:284|357:272|357:272|407:291|468:284,2,160,8|8|2,1:3|1:3|0:0,0:0:0:0:
312,288,101704,1,0,0:0:0:0:
444,84,101854,6,0,P|450:158|381:185,1,160,2|2,3:0|0:0,0:0:0:0:
196,60,102304,1,0,0:0:0:0:
360,96,102454,1,2,0:0:0:0:
184,104,102604,1,0,0:0:0:0:
335,254,102754,6,0,L|360:96,1,160,8|2,1:2|0:0,0:0:0:0:
244,300,103204,1,0,0:0:0:0:
420,308,103354,1,2,0:0:0:0:
256,344,103504,1,0,0:0:0:0:
308,152,103654,6,0,P|248:109|198:163,1,160,2|2,3:0|0:0,0:0:0:0:
126,285,104104,1,0,0:0:0:0:
34,237,104254,2,0,L|19:117,1,120,4|0,0:0|0:0,0:0:0:0:
62,45,104554,6,0,B|123:52|173:33|173:33|193:45|218:49,2,160,8|2|2,1:2|0:0|0:0,0:0:0:0:
62,45,105304,1,0,0:0:0:0:
134,249,105454,6,0,P|193:205|160:139,1,160,2|2,3:0|0:0,0:0:0:0:
28,240,105904,1,0,0:0:0:0:
188,332,106054,1,2,0:0:0:0:
6,275,106204,1,0,0:0:0:0:
121,89,106354,6,0,L|134:249,1,160,8|2,1:2|0:0,0:0:0:0:
312,184,106804,1,0,0:0:0:0:
220,24,106954,1,2,0:0:0:0:
277,207,107104,1,0,0:0:0:0:
454,103,107254,6,0,P|394:55|322:83,1,160,2|2,3:0|0:0,0:0:0:0:
276,296,107704,1,0,0:0:0:0:
193,168,107854,2,0,L|312:184,1,120,4|0,0:0|0:0,0:0:0:0:
332,196,108154,6,0,L|172:207,1,160,4|4,1:2|1:2,0:0:0:0:
20,220,108604,1,2,0:0:0:0:
180,93,108754,2,0,B|195:158|195:158|172:207,1,120,4|0,1:2|0:0,0:0:0:0:
192,288,109054,6,0,P|258:312|323:285,1,143.999995605469,4|2,1:0|0:0,0:0:0:0:
316,64,109504,1,0,0:0:0:0:
244,136,109654,2,0,L|256:208,1,71.9999978027344,2|0,0:0|0:0,0:0:0:0:
412,288,109954,6,0,P|436:261|452:229,1,71.9999978027344,0|0,1:0|0:0,0:0:0:0:
408,72,110254,2,0,P|410:107|402:142,1,71.9999978027344,2|0,0:0|0:0,0:0:0:0:
255,207,110554,2,0,P|289:215|325:212,1,71.9999978027344,4|0,0:3|0:0,0:0:0:0:
244,52,110854,6,0,P|210:111|142:106,1,143.999995605469,2|2,1:3|0:0,0:0:0:0:
40,212,111304,1,0,0:0:0:0:
40,212,111454,2,0,P|75:211|108:226,1,71.9999978027344,4|0,0:0|0:0,0:0:0:0:
247,346,111754,6,0,B|259:319|255:283|255:283|235:251|255:207,2,143.999995605469,2|2|2,1:3|0:0|0:0,0:0:0:0:
404,72,112654,6,0,P|377:133|428:176,1,143.999995605469,2|2,1:3|0:0,0:0:0:0:
480,280,113104,1,0,0:0:0:0:
480,280,113254,2,0,L|408:292,1,71.9999978027344,4|0,0:3|0:0,0:0:0:0:
254,207,113554,6,0,P|289:207|323:219,1,71.9999978027344,0|0,1:0|0:0,0:0:0:0:
248,324,113854,2,0,P|214:336|178:336,1,71.9999978027344,2|0,0:0|0:0,0:0:0:0:
200,161,114154,2,0,P|230:179|253:206,1,71.9999978027344,4|0,0:3|0:0,0:0:0:0:
64,288,114454,6,0,B|40:252|40:252|54:152,1,143.999995605469,2|2,1:3|0:0,0:0:0:0:
144,68,114904,1,0,0:0:0:0:
271,170,115054,2,0,L|200:161,1,71.9999978027344,4|0,0:3|0:0,0:0:0:0:
64,288,115354,6,0,B|91:276|127:280|127:280|159:300|203:280,2,143.999995605469,2|2|2,1:3|0:0|0:0,0:0:0:0:
144,68,116254,6,0,P|205:96|249:45,1,143.999995605469,4|0,1:2|0:0,0:0:0:0:
328,132,116704,1,2,0:0:0:0:
268,216,116854,2,0,L|276:292,1,71.9999978027344
424,160,117154,6,0,P|430:125|422:90,2,71.9999978027344,2|0|0,1:3|0:0|0:0,0:0:0:0:
376,272,117604,1,2,0:0:0:0:
376,272,117754,2,0,L|447:260,1,71.9999978027344
328,132,118054,6,0,P|264:150|269:217,1,143.999995605469,0|2,1:0|0:0,0:0:0:0:
144,304,118504,1,0,0:0:0:0:
64,248,118654,2,0,L|57:176,1,71.9999978027344,4|0,0:0|0:0,0:0:0:0:
164,60,118954,6,0,P|167:95|154:128,2,71.9999978027344,2|0|2,1:3|0:0|0:0,0:0:0:0:
280,176,119404,1,0,0:0:0:0:
280,176,119554,2,0,P|251:196|215:202,1,71.9999978027344,4|0,0:3|0:0,0:0:0:0:
164,60,119854,6,0,L|289:84,1,128,2|0,1:2|0:0,0:0:0:0:
428,140,120304,1,2,0:0:0:0:
428,140,120454,2,0,L|365:154,1,64,4|0,0:0|0:0,0:0:0:0:
216,264,120754,6,0,P|263:297|318:281,1,120.000004577637,2|0,1:2|0:0,0:0:0:0:
428,296,121204,1,2,0:0:0:0:
428,296,121354,2,0,L|436:236,1,60.0000022888184,2|0,0:3|0:0,0:0:0:0:
362,49,121654,6,0,P|347:102|365:153,1,111.999996582031,0|0,1:0|1:0,0:0:0:0:
319,280,122104,5,2,0:0:0:0:
258,208,122254,1,0,1:0:0:0:
226,296,122404,1,0,1:0:0:0:
98,281,122554,6,0,P|87:255|83:228,1,55.9999982910157,8|0,0:3|0:0,0:0:0:0:
180,140,122887,6,0,P|174:163|165:185,1,47.9999985351563,4|0,0:3|0:0,0:0:0:0:
96,108,123250,6,0,P|88:89|84:69,1,40,4|0,0:3|0:0,0:0:0:0:
256,192,123625,12,2,126625,0:0:0:0:
