osu file format v14

[General]
AudioFilename: audio.mp3
AudioLeadIn: 0
PreviewTime: 78787
Countdown: 0
SampleSet: Soft
StackLeniency: 0.7
Mode: 0
LetterboxInBreaks: 0
WidescreenStoryboard: 1

[Editor]
Bookmarks: 15487,22687,29887,37087,44287,51487,58687,65887,73087,80287,87487,94687,101887,109087,116287,123654,123761
DistanceSpacing: 1.2
BeatDivisor: 4
GridSize: 4
TimelineZoom: 1

[Metadata]
Title:Kaze no Uta
TitleUnicode:風の唄
Artist:MAMI
ArtistUnicode:MAMI
Creator:[[Pika]]
Version:Phoenix
Source:ニュートンと林檎の樹
Tags:
BeatmapID:2479555
BeatmapSetID:604969

[Difficulty]
HPDrainRate:6
CircleSize:5
OverallDifficulty:9.3
ApproachRate:9.3
SliderMultiplier:1.4
SliderTickRate:1

[Events]
//Background and Video events
0,0,"nr_mv_alice.jpg",0,0
Video,0,"newton.avi"
//Break Periods
2,109287,112133
//Storyboard Layer 0 (Background)
//Storyboard Layer 1 (Fail)
//Storyboard Layer 2 (Pass)
//Storyboard Layer 3 (Foreground)
//Storyboard Layer 4 (Overlay)
//Storyboard Sound Samples

[TimingPoints]
8287,300,3,2,0,70,1,0
15487,-142.857142857143,3,2,0,70,0,0
22087,-117.647058823529,3,2,0,70,0,0
22687,-83.3333333333333,3,2,0,70,0,1
33487,-83.3333333333333,3,2,0,70,0,0
36787,-125,3,2,0,70,0,0
37087,-100,3,2,0,70,0,0
49687,-133.333333333333,3,2,0,70,0,0
50287,-76.9230769230769,3,2,0,70,0,0
50587,-55.5555555555556,3,2,0,70,0,1
50662,-55.5555555555556,3,2,0,70,0,0
50887,-66.6666666666667,3,2,0,70,0,0
51187,-90.9090909090909,3,2,0,70,0,0
65887,-86.9565217391304,3,2,0,70,0,0
68887,-113.636363636364,3,2,0,70,0,0
69187,-66.6666666666667,3,2,0,70,0,0
69487,-86.9565217391304,3,2,0,70,0,0
72787,-66.6666666666667,3,2,0,70,0,0
73087,-86.9565217391304,3,2,0,70,0,0
75787,-83.3333333333333,3,2,0,70,0,0
76162,-74.0740740740741,3,2,0,70,0,0
76387,-66.6666666666667,3,2,0,70,0,0
76687,-74.0740740740741,3,2,0,70,0,0
77587,-68.9655172413793,3,2,0,70,0,0
78487,-45.4545454545455,3,2,0,70,0,0
80287,-74.0740740740741,3,2,0,70,0,1
93787,-74.0740740740741,3,2,0,70,0,0
94687,-74.0740740740741,3,2,0,70,0,1
105487,-71.4285714285714,3,2,0,70,0,1
106387,-68.9655172413793,3,2,0,70,0,1
107287,-66.6666666666667,3,2,0,70,0,1
109087,-90.9090909090909,3,2,0,70,0,0
122587,303.030303030303,3,2,0,100,1,0
122890,348.837209302326,3,2,0,100,1,0
122890,-125,3,2,0,100,0,0
123238,416.666666666667,3,2,0,100,1,0
123238,-250,3,2,0,100,0,0
123654,428.571428571429,3,2,0,100,1,0

[Colours]
Combo1 : 214,214,214
Combo2 : 214,73,73
Combo3 : 255,230,51
Combo4 : 91,193,255
Combo5 : 194,103,20
Combo6 : 17,202,13

[HitObjects]
91,268,15487,6,0,P|44:236|36:199,1,97.9999970092774
156,245,15937,2,0,P|160:273|154:297,1,48.9999985046387
104,201,16237,2,0,P|126:183|150:176,1,48.9999985046387
259,208,16537,1,0,0:0:0:0:
259,208,16687,2,0,L|197:199,1,48.9999985046387
292,271,16987,2,0,L|230:280,1,48.9999985046387
311,347,17287,6,0,B|274:341|274:341|253:349|253:349|205:344,1,97.9999970092774
376,369,17737,2,0,B|382:344|382:344|369:306,1,48.9999985046387
439,261,18037,2,0,B|433:286|433:286|440:308,1,48.9999985046387
417,196,18337,1,0,0:0:0:0:
417,196,18487,2,0,P|395:210|382:229,1,48.9999985046387
483,202,18787,2,0,P|481:175|471:155,1,48.9999985046387
405,42,19087,6,0,B|428:72|428:72|408:138,1,97.9999970092774
306,93,19537,2,0,L|359:85,1,48.9999985046387
270,155,19837,2,0,L|323:163,1,48.9999985046387
215,115,20137,1,0,0:0:0:0:
215,115,20287,2,0,P|203:145|207:170,1,48.9999985046387
143,215,20587,2,0,P|142:190|132:168,1,48.9999985046387
47,119,20887,6,0,B|103:135|90:89|144:104,1,97.9999970092774
180,4,21337,2,0,L|188:60,1,48.9999985046387
305,68,21637,2,0,L|249:60,1,48.9999985046387
139,102,21937,1,0,0:0:0:0:
139,102,22087,2,0,P|171:122|214:118,1,59.5000011348724
293,148,22387,2,0,P|259:165|241:204,1,59.5000011348724
375,332,22687,6,0,P|429:265|406:183,1,167.999994873047
282,308,23137,1,0,0:0:0:0:
282,308,23287,2,0,B|304:344|304:344|293:393,1,83.9999974365235
118,264,23587,6,0,B|108:223|108:223|130:187,1,83.9999974365235
338,249,23887,1,0,0:0:0:0:
216,357,24037,1,0,0:0:0:0:
344,243,24187,2,0,L|436:249,1,83.9999974365235
277,25,24487,6,0,B|285:92|285:92|266:125|266:125|273:191,1,167.999994873047
198,243,24937,1,0,0:0:0:0:
66,143,25087,2,0,P|104:108|147:105,1,83.9999974365235
122,352,25387,6,0,B|81:344|81:344|48:300,1,83.9999974365235
272,206,25687,2,0,B|285:245|285:245|264:295,1,83.9999974365235
70,149,25987,2,0,B|97:117|97:117|151:110,1,83.9999974365235
269,284,26287,6,0,B|315:316|315:316|429:294,1,167.999994873047
458,222,26737,1,0,0:0:0:0:
261,292,26887,2,0,P|246:332|256:370,1,83.9999974365235
405,164,27187,6,0,L|309:154,1,83.9999974365235
109,189,27487,1,0,0:0:0:0:
267,91,27637,1,0,0:0:0:0:
100,22,27787,2,0,B|86:63|86:63|99:110,1,83.9999974365235
151,321,28087,6,0,B|123:236|209:256|184:166,1,167.999994873047
112,111,28537,1,0,0:0:0:0:
338,47,28687,2,0,B|352:82|352:82|340:126,1,83.9999974365235
117,208,28987,6,0,P|145:176|184:166,1,83.9999974365235
367,320,29287,2,0,P|325:311|296:282,1,83.9999974365235
338,47,29587,2,0,P|351:87|340:126,1,83.9999974365235
451,284,29887,6,0,B|413:241|413:241|441:114,1,167.999994873047
501,73,30337,1,0,0:0:0:0:
341,202,30487,2,0,B|298:215|298:215|261:203,1,83.9999974365235
426,362,30787,6,0,L|522:346,1,83.9999974365235
341,202,31087,1,0,0:0:0:0:
293,384,31237,1,0,0:0:0:0:
186,234,31387,2,0,B|174:194|174:194|195:149,1,83.9999974365235
0,34,31687,6,0,B|90:20|62:98|156:79,1,167.999994873047
239,46,32137,1,0,0:0:0:0:
267,203,32287,2,0,L|282:293,1,83.9999974365235
108,156,32587,6,0,P|179:173|190:183,1,83.9999974365235
388,103,32887,2,0,P|327:144|321:157,1,83.9999974365235
335,351,33187,1,0,0:0:0:0:
280,285,33337,1,0,0:0:0:0:
252,361,33487,5,0,0:0:0:0:
235,366,34387,1,0,0:0:0:0:
214,363,35287,1,0,0:0:0:0:
201,356,36187,1,0,0:0:0:0:
145,308,36487,1,0,0:0:0:0:
145,308,36637,1,0,0:0:0:0:
145,308,36787,6,0,L|152:246,1,56
68,204,37087,6,0,P|118:182|135:98,2,140
83,52,37987,2,0,B|127:27|127:27|218:50,1,140
253,114,38437,1,0,0:0:0:0:
253,114,38587,1,0,0:0:0:0:
459,22,38887,6,0,B|442:99|512:78|488:159,1,140
348,347,39487,2,0,P|340:310|351:279,1,70
471,268,39787,2,0,P|407:243|350:279,1,140
416,316,40237,1,0,0:0:0:0:
416,316,40387,1,0,0:0:0:0:
190,132,40687,6,0,L|246:176,1,70
267,333,40987,2,0,L|277:261,1,70
402,165,41287,2,0,L|335:191,1,70
293,38,41587,6,0,B|334:20|334:20|308:113,1,140
223,64,42037,1,0,0:0:0:0:
223,64,42187,1,0,0:0:0:0:
166,218,42487,6,0,P|103:196|21:200,2,140
366,277,43387,2,0,B|308:280|308:280|283:265|283:265|228:269,1,140
189,335,43837,1,0,0:0:0:0:
189,335,43987,1,0,0:0:0:0:
403,211,44287,6,0,P|385:276|423:333,1,140
286,142,44887,2,0,B|320:157|320:157|355:149,1,70
457,86,45187,2,0,B|429:61|429:61|322:83,1,140
286,142,45637,1,0,0:0:0:0:
286,142,45787,1,0,0:0:0:0:
40,192,46087,6,0,B|115:172|96:234|176:214,1,140
198,343,46687,2,0,P|164:320|149:288,1,70
220,151,46987,2,0,P|240:175|217:275,1,140
78,122,47587,1,0,0:0:0:0:
148,146,47737,1,0,0:0:0:0:
187,82,47887,6,0,P|274:79|339:60,1,140
382,18,48337,1,0,0:0:0:0:
382,18,48487,2,0,P|399:52|387:95,1,70
323,190,48787,2,0,B|295:157|295:157|330:48,1,140
475,280,49387,2,0,L|460:208,1,70
342,341,49687,6,0,B|366:338|366:338|392:350|392:350|418:346,1,78.7500030040742
424,354,49987,6,0,B|400:357|400:357|374:345|374:345|348:349,1,78.7500030040742
286,384,50287,6,0,P|331:346|303:276,1,136.499993751526
185,224,50587,6,0,L|190:269,1,31.4999990386963
199,268,50887,6,0,B|233:231|233:231|203:117,1,157.500006008148
180,115,51187,2,0,P|137:134|127:167,1,77.0000023498536
78,27,51487,6,0,P|173:46|233:41,1,154.000004699707
366,119,51937,1,0,0:0:0:0:
302,162,52087,2,0,B|287:123|287:123|297:85,1,77.0000023498536
450,195,52387,2,0,L|366:203,1,77.0000023498536
247,290,52687,1,0,0:0:0:0:
379,276,52837,1,0,0:0:0:0:
247,290,52987,2,0,B|235:330|235:330|248:363,1,77.0000023498536
184,230,53287,6,0,P|112:247|104:331,1,154.000004699707
152,373,53737,1,0,0:0:0:0:
190,235,53887,2,0,B|202:195|202:195|189:162,1,77.0000023498536
57,134,54187,2,0,B|27:92|27:92|144:110,1,154.000004699707
189,162,54637,1,0,0:0:0:0:
281,64,54787,2,0,P|330:94|333:124,1,77.0000023498536
275,289,55087,6,0,P|277:194|259:122,1,154.000004699707
203,83,55537,1,0,0:0:0:0:
353,178,55687,2,0,L|433:168,1,77.0000023498536
272,300,55987,2,0,B|211:292|211:292|181:313|181:313|120:303,1,154.000004699707
61,348,56437,1,0,0:0:0:0:
0,215,56587,2,0,P|-5:175|16:134,1,77.0000023498536
183,194,56887,6,0,L|59:185,1,115.50000352478
71,194,57187,1,0,0:0:0:0:
229,132,57337,1,0,0:0:0:0:
36,73,57487,1,0,0:0:0:0:
36,73,57637,1,0,0:0:0:0:
55,264,57787,5,0,0:0:0:0:
360,129,58087,1,0,0:0:0:0:
295,163,58237,1,0,0:0:0:0:
229,132,58387,2,0,P|214:94|222:60,1,77.0000023498536
362,205,58687,6,0,B|469:219|469:219|432:180,1,154.000004699707
294,238,59137,1,0,0:0:0:0:
356,356,59287,2,0,B|369:319|369:319|354:283,1,77.0000023498536
216,205,59587,2,0,L|225:285,1,77.0000023498536
150,167,59887,1,0,0:0:0:0:
116,321,60037,1,0,0:0:0:0:
13,219,60187,2,0,P|53:204|94:215,1,77.0000023498536
273,128,60487,6,0,B|180:149|217:78|123:99,1,154.000004699707
66,135,60937,1,0,0:0:0:0:
194,28,61087,2,0,P|242:36|242:86,1,77.0000023498536
325,209,61387,2,0,B|295:169|295:169|327:58,1,154.000004699707
404,233,61837,1,0,0:0:0:0:
242,232,61987,1,0,0:0:0:0:
385,153,62137,1,0,0:0:0:0:
234,240,62287,6,0,L|61:231,1,154.000004699707
20,178,62737,1,0,0:0:0:0:
78,304,62887,2,0,B|91:269|91:269|77:223,1,77.0000023498536
4,321,63187,2,0,P|31:364|137:354,1,154.000004699707
185,311,63637,1,0,0:0:0:0:
319,368,63787,2,0,L|235:361,1,77.0000023498536
426,280,64087,6,0,B|386:289|386:289|350:271|350:271|310:280,1,115.50000352478
298,293,64387,1,0,0:0:0:0:
470,213,64537,1,0,0:0:0:0:
266,177,64687,1,0,0:0:0:0:
319,368,64837,1,0,0:0:0:0:
329,144,64987,6,0,P|317:125|265:105,1,77.0000023498536
155,329,65287,2,0,P|177:328|220:293,1,77.0000023498536
81,85,65587,2,0,P|70:104|79:159,1,77.0000023498536
350,61,65887,6,0,B|456:36|456:36|419:91,1,161.000003070831
257,235,66337,1,0,0:0:0:0:
381,131,66487,1,0,0:0:0:0:
339,317,66637,1,0,0:0:0:0:
206,183,66787,6,0,B|245:164|245:164|289:168,1,80.5000015354157
404,268,67087,1,0,0:0:0:0:
228,307,67237,1,0,0:0:0:0:
411,259,67387,2,0,L|502:271,1,80.5000015354157
239,378,67687,6,0,B|146:375|191:317|94:313,1,161.000003070831
33,368,68137,1,0,0:0:0:0:
0,238,68287,2,0,B|38:225|38:225|75:240,1,80.5000015354157
115,64,68587,6,0,P|78:110|89:167,1,120.750002303124
211,154,68887,6,0,P|188:117|146:127,1,92.4000028198243
155,197,69187,6,0,L|161:230,1,26.2500010013581
460,41,69487,6,0,B|407:33|407:33|371:59|371:59|310:48,1,161.000003070831
473,266,69937,1,0,0:0:0:0:
427,107,70087,1,0,0:0:0:0:
397,282,70237,1,0,0:0:0:0:
491,143,70387,2,0,P|498:85|460:40,1,120.750002303124
446,34,70687,1,0,0:0:0:0:
259,258,70987,2,0,B|293:235|293:235|344:242,1,80.5000015354157
449,340,71287,6,0,B|421:299|421:299|302:311,1,161.000003070831
262,368,71737,1,0,0:0:0:0:
156,236,71887,2,0,P|115:244|99:281,1,80.5000015354157
208,190,72187,6,0,B|200:143|200:143|176:127|176:127|169:81,1,120.750002303124
119,36,72487,6,0,P|54:46|36:120,1,120.750002303124
101,126,72787,6,0,L|97:91,1,26.2500010013581
31,364,73087,6,0,P|106:344|199:351,1,161.000003070831
343,205,73537,1,0,0:0:0:0:
318,379,73687,1,0,0:0:0:0:
180,273,73837,1,0,0:0:0:0:
358,194,73987,2,0,B|401:186|401:186|435:202,1,80.5000015354157
262,178,74287,1,0,0:0:0:0:
408,118,74437,1,0,0:0:0:0:
253,186,74587,2,0,L|165:174,1,80.5000015354157
33,89,74887,6,0,B|124:105|95:31|192:54,1,161.000003070831
225,113,75337,1,0,0:0:0:0:
391,4,75487,2,0,B|409:43|409:43|401:83,1,80.5000015354157
253,186,75787,6,0,B|300:176|300:176|332:191|332:191|377:179,1,125.999996154785
442,146,76087,6,0,P|419:153|422:237,1,125.999996154785
489,299,76387,6,0,L|482:254,1,26.2500010013581
93,308,76687,6,0,B|131:273|131:273|228:295,1,141.750000540733
293,256,76987,6,0,B|255:291|255:291|158:269,1,141.750000540733
116,206,77287,6,0,P|186:245|140:276,1,141.750000540733
54,247,77587,6,0,P|51:169|111:127,1,152.250004646301
252,94,77887,6,0,B|158:72|158:72|185:125,1,152.250004646301
312,146,78187,6,0,B|378:75|378:75|318:72,1,152.250004646301
236,171,78487,6,0,B|263:263|263:263|297:212,1,154.000004699707
322,72,78787,1,0,0:0:0:0:
160,198,78937,1,0,0:0:0:0:
330,68,79087,1,0,0:0:0:0:
355,272,79237,1,0,0:0:0:0:
263,23,79387,1,0,0:0:0:0:
257,19,79687,5,0,0:0:0:0:
295,214,79837,1,0,0:0:0:0:
136,0,79987,5,0,0:0:0:0:
103,265,80137,1,0,0:0:0:0:
338,147,80287,6,0,B|464:128|464:128|435:189,1,189.000000720978
221,384,80737,1,0,0:0:0:0:
254,164,80887,1,0,0:0:0:0:
368,362,81037,1,0,0:0:0:0:
189,223,81187,6,0,B|164:184|164:184|175:136,1,94.5000003604889
287,333,81487,1,0,0:0:0:0:
56,247,81637,1,0,0:0:0:0:
239,78,81787,2,0,B|264:117|264:117|253:163,1,94.5000003604889
32,322,82087,6,0,P|-20:271|24:173,1,189.000000720978
271,252,82537,1,0,0:0:0:0:
98,383,82687,2,0,P|146:371|198:369,1,94.5000003604889
83,73,82987,6,0,B|96:170,1,94.5000003604889
351,284,83287,2,0,P|354:226|329:193,1,94.5000003604889
55,243,83587,2,0,B|102:255|102:255|148:236,1,94.5000003604889
228,0,83887,6,0,B|171:36|171:36|184:168,1,189.000000720978
199,312,84337,1,0,0:0:0:0:
373,115,84487,2,0,B|326:103|326:103|282:125,1,94.5000003604889
149,240,84787,5,0,0:0:0:0:
336,191,84937,1,0,0:0:0:0:
85,142,85087,5,0,0:0:0:0:
343,200,85237,1,0,0:0:0:0:
161,384,85387,2,0,P|125:344|124:293,1,94.5000003604889
384,135,85687,6,0,P|418:220|320:274,1,189.000000720978
318,44,86137,1,0,0:0:0:0:
181,156,86287,2,0,L|286:146,1,94.5000003604889
0,58,86587,6,0,B|56:60|56:60|85:87|85:87|154:91,1,141.750000540733
196,167,86887,6,0,B|149:169|149:169|120:196|120:196|64:198,1,141.750000540733
13,269,87187,1,0,0:0:0:0:
131,89,87337,1,0,0:0:0:0:
162,330,87487,6,0,B|215:368|215:368|347:331,1,189.000000720978
512,246,87937,1,0,0:0:0:0:
311,174,88087,2,0,B|288:220|288:220|298:271,1,94.5000003604889
512,112,88387,6,0,B|435:85|448:153|365:116,1,141.750000540733
336,21,88687,2,0,P|337:20|406:57,1,94.5000003604889
217,182,88987,2,0,P|271:172|317:174,1,94.5000003604889
124,68,89287,6,0,B|64:51|-1:58|-1:58|41:39|63:16,1,189.000000720978
286,89,89737,1,0,0:0:0:0:
144,236,89887,2,0,B|124:195|124:195|136:140,1,94.5000003604889
355,38,90187,6,0,P|372:85|363:130,1,94.5000003604889
105,318,90487,2,0,L|201:307,1,94.5000003604889
401,208,90787,2,0,L|305:197,1,94.5000003604889
10,319,91087,6,0,B|91:308|91:308|124:328|124:328|202:318,1,189.000000720978
104,159,91537,1,0,0:0:0:0:
266,365,91687,2,0,B|282:321|282:321|266:273,1,94.5000003604889
23,122,91987,6,0,L|36:222,1,94.5000003604889
294,53,92287,1,0,0:0:0:0:
194,233,92437,1,0,0:0:0:0:
79,47,92587,2,0,P|128:26|184:36,1,94.5000003604889
339,150,92887,5,0,0:0:0:0:
137,104,93037,1,0,0:0:0:0:
396,59,93187,5,0,0:0:0:0:
133,114,93337,1,0,0:0:0:0:
448,152,93487,5,0,0:0:0:0:
173,29,93637,1,0,0:0:0:0:
172,343,93787,5,0,0:0:0:0:
239,98,93937,1,0,0:0:0:0:
276,338,94087,5,0,0:0:0:0:
303,158,94237,1,0,0:0:0:0:
403,362,94387,5,0,0:0:0:0:
323,72,94537,1,0,0:0:0:0:
105,268,94687,6,0,B|206:295|180:210|286:242,1,189.000000720978
456,309,95137,1,0,0:0:0:0:
303,157,95287,1,0,0:0:0:0:
259,365,95437,1,0,0:0:0:0:
384,193,95587,6,0,B|394:145|394:145|364:93,1,94.5000003604889
141,186,95887,1,0,0:0:0:0:
374,296,96037,1,0,0:0:0:0:
133,176,96187,2,0,L|29:188,1,94.5000003604889
357,28,96487,6,0,B|482:16|482:16|444:68,1,189.000000720978
283,241,96937,1,0,0:0:0:0:
482,381,97087,2,0,B|496:336|496:336|476:293,1,94.5000003604889
222,171,97387,6,0,L|324:156,1,94.5000003604889
476,293,97687,2,0,L|374:278,1,94.5000003604889
252,0,97987,2,0,B|272:44|272:44|257:95,1,94.5000003604889
132,380,98287,6,0,B|114:335|142:302|142:302|133:285|133:285|159:244|134:199,1,189.000000720978
77,0,98737,1,0,0:0:0:0:
68,239,98887,1,0,0:0:0:0:
258,88,99037,1,0,0:0:0:0:
8,192,99187,6,0,P|-12:237|14:296,1,94.5000003604889
265,89,99487,2,0,P|275:43|255:1,1,94.5000003604889
216,362,99787,2,0,L|316:350,1,94.5000003604889
479,162,100087,6,0,B|380:124|413:225|304:188,1,189.000000720978
165,102,100537,1,0,0:0:0:0:
216,362,100687,2,0,B|243:324|243:324|227:269,1,94.5000003604889
115,37,100987,6,0,B|82:76|82:76|103:176,1,141.750000540733
67,274,101287,2,0,B|100:235|100:235|79:135,1,141.750000540733
6,101,101587,5,0,0:0:0:0:
149,307,101737,1,0,0:0:0:0:
257,83,101887,6,0,B|383:59|383:59|339:128,1,189.000000720978
163,96,102337,1,0,0:0:0:0:
442,1,102487,2,0,P|466:49|449:104,1,94.5000003604889
100,24,102787,6,0,L|200:14,1,94.5000003604889
424,189,103087,1,0,0:0:0:0:
156,99,103237,1,0,0:0:0:0:
239,351,103387,1,0,0:0:0:0:
350,110,103537,1,0,0:0:0:0:
26,173,103687,6,0,B|92:160|92:160|145:190|145:190|206:175,1,189.000000720978
388,265,104137,1,0,0:0:0:0:
93,351,104287,2,0,B|70:310|70:310|87:263,1,94.5000003604889
254,67,104587,5,0,0:0:0:0:
251,338,104737,1,0,0:0:0:0:
158,94,104887,5,0,0:0:0:0:
165,304,105037,1,0,0:0:0:0:
374,197,105187,2,0,B|331:172|331:172|273:185,1,94.5000003604889
0,15,105487,6,0,B|59:50|59:50|22:191,1,195.999994018555
222,362,105937,1,0,0:0:0:0:
126,142,106087,1,0,0:0:0:0:
107,384,106237,1,0,0:0:0:0:
227,117,106387,6,0,B|241:67|241:67|217:23,1,101.500003097534
103,248,106687,1,0,0:0:0:0:
347,320,106837,1,0,0:0:0:0:
103,248,106987,2,0,L|-13:263,1,101.500003097534
423,358,107287,6,0,B|459:248|348:276|392:150,1,210.000008010865
226,234,107737,1,0,0:0:0:0:
435,85,107887,2,0,P|487:130|462:181,1,105.000004005432
333,317,108187,5,0,0:0:0:0:
283,80,108337,1,0,0:0:0:0:
283,80,108487,1,0,0:0:0:0:
169,353,108637,5,0,0:0:0:0:
205,50,108787,1,0,0:0:0:0:
80,375,108937,5,0,0:0:0:0:
23,27,109087,1,0,0:0:0:0:
478,358,112687,6,0,P|424:306|333:331,1,154.000004699707
298,374,113137,1,0,0:0:0:0:
437,284,113287,2,0,B|445:249|445:249|430:210,1,77.0000023498536
270,129,113587,6,0,B|261:163|261:163|276:202,1,77.0000023498536
233,341,113887,1,0,0:0:0:0:
367,256,114037,1,0,0:0:0:0:
229,349,114187,2,0,L|141:339,1,77.0000023498536
89,202,114487,6,0,B|140:177|140:177|115:288,1,154.000004699707
40,262,114937,1,0,0:0:0:0:
112,112,115087,2,0,P|160:106|200:133,1,77.0000023498536
312,262,115387,6,0,B|285:233|285:233|286:194,1,77.0000023498536
341,12,115687,2,0,B|329:49|329:49|295:68,1,77.0000023498536
112,112,115987,2,0,B|150:103|150:103|183:123,1,77.0000023498536
312,262,116287,6,0,B|406:260|359:201|447:198,1,154.000004699707
441,270,116737,1,0,0:0:0:0:
299,141,116887,2,0,P|261:195|275:232,1,77.0000023498536
162,272,117187,6,0,L|246:274,1,77.0000023498536
85,188,117487,1,0,0:0:0:0:
238,273,117637,1,0,0:0:0:0:
88,345,117787,2,0,B|74:311|74:311|86:272,1,77.0000023498536
169,47,118087,6,0,B|155:101|155:101|178:142|178:142|165:193,1,154.000004699707
162,272,118537,1,0,0:0:0:0:
316,195,118687,2,0,B|278:206|278:206|238:199,1,77.0000023498536
363,363,118987,6,0,P|408:306|376:228,1,154.000004699707
316,195,119437,1,0,0:0:0:0:
464,162,119587,2,0,L|379:155,1,77.0000023498536
504,79,119887,6,0,B|445:87|445:87|412:67|412:67|332:78,1,154.000004699707
298,128,120337,1,0,0:0:0:0:
237,81,120487,2,0,P|197:78|161:60,1,77.0000023498536
173,221,120787,6,0,B|191:185|191:185|179:140,1,77.0000023498536
8,218,121087,2,0,B|29:251|29:251|74:263,1,77.0000023498536
91,77,121387,2,0,B|51:78|51:78|18:111,1,77.0000023498536
173,221,121687,6,0,L|254:211,1,77.0000023498536
454,193,121987,1,0,0:0:0:0:
307,160,122137,1,0,0:0:0:0:
378,299,122287,1,0,0:0:0:0:
322,237,122437,1,0,0:0:0:0:
299,315,122587,6,0,B|296:351|296:351|316:383,1,70
231,274,122890,6,0,B|212:303|212:303|215:336,1,56
238,204,123238,6,0,L|196:210,1,42
186,212,123654,5,0,0:0:0:0:
256,192,123761,12,0,126654,0:0:0:0:
