osu file format v14

[General]
AudioFilename: audio.mp3
AudioLeadIn: 0
PreviewTime: 78787
Countdown: 0
SampleSet: Soft
StackLeniency: 0.7
Mode: 0
LetterboxInBreaks: 0
WidescreenStoryboard: 1

[Editor]
Bookmarks: 15487,22687,29887,37087,44287,51487,58687,65887,73087,80287,87487,94687,101887,109087,116287,123654,123761
DistanceSpacing: 1
BeatDivisor: 4
GridSize: 4
TimelineZoom: 1

[Metadata]
Title:Kaze no Uta
TitleUnicode:風の唄
Artist:MAMI
ArtistUnicode:MAMI
Creator:[[Pika]]
Version:Novice
Source:ニュートンと林檎の樹
Tags:
BeatmapID:2530831
BeatmapSetID:604969

[Difficulty]
HPDrainRate:4
CircleSize:3.3
OverallDifficulty:4
ApproachRate:5
SliderMultiplier:1
SliderTickRate:1

[Events]
//Background and Video events
0,0,"nr_mv_alice.jpg",0,0
Video,0,"newton.avi"
//Break Periods
//Storyboard Layer 0 (Background)
//Storyboard Layer 1 (Fail)
//Storyboard Layer 2 (Pass)
//Storyboard Layer 3 (Foreground)
//Storyboard Layer 4 (Overlay)
//Storyboard Sound Samples

[TimingPoints]
8287,300,3,2,0,70,1,0
15487,-125,3,2,0,70,0,0
22687,-111.111111111111,3,2,0,70,0,0
37087,-125,3,2,0,70,0,0
51487,-117.647058823529,3,2,0,70,0,0
80287,-90.9090909090909,3,2,0,70,0,1
109162,-100,3,2,0,70,0,0
122587,303.030303030303,3,2,0,100,1,0
122890,348.837209302326,3,2,0,100,1,0
123238,416.666666666667,3,2,0,100,1,0
123654,428.571428571429,3,2,0,100,1,0

[Colours]
Combo1 : 214,214,214
Combo2 : 214,73,73
Combo3 : 255,230,51
Combo4 : 91,193,255
Combo5 : 194,103,20
Combo6 : 17,202,13

[HitObjects]
83,185,15487,6,0,P|101:139|70:74,2,120
49,257,16687,2,0,P|105:263|137:243,1,80
189,301,17287,2,0,P|227:291|264:304,1,80
301,288,17737,2,0,P|357:311|414:282,1,120
465,232,18487,2,0,L|452:150,1,80
400,91,19087,6,0,B|434:39|434:39|489:85,2,120
324,63,20287,2,0,B|282:71|282:71|241:48,1,80
176,89,20887,2,0,L|86:100,1,80
68,127,21337,2,0,B|75:168|75:168|59:205|59:205|68:250,1,120
136,280,22087,2,0,P|175:258|185:221,1,80
258,174,22687,6,0,B|235:134|235:134|262:36,1,134.999995880127
280,8,23287,1,0,0:0:0:0:
348,65,23587,2,0,L|448:52,1,89.9999972534181
499,118,24187,1,0,0:0:0:0:
449,193,24487,6,0,B|474:266|407:251|429:320,1,134.999995880127
450,358,25087,1,0,0:0:0:0:
362,378,25387,2,0,P|323:369|257:364,1,89.9999972534181
201,309,25987,1,0,0:0:0:0:
142,377,26287,6,0,P|111:332|130:248,1,134.999995880127
157,226,26887,1,0,0:0:0:0:
85,171,27187,2,0,B|99:128|99:128|77:86,1,89.9999972534181
1,135,27787,1,0,0:0:0:0:
63,70,28087,6,0,P|133:64|197:47,1,134.999995880127
234,25,28687,1,0,0:0:0:0:
316,60,28987,2,0,B|357:39|357:39|401:51,1,89.9999972534181
455,121,29587,1,0,0:0:0:0:
365,133,29887,6,0,B|359:205|421:178|417:255,1,134.999995880127
409,294,30487,1,0,0:0:0:0:
320,311,30787,2,0,P|285:277|285:232,2,89.9999972534181
244,361,31687,6,0,P|170:330|103:333,1,134.999995880127
72,341,32287,1,0,0:0:0:0:
7,278,32587,2,0,L|26:174,1,89.9999972534181
54,156,33037,1,0,0:0:0:0:
54,156,33187,2,0,L|49:108,1,44.999998626709
43,66,33487,1,0,0:0:0:0:
483,359,36787,1,0,0:0:0:0:
427,301,37087,6,0,P|447:221|422:138,1,160
369,91,37987,2,0,P|408:65|445:68,2,80
304,138,38887,6,0,B|241:133|241:133|220:111|220:111|152:105,1,160
81,138,39787,2,0,B|59:105|59:105|81:72,2,80
146,193,40687,5,0,0:0:0:0:
146,193,40987,1,0,0:0:0:0:
105,262,41287,1,0,0:0:0:0:
163,316,41587,2,0,B|202:291|202:291|280:310,1,120
310,322,42187,1,0,0:0:0:0:
365,379,42487,6,0,P|390:320|334:248,1,160
381,182,43387,2,0,B|358:142|358:142|372:105,1,80
447,130,43987,1,0,0:0:0:0:
428,52,44287,6,0,P|369:81|277:96,1,160
218,151,45187,2,0,L|234:237,2,80
144,118,46087,6,0,B|135:182|135:182|147:211|147:211|136:278,1,160
77,328,46987,2,0,P|113:355|163:347,1,80
211,307,47587,2,0,L|256:314,1,40
279,341,47887,6,0,L|403:326,1,120
433,344,48487,1,0,0:0:0:0:
473,274,48787,2,0,B|512:192|426:209|466:116,1,160
438,46,49687,5,0,0:0:0:0:
438,46,49987,1,0,0:0:0:0:
365,80,50287,1,0,0:0:0:0:
291,28,50587,6,0,B|255:9|255:9|231:50,1,80
193,111,51187,1,0,0:0:0:0:
120,67,51487,6,0,P|124:160|158:189,1,127.50000243187
180,204,52087,1,0,0:0:0:0:
257,168,52387,2,0,P|307:182|341:181,1,85.0000016212464
418,148,52987,1,0,0:0:0:0:
484,200,53287,6,0,B|510:234|510:234|489:326,1,127.50000243187
485,358,53887,1,0,0:0:0:0:
405,327,54187,2,0,L|317:336,1,85.0000016212464
250,383,54787,1,0,0:0:0:0:
193,319,55087,6,0,B|127:306|144:363|70:353,1,127.50000243187
39,330,55687,1,0,0:0:0:0:
84,258,55987,2,0,P|83:163|77:112,1,127.50000243187
62,91,56587,1,0,0:0:0:0:
125,34,56887,6,0,B|213:13|182:99|287:74,1,170.000003242493
351,28,57787,2,0,L|450:39,1,85.0000016212464
498,95,58387,1,0,0:0:0:0:
451,165,58687,6,0,B|410:192|410:192|322:170,1,127.50000243187
293,160,59287,1,0,0:0:0:0:
236,223,59587,2,0,P|200:196|149:199,1,85.0000016212464
87,237,60187,1,0,0:0:0:0:
103,320,60487,6,0,P|164:361|225:348,1,127.50000243187
247,327,61087,1,0,0:0:0:0:
321,367,61387,2,0,B|365:347|365:347|411:358,1,85.0000016212464
462,296,61987,2,0,L|451:242,1,42.5000008106232
487,228,62287,6,0,B|501:182|501:182|459:99,1,127.50000243187
440,75,62887,1,0,0:0:0:0:
364,35,63187,2,0,B|322:43|310:64|310:64|294:42|241:44,1,127.50000243187
213,63,63787,1,0,0:0:0:0:
136,26,64087,6,0,P|50:40|46:125,1,170.000003242493
94,174,64987,1,0,0:0:0:0:
31,231,65287,1,0,0:0:0:0:
71,305,65587,1,0,0:0:0:0:
155,293,65887,6,0,L|248:278,1,85.0000016212464
315,340,66487,2,0,L|369:349,1,42.5000008106232
391,322,66787,2,0,P|439:355|474:355,2,85.0000016212464
459,271,67687,6,0,B|487:236|487:236|454:154,1,127.50000243187
433,123,68287,1,0,0:0:0:0:
487,57,68587,2,0,P|443:37|404:44,1,85.0000016212464
348,103,69187,1,0,0:0:0:0:
268,71,69487,6,0,B|174:79,1,85.0000016212464
126,141,70087,2,0,L|141:188,1,42.5000008106232
108,210,70387,2,0,B|69:224|69:224|25:206,2,85.0000016212464
180,255,71287,6,0,B|271:223|255:310|339:278,1,170.000003242493
401,221,72187,1,0,0:0:0:0:
482,245,72487,1,0,0:0:0:0:
481,329,72787,1,0,0:0:0:0:
411,377,73087,6,0,P|344:371|269:373,1,127.50000243187
241,378,73687,1,0,0:0:0:0:
178,320,73987,1,0,0:0:0:0:
104,362,74287,2,0,B|90:323|90:323|103:275,1,85.0000016212464
173,236,74887,6,0,P|175:177|112:146,1,127.50000243187
82,163,75487,1,0,0:0:0:0:
22,102,75787,2,0,L|35:14,2,85.0000016212464
256,192,76687,12,0,78487,0:0:0:0:
419,121,79987,6,0,L|414:172,1,42.5000008106232
446,208,80287,6,0,B|482:246|440:304|440:304|407:301|386:268,1,165.000005035401
355,232,80887,1,0,0:0:0:0:
305,330,81187,1,0,0:0:0:0:
216,265,81487,2,0,L|100:283,1,110.000003356934
22,211,82087,6,0,B|0:103|0:103|52:135,1,165.000005035401
94,159,82687,1,0,0:0:0:0:
115,51,82987,2,0,B|156:13|156:13|211:35,1,110.000003356934
276,117,83587,1,0,0:0:0:0:
374,68,83887,6,0,B|405:109|383:150|383:150|361:192|389:226,1,165.000005035401
434,253,84487,1,0,0:0:0:0:
375,345,84787,2,0,P|435:368|487:351,2,110.000003356934
278,292,85687,6,0,B|240:273|204:296|204:296|208:286|208:286|173:309|126:296,1,165.000005035401
82,278,86287,1,0,0:0:0:0:
153,194,86587,1,0,0:0:0:0:
59,135,86887,1,0,0:0:0:0:
138,58,87187,2,0,L|201:68,1,55.0000016784668
237,34,87487,6,0,P|273:89|374:86,1,165.000005035401
412,62,88087,1,0,0:0:0:0:
498,130,88387,2,0,B|486:167|503:186|503:186|478:194|469:229,1,110.000003356934
446,330,88987,1,0,0:0:0:0:
368,251,89287,6,0,B|299:245|299:245|275:259|275:259|205:252,1,165.000005035401
157,229,89887,1,0,0:0:0:0:
72,295,90187,2,0,P|46:246|56:186,1,110.000003356934
136,122,90787,1,0,0:0:0:0:
239,158,91087,6,0,B|348:133|348:133|297:101,1,165.000005035401
258,72,91687,1,0,0:0:0:0:
353,17,91987,2,0,P|418:41|427:92,1,110.000003356934
438,184,92587,1,0,0:0:0:0:
337,229,92887,5,0,0:0:0:0:
262,147,93187,1,0,0:0:0:0:
164,198,93487,1,0,0:0:0:0:
173,307,93787,2,0,B|147:323|147:323|110:319,2,55.0000016784668
279,336,94387,2,0,B|303:333|303:333|329:349,1,55.0000016784668
378,374,94687,6,0,P|446:368|478:280,1,165.000005035401
470,231,95287,1,0,0:0:0:0:
392,152,95587,1,0,0:0:0:0:
470,74,95887,2,0,B|487:52|487:52|486:21,2,55.0000016784668
382,140,96487,6,0,B|296:163|328:73|232:103,1,165.000005035401
188,134,97087,1,0,0:0:0:0:
89,85,97387,1,0,0:0:0:0:
14,165,97687,2,0,B|0:221|0:221|30:266,1,110.000003356934
1,371,98287,6,0,P|70:341|171:341,1,165.000005035401
206,366,98887,1,0,0:0:0:0:
255,267,99187,2,0,B|250:232|250:232|225:206|225:206|217:159,2,110.000003356934
319,355,100087,6,0,P|425:335|453:276,1,165.000005035401
468,240,100687,1,0,0:0:0:0:
434,135,100987,1,0,0:0:0:0:
325,118,101287,1,0,0:0:0:0:
245,193,101587,2,0,L|182:187,1,55.0000016784668
161,140,101887,6,0,B|46:118|46:118|72:168,1,165.000005035401
91,210,102487,1,0,0:0:0:0:
14,289,102787,1,0,0:0:0:0:
118,324,103087,2,0,P|120:354|108:379,2,55.0000016784668
200,251,103687,6,0,B|287:226|262:314|355:286,1,165.000005035401
391,250,104287,1,0,0:0:0:0:
476,319,104587,1,0,0:0:0:0:
493,210,104887,1,0,0:0:0:0:
407,141,105187,1,0,0:0:0:0:
505,92,105487,6,0,P|474:52|353:45,1,165.000005035401
321,70,106087,1,0,0:0:0:0:
227,12,106387,1,0,0:0:0:0:
146,87,106687,2,0,B|121:98|121:98|93:87,2,55.0000016784668
207,178,107287,6,0,B|222:247|222:247|211:272|211:272|222:341,1,165.000005035401
253,383,107887,1,0,0:0:0:0:
338,313,108187,2,0,P|397:305|451:321,1,110.000003356934
482,278,108637,1,0,0:0:0:0:
482,278,108787,2,0,L|460:206,1,55.0000016784668
445,174,109087,5,0,0:0:0:0:
256,192,109162,12,0,110887,0:0:0:0:
325,32,112687,6,0,P|372:71|368:162,1,150
339,192,113287,1,0,0:0:0:0:
248,149,113587,2,0,L|148:141,1,100
71,204,114187,1,0,0:0:0:0:
119,291,114487,6,0,B|159:329|159:329|257:314,1,150
301,301,115087,1,0,0:0:0:0:
375,367,115387,2,0,P|422:368|472:339,2,100
402,270,116287,6,0,B|432:191|346:216|379:129,1,150
410,94,116887,1,0,0:0:0:0:
323,44,117187,2,0,B|273:26|273:26|237:59,1,100
170,130,117787,1,0,0:0:0:0:
87,73,118087,6,0,B|61:122|61:122|95:217,1,150
111,257,118687,1,0,0:0:0:0:
28,312,118987,2,0,P|79:352|176:332,1,150
201,314,119587,1,0,0:0:0:0:
277,378,119887,5,0,0:0:0:0:
370,342,120187,2,0,L|423:351,2,50
312,260,120787,2,0,B|298:210|298:210|324:162,1,100
382,88,121387,1,0,0:0:0:0:
296,35,121687,6,0,P|254:56|197:60,1,100
158,81,122137,1,0,0:0:0:0:
158,81,122287,2,0,L|166:137,1,50
130,166,122587,6,0,B|110:215|110:215|133:272,1,100
199,215,123238,1,0,0:0:0:0:
256,192,123654,12,0,126654,0:0:0:0:
