osu file format v14

[General]
AudioFilename: audio.mp3
AudioLeadIn: 0
PreviewTime: 51533
Countdown: 1
SampleSet: None
StackLeniency: 0.7
Mode: 0
LetterboxInBreaks: 0
WidescreenStoryboard: 0

[Editor]
DistanceSpacing: 0.5
BeatDivisor: 4
GridSize: 16
TimelineZoom: 1

[Metadata]
Title:gogobebe
TitleUnicode:gogobebe
Artist:MAMAMOO
ArtistUnicode:MAMAMOO
Creator:a887tw
Version:Normal
Source:
Tags:MAMAMOO gogobebe kpop
BeatmapID:2073710
BeatmapSetID:991573

[Difficulty]
HPDrainRate:5
CircleSize:3
OverallDifficulty:5
ApproachRate:5
SliderMultiplier:1.2
SliderTickRate:1

[Events]
//Background and Video events
0,0,"MAMAMOO-gogobebe-MV-2019-billboard-1548.jpg",0,0
//Break Periods
2,80960,82498
2,132919,141880
//Storyboard Layer 0 (Background)
//Storyboard Layer 1 (Fail)
//Storyboard Layer 2 (Pass)
//Storyboard Layer 3 (Foreground)
//Storyboard Sound Samples

[TimingPoints]
2049.42105263158,618.556701030928,4,1,0,30,1,0
21843,-100,4,1,0,50,0,0
29265,-100,4,2,1,50,0,0
31740,-100,4,1,0,50,0,0
41327,-100,4,2,1,50,0,0
41946,-100,4,1,0,50,0,0
51533,-100,4,1,0,70,0,1
71327,-100,4,1,0,50,0,0
93286,-100,4,2,1,50,0,0
93905,-100,4,1,0,50,0,0
103492,-100,4,1,0,70,0,1
123286,-100,4,1,0,50,0,0
133183,-142.857142857143,4,3,1,30,0,0
143080,-125,4,2,1,30,0,0
150193,-200,4,3,1,5,0,0
152977,-100,4,1,0,50,0,0
155451,-100,4,1,0,70,0,1
175245,-100,4,1,0,50,0,0

[Colours]
Combo1 : 255,128,255
Combo2 : 255,255,128
Combo3 : 0,255,128
Combo4 : 255,128,64

[HitObjects]
304,96,2049,6,0,P|256:64|208:96,1,120
208,144,3286,2,0,P|256:176|304:128,1,120
320,224,4523,2,0,P|304:288|256:304,1,120
256,96,6997,6,0,P|192:112|192:176,1,120
208,240,8234,2,0,P|256:208|304:240,1,120
304,288,9472,2,0,P|256:320|208:288,1,120
96,288,11946,6,0,L|176:288,1,60
224,288,12564,1,0,0:0:0:0:
416,224,13183,2,0,L|352:224,1,60
288,224,13801,1,0,0:0:0:0:
160,208,14420,2,0,L|160:144,1,60
160,112,15039,2,0,P|192:80|224:96,1,60
272,80,15657,1,0,0:0:0:0:
448,192,16894,6,0,P|480:208|464:240,1,60
448,272,17513,1,0,0:0:0:0:
224,256,18131,2,0,P|192:256|176:288,1,60
144,320,18750,1,0,0:0:0:0:
384,192,19369,2,0,L|448:192,1,60
320,128,19987,2,0,L|400:128,1,60
480,128,20606,1,0,0:0:0:0:
256,192,21843,5,4,0:0:0:0:
176,192,22307,2,0,L|176:272,1,60,8|0,0:0|0:0,0:0:0:0:
176,304,22771,1,0,0:0:0:0:
48,304,23544,2,0,L|48:224,1,60,8|0,0:0|0:0,0:0:0:0:
48,192,24008,1,0,0:0:0:0:
224,80,24781,2,0,P|256:64|288:80,1,60,8|0,0:0|0:0,0:0:0:0:
320,96,25245,1,0,0:0:0:0:
464,288,25863,2,0,P|448:320|416:320,2,60,0|8|0,0:0|0:0|0:0,0:0:0:0:
32,112,27100,6,0,L|32:176,1,60
144,256,27719,2,0,L|144:192,1,60
256,112,28338,2,0,L|256:176,1,60
256,320,29265,6,0,P|336:336|352:320,1,90,4|4,0:0|0:0,0:0:0:0:
384,304,30193,1,4,0:0:0:0:
384,304,30503,1,8,0:0:0:0:
448,256,30812,2,0,L|448:176,1,60
448,144,31430,1,2,0:0:0:0:
368,64,31740,6,0,L|224:64,1,120
192,64,32667,1,0,0:0:0:0:
96,64,32977,2,0,P|48:80|64:144,1,120
96,176,33905,1,0,0:0:0:0:
256,304,34214,2,0,P|320:336|368:320,1,120
400,288,35142,1,0,0:0:0:0:
480,144,35451,2,0,P|480:112|448:112,3,60
368,48,36688,6,0,P|304:96|256:64,1,120
208,80,37616,1,0,0:0:0:0:
48,80,37925,2,0,L|48:208,1,120
128,288,38853,2,0,P|144:304|176:288,1,60
224,288,39472,2,0,P|240:304|272:288,1,60
320,288,40090,2,0,P|336:272|368:288,1,60
416,288,40709,2,0,P|432:272|464:288,1,60
432,160,41327,6,0,L|368:160,2,60,0|6|0,0:0|0:2|0:0,0:0:0:0:
320,48,42564,6,0,P|288:32|240:48,1,60
144,96,43492,2,0,P|112:112|64:96,1,60
112,320,44420,5,0,0:0:0:0:
112,320,44575,1,0,0:0:0:0:
112,320,44729,1,0,0:0:0:0:
240,320,45039,1,0,0:0:0:0:
240,320,45193,1,0,0:0:0:0:
240,320,45348,1,0,0:0:0:0:
416,272,45657,2,0,P|464:256|464:240,1,60
480,192,46276,1,0,0:0:0:0:
160,64,46894,6,0,P|128:80|144:112,5,60
256,192,49059,5,4,0:0:0:0:
384,304,49523,1,4,0:0:0:0:
512,192,49987,1,4,0:0:0:0:
448,112,50296,6,0,L|368:112,1,60
336,112,50915,1,0,0:0:0:0:
336,112,51070,1,0,0:0:0:0:
192,112,51533,6,0,L|144:112,1,30,4|0,0:2|0:0,0:0:0:0:
112,112,51843,2,0,L|64:112,1,30
64,176,52152,2,0,P|96:224|112:224,1,60,8|0,0:0|0:0,0:0:0:0:
144,304,52771,2,0,L|272:304,1,120,0|8,0:0|0:0,0:0:0:0:
448,224,54008,6,0,P|400:208|384:176,1,60
368,128,54626,2,0,P|336:80|320:80,1,60,8|0,0:0|0:0,0:0:0:0:
240,80,55245,2,0,P|192:128|240:160,1,120,0|8,0:0|0:0,0:0:0:0:
480,336,56482,6,0,L|448:352,3,30
368,288,57100,2,0,P|336:256|320:272,1,60,8|0,0:0|0:0,0:0:0:0:
256,336,57719,2,0,P|192:336|192:288,1,120,0|8,0:0|0:0,0:0:0:0:
112,32,58956,6,0,P|64:32|48:48,1,60
144,128,59575,2,0,P|192:128|208:112,1,60,8|0,0:0|0:0,0:0:0:0:
288,80,60193,5,0,0:0:0:0:
368,48,60503,1,0,0:0:0:0:
416,128,60812,1,8,0:0:0:0:
416,128,60966,1,0,0:0:0:0:
96,272,61430,6,0,P|64:224|96:192,1,90,4|8,0:2|0:0,0:0:0:0:
256,192,62358,2,0,P|288:144|256:112,1,90,4|8,0:0|0:0,0:0:0:0:
400,64,63286,1,0,0:0:0:0:
464,128,63595,1,0,0:0:0:0:
464,256,63905,6,0,L|464:352,1,90,4|8,0:0|0:0,0:0:0:0:
304,352,64832,2,0,L|304:240,1,90,4|8,0:0|0:0,0:0:0:0:
224,192,65760,1,0,0:0:0:0:
160,128,66070,1,0,0:0:0:0:
48,192,66379,6,0,L|48:256,1,60,4|0,0:2|0:0,0:0:0:0:
128,336,66997,2,0,L|192:336,1,60,8|0,0:0|0:0,0:0:0:0:
352,336,67616,2,0,P|416:336|416:288,1,120,0|8,0:0|0:0,0:0:0:0:
144,80,68853,6,0,L|192:80,1,30,8|0,0:0|0:0,0:0:0:0:
224,80,69162,1,8,0:0:0:0:
368,128,69472,2,0,L|320:128,1,30,8|0,0:0|0:0,0:0:0:0:
288,128,69781,1,8,0:0:0:0:
432,256,70090,6,0,L|384:304,2,60
432,256,70863,1,0,0:0:0:0:
304,96,71327,6,0,P|256:64|208:96,1,120,4|8,0:2|0:0,0:0:0:0:
208,144,72564,2,0,P|256:176|304:128,1,120,0|8,0:0|0:0,0:0:0:0:
320,224,73801,2,0,P|304:288|256:304,1,120,0|8,0:0|0:0,0:0:0:0:
96,144,75348,5,0,0:0:0:0:
32,96,75657,1,8,0:0:0:0:
96,48,75966,1,0,0:0:0:0:
256,96,76276,6,0,P|192:112|192:176,1,120,0|8,0:0|0:0,0:0:0:0:
208,240,77513,2,0,P|256:208|304:240,1,120,0|8,0:0|0:0,0:0:0:0:
304,288,78750,2,0,P|256:320|208:288,1,120,0|8,0:0|0:0,0:0:0:0:
128,304,79987,6,0,L|64:304,1,60
0,304,80606,1,0,0:0:0:0:
0,304,80760,1,0,0:0:0:0:
464,144,83698,6,0,L|464:96,1,30
368,96,84008,2,0,L|368:48,1,30
256,32,84317,2,0,P|192:32|192:32,1,60
32,128,84936,6,0,L|32:160,1,30
128,176,85245,2,0,L|128:224,1,30
192,272,85554,2,0,L|256:272,1,60
384,272,86173,6,0,P|464:272|464:224,1,120
448,160,87100,1,0,0:0:0:0:
368,128,87410,2,0,P|336:112|336:80,3,60
224,48,88647,6,0,P|144:48|144:96,1,120
128,112,89575,1,0,0:0:0:0:
176,192,89884,2,0,P|256:192|256:240,1,120
272,256,90812,1,0,0:0:0:0:
96,336,91121,2,0,L|176:336,1,60
256,336,91740,2,0,L|320:336,1,60
416,336,92358,2,0,P|448:336|448:304,3,60
448,128,93595,6,0,P|448:64|384:64,1,120,6|0,0:2|0:0,0:0:0:0:
224,48,94523,5,0,0:0:0:0:
64,48,94832,1,0,0:0:0:0:
64,192,95450,1,0,0:0:0:0:
224,192,95760,1,0,0:0:0:0:
400,304,96379,6,0,L|432:304,2,30
400,192,96997,2,0,L|352:192,2,30
352,96,97616,1,0,0:0:0:0:
288,48,97925,1,0,0:0:0:0:
224,96,98234,1,0,0:0:0:0:
16,224,98853,6,0,L|64:272,1,60
160,352,99472,2,0,L|224:304,1,60
336,272,100090,1,0,0:0:0:0:
336,272,100399,1,0,0:0:0:0:
304,64,101018,6,0,L|208:64,2,90,4|4|4,0:0|0:0|0:0,0:0:0:0:
208,256,102255,5,0,0:0:0:0:
64,192,102564,1,0,0:0:0:0:
0,336,102874,1,0,0:0:0:0:
0,336,103028,1,0,0:0:0:0:
192,336,103492,6,0,L|240:336,1,30,4|0,0:2|0:0,0:0:0:0:
272,336,103801,2,0,L|320:336,1,30
400,336,104111,1,8,0:0:0:0:
464,256,104420,1,0,0:0:0:0:
464,144,104729,2,0,P|464:64|416:64,1,120,0|8,0:0|0:0,0:0:0:0:
320,96,105966,6,0,L|256:96,1,60
224,176,106585,2,0,L|288:176,1,60,8|0,0:0|0:0,0:0:0:0:
160,208,107204,2,0,P|80:208|80:160,1,120,0|8,0:0|0:0,0:0:0:0:
224,64,108440,5,0,0:0:0:0:
224,64,108595,1,0,0:0:0:0:
160,64,108750,1,0,0:0:0:0:
160,64,108904,1,0,0:0:0:0:
96,64,109059,2,0,P|64:64|64:96,1,60,8|0,0:0|0:0,0:0:0:0:
48,192,109678,2,0,L|176:192,1,120,0|8,0:0|0:0,0:0:0:0:
480,208,110915,6,0,L|480:288,1,60
400,320,111533,2,0,L|400:256,1,60,8|0,0:0|0:0,0:0:0:0:
304,320,112152,2,0,L|224:320,1,60
144,320,112771,1,8,0:0:0:0:
144,320,112925,1,0,0:0:0:0:
432,144,113389,6,0,P|432:96|384:96,1,90,4|8,0:2|0:0,0:0:0:0:
256,96,114317,2,0,P|256:144|208:144,1,90,4|8,0:0|0:0,0:0:0:0:
48,144,115245,2,0,L|112:144,1,60
80,240,115863,6,0,P|80:288|128:288,1,90,4|8,0:0|0:0,0:0:0:0:
256,288,116791,2,0,P|256:240|304:240,1,90,4|8,0:0|0:0,0:0:0:0:
448,240,117719,2,0,L|384:240,1,60
464,96,118338,5,4,0:2:0:0:
464,96,118492,1,0,0:0:0:0:
464,96,118647,1,0,0:0:0:0:
464,96,118801,1,0,0:0:0:0:
400,48,118956,2,0,L|320:48,1,60,8|0,0:0|0:0,0:0:0:0:
208,48,119575,2,0,P|160:48|160:112,1,120,0|8,0:0|0:0,0:0:0:0:
32,336,120812,6,0,L|0:304,2,30,8|0|8,0:0|0:0|0:0,0:0:0:0:
144,304,121430,2,0,L|176:336,2,30,8|0|8,0:0|0:0|0:0,0:0:0:0:
288,336,122049,6,0,P|336:336|336:320,1,60,8|0,0:0|0:0,0:0:0:0:
400,304,122667,1,0,0:0:0:0:
448,304,122822,1,0,0:0:0:0:
304,96,123286,6,0,P|256:64|208:96,1,120,4|8,0:2|0:0,0:0:0:0:
208,144,124523,2,0,P|256:176|304:128,1,120,0|8,0:0|0:0,0:0:0:0:
320,224,125760,2,0,P|304:288|256:304,1,120,0|8,0:0|0:0,0:0:0:0:
64,64,127307,6,0,L|128:64,2,60,0|8|0,0:0|0:0|0:0,0:0:0:0:
256,96,128234,6,0,P|192:112|192:176,1,120,0|8,0:0|0:0,0:0:0:0:
208,240,129471,2,0,P|256:208|304:240,1,120,0|8,0:0|0:0,0:0:0:0:
304,288,130708,2,0,P|256:320|208:288,1,120,0|8,0:0|0:0,0:0:0:0:
64,352,131946,6,0,L|128:352,2,60
64,352,132719,1,0,0:0:0:0:
384,48,143080,6,0,L|416:96,1,48,4|0,0:2|0:0,0:0:0:0:
448,144,143698,1,8,0:0:0:0:
208,368,145245,6,0,L|176:320,1,48
128,288,145863,1,0,0:0:0:0:
128,288,146173,1,8,0:0:0:0:
128,288,146482,2,0,P|48:288|48:224,1,144
144,64,148028,6,0,L|208:64,1,48
304,64,148647,2,0,L|352:64,1,48,8|0,0:0|0:0,0:0:0:0:
464,64,149265,2,0,L|464:112,1,48
464,192,149884,1,8,0:0:0:0:
240,256,150503,6,2,L|272:256,6,30,2|2|2|2|2|2|2,0:3|0:3|0:3|0:3|0:3|0:3|0:3,0:3:0:0:
128,192,152977,5,4,0:0:0:0:
256,96,153441,1,4,0:0:0:0:
384,192,153905,1,4,0:0:0:0:
352,320,154214,6,0,L|288:320,1,60
192,320,154832,1,0,0:0:0:0:
144,320,154987,1,0,0:0:0:0:
0,192,155451,6,0,L|32:160,1,30,4|0,0:2|0:0,0:0:0:0:
80,144,155760,2,0,L|112:112,1,30
160,80,156070,2,0,L|224:80,1,60,8|0,0:0|0:0,0:0:0:0:
368,80,156688,2,0,P|432:112|432:160,1,120,0|8,0:0|0:0,0:0:0:0:
416,336,157925,6,0,L|352:336,1,60
256,272,158544,2,0,L|336:272,1,60,8|0,0:0|0:0,0:0:0:0:
224,336,159162,2,0,L|96:336,1,120,0|8,0:0|0:0,0:0:0:0:
32,192,160399,5,0,0:0:0:0:
32,192,160554,1,0,0:0:0:0:
128,192,160709,1,0,0:0:0:0:
128,192,160863,1,0,0:0:0:0:
224,192,161018,2,0,P|240:240|256:240,1,60,8|0,0:0|0:0,0:0:0:0:
416,304,161637,2,0,P|480:272|480:208,1,120,0|8,0:0|0:0,0:0:0:0:
304,48,162874,6,0,L|368:48,1,60
272,128,163492,2,0,L|192:128,1,60,8|0,0:0|0:0,0:0:0:0:
96,96,164111,1,0,0:0:0:0:
16,176,164420,1,0,0:0:0:0:
112,208,164729,1,8,0:0:0:0:
112,208,164884,1,0,0:0:0:0:
432,192,165348,6,0,P|464:256|448:272,1,90,4|8,0:2|0:0,0:0:0:0:
352,320,166276,2,0,P|288:336|272:320,1,90,4|8,0:0|0:0,0:0:0:0:
160,288,167204,1,0,0:0:0:0:
48,288,167513,1,0,0:0:0:0:
48,128,167822,6,0,P|48:80|80:80,1,90,4|8,0:0|0:0,0:0:0:0:
224,96,168750,2,0,P|272:96|272:64,1,90,4|8,0:0|0:0,0:0:0:0:
400,112,169678,1,0,0:0:0:0:
512,112,169987,1,0,0:0:0:0:
480,224,170296,5,4,0:2:0:0:
448,256,170451,1,0,0:0:0:0:
416,288,170606,1,0,0:0:0:0:
384,320,170760,1,0,0:0:0:0:
336,320,170915,2,0,L|272:320,1,60,8|0,0:0|0:0,0:0:0:0:
80,320,171533,2,0,L|80:192,1,120,0|8,0:0|0:0,0:0:0:0:
240,48,172771,5,8,0:0:0:0:
288,48,172925,1,0,0:0:0:0:
336,48,173080,1,8,0:0:0:0:
352,160,173389,1,8,0:0:0:0:
304,160,173544,1,0,0:0:0:0:
256,160,173698,1,8,0:0:0:0:
224,256,174008,6,0,L|160:256,1,60
64,288,174626,2,0,L|112:288,1,30
304,96,175245,6,0,P|256:64|208:96,1,120,4|8,0:2|0:0,0:0:0:0:
208,144,176482,2,0,P|256:176|304:128,1,120,0|8,0:0|0:0,0:0:0:0:
320,224,177719,2,0,P|304:288|256:304,1,120,0|8,0:0|0:0,0:0:0:0:
448,64,179265,6,0,L|448:128,1,60,0|8,0:0|0:0,0:0:0:0:
336,64,179884,1,0,0:0:0:0:
256,96,180193,6,0,P|192:112|192:176,1,120,0|8,0:0|0:0,0:0:0:0:
208,240,181430,2,0,P|256:208|304:240,1,120,0|8,0:0|0:0,0:0:0:0:
304,288,182667,2,0,P|256:320|208:288,1,120,0|8,0:0|0:0,0:0:0:0:
352,288,183905,5,0,0:0:0:0:
256,352,184214,1,0,0:0:0:0:
160,288,184523,1,0,0:0:0:0:
160,288,184678,1,0,0:0:0:0:
